(Jazz, Smooth Jazz, Vocal Jazz) - VA - Verve Today 2011 - (VA) (2011) (Lossless) FLAC (tracks+.cue)

Ответить на тему
 
Автор
Сообщение

Пост 31-Окт-2011 20:15

[Q] 

Koralina

VA - Verve Today 2011 (2011) Производство: VA
Жанр: Jazz, Smooth Jazz, Vocal Jazz
Дата выхода: 2011
Формат аудио: FLAC (tracks+.cue)
Битрэйт: lossless
Продолжительность: 70 min 22 sec

01. Nikki Yanofsky - Never Make it on Time
02. Michel Camilo - The Sidewinder
03. Nailah Porter - Breathe
04. Julian Lage - Listening Walk
05. Hugh Masekela - U, Dwi
06. Celine Rudolph - Liebeskrank
07. John Scofield Quartet - Simply Put
08. Tigran - Samsara
09. Bugge Wesseltoft & Henrik Schwarz - Kammermusik
10. Romane & Stochelo Rosenberg - Guet-Apens
11. Lizz Wright - (I’ve Got to Use My) Imagination
12. Armin Mueller-Stahl - Spielt Der Donner...
13. Gerald Clayton - Bootleg Bruise
14. Frank Chastenier - Ella Elle L’a
Код:
Exact Audio Copy V1.0 beta 2 from 29. April 2011
EAC extraction logfile from 24. September 2011, 11:26
Diverse / Verve Today 2011
Used drive  : Optiarc DVD RW AD-7243S   Adapter: 1  ID: 1
Read mode               : Secure
Utilize accurate stream : Yes
Defeat audio cache      : Yes
Make use of C2 pointers : No
Read offset correction                      : 48
Overread into Lead-In and Lead-Out          : No
Fill up missing offset samples with silence : Yes
Delete leading and trailing silent blocks   : No
Null samples used in CRC calculations       : Yes
Used interface                              : Native Win32 interface for Win NT & 2000
Gap handling                                : Not detected, thus appended to previous track
Used output format              : User Defined Encoder
Selected bitrate                : 1024 kBit/s
Quality                         : High
Add ID3 tag                     : No
Command line compressor         : C:\Program Files\Exact Audio Copy\FLAC\FLAC.EXE
Additional command line options : -8 -V -T "ARTIST=%artist%" -T "TITLE=%title%" -T "ALBUM=%albumtitle%" -T "DATE=%year%" -T "TRACKNUMBER=%tracknr%" -T "GENRE=%genre%" -T "PERFORMER=%albuminterpret%" -T "COMPOSER=%composer%" %haslyrics%--tag-from-file=LYRICS
TOC of the extracted CD
     Track |   Start  |  Length  | Start sector | End sector
    ---------------------------------------------------------
        1  |  0:00.00 |  2:28.58 |         0    |    11157
        2  |  2:28.58 |  6:16.61 |     11158    |    39418
        3  |  8:45.44 |  6:20.13 |     39419    |    67931
        4  | 15:05.57 |  4:24.17 |     67932    |    87748
        5  | 19:29.74 |  4:37.11 |     87749    |   108534
        6  | 24:07.10 |  3:52.13 |    108535    |   125947
        7  | 27:59.23 |  5:29.49 |    125948    |   150671
        8  | 33:28.72 |  5:35.33 |    150672    |   175829
        9  | 39:04.30 |  6:51.35 |    175830    |   206689
       10  | 45:55.65 |  4:33.45 |    206690    |   227209
       11  | 50:29.35 |  4:38.08 |    227210    |   248067
       12  | 55:07.43 |  3:38.45 |    248068    |   264462
       13  | 58:46.13 |  5:06.14 |    264463    |   287426
       14  | 63:52.27 |  6:30.32 |    287427    |   316708
Track  1
     Filename J:\torrents\Verve Today 2011\01. Nikki Yanofsky - Never Make It On Time.wav
     Peak level 88.6 %
     Extraction speed 2.3 X
     Track quality 100.0 %
     Test CRC A18500B0
     Copy CRC A18500B0
     Accurately ripped (confidence 2)  [1287869B]  (AR v1)
     Copy OK
Track  2
     Filename J:\torrents\Verve Today 2011\02. Michel Camilo - The Sidewinder.wav
     Peak level 98.8 %
     Extraction speed 2.6 X
     Track quality 99.9 %
     Test CRC C6680E7F
     Copy CRC C6680E7F
     Accurately ripped (confidence 2)  [D4C58E3C]  (AR v1)
     Copy OK
Track  3
     Filename J:\torrents\Verve Today 2011\03. Nailah Porter - Breathe.wav
     Peak level 98.8 %
     Extraction speed 3.2 X
     Track quality 100.0 %
     Test CRC 655C6611
     Copy CRC 655C6611
     Accurately ripped (confidence 2)  [04C0C967]  (AR v1)
     Copy OK
Track  4
     Filename J:\torrents\Verve Today 2011\04. Julian Lage - Listening Walk.wav
     Peak level 90.5 %
     Extraction speed 3.3 X
     Track quality 100.0 %
     Test CRC 812AB293
     Copy CRC 812AB293
     Accurately ripped (confidence 2)  [4E88E832]  (AR v1)
     Copy OK
Track  5
     Filename J:\torrents\Verve Today 2011\05. Hugh Masekela - U, Dwi (Kahedi Mix).wav
     Peak level 88.0 %
     Extraction speed 3.6 X
     Track quality 100.0 %
     Test CRC E05CEFC9
     Copy CRC E05CEFC9
     Accurately ripped (confidence 2)  [FA7D0F3D]  (AR v1)
     Copy OK
Track  6
     Filename J:\torrents\Verve Today 2011\06. Céline Rudolph - Liebeskrank.wav
     Peak level 75.9 %
     Extraction speed 3.7 X
     Track quality 100.0 %
     Test CRC D9C9F751
     Copy CRC D9C9F751
     Accurately ripped (confidence 2)  [2F31156F]  (AR v1)
     Copy OK
Track  7
     Filename J:\torrents\Verve Today 2011\07. John Scofield Quartett - Simply Put.wav
     Peak level 98.8 %
     Extraction speed 3.7 X
     Track quality 99.9 %
     Test CRC B6051127
     Copy CRC B6051127
     Accurately ripped (confidence 2)  [BEB75269]  (AR v1)
     Copy OK
Track  8
     Filename J:\torrents\Verve Today 2011\08. Tigran - Samsara.wav
     Peak level 98.8 %
     Extraction speed 4.3 X
     Track quality 100.0 %
     Test CRC D9791809
     Copy CRC D9791809
     Accurately ripped (confidence 2)  [3F21D57D]  (AR v1)
     Copy OK
Track  9
     Filename J:\torrents\Verve Today 2011\09. Bugge Wesseltoft & Henrik Schwarz - Kammermusik.wav
     Peak level 92.9 %
     Extraction speed 4.6 X
     Track quality 100.0 %
     Test CRC B71B4FA6
     Copy CRC B71B4FA6
     Accurately ripped (confidence 2)  [1E53D0B9]  (AR v1)
     Copy OK
Track 10
     Filename J:\torrents\Verve Today 2011\10. Romane & Stochelo Rosenberg - Guet-Apens.wav
     Peak level 96.8 %
     Extraction speed 4.6 X
     Track quality 100.0 %
     Test CRC 722D7345
     Copy CRC 722D7345
     Accurately ripped (confidence 2)  [1D74BCE3]  (AR v1)
     Copy OK
Track 11
     Filename J:\torrents\Verve Today 2011\11. Lizz Wright - (I've Got To Use My) Imagination.wav
     Peak level 98.8 %
     Extraction speed 4.8 X
     Track quality 100.0 %
     Test CRC 6A518F0E
     Copy CRC 6A518F0E
     Accurately ripped (confidence 2)  [2F771570]  (AR v1)
     Copy OK
Track 12
     Filename J:\torrents\Verve Today 2011\12. Armin Mueller-Stahl - Spielt Der Donner ....wav
     Peak level 98.8 %
     Extraction speed 4.8 X
     Track quality 100.0 %
     Test CRC F24959D2
     Copy CRC F24959D2
     Accurately ripped (confidence 2)  [AFDBB659]  (AR v1)
     Copy OK
Track 13
     Filename J:\torrents\Verve Today 2011\13. Gerald Clayton - Bootleg Bruise.wav
     Peak level 98.8 %
     Extraction speed 5.1 X
     Track quality 100.0 %
     Test CRC 7D6268D1
     Copy CRC 7D6268D1
     Accurately ripped (confidence 2)  [D8D721CE]  (AR v1)
     Copy OK
Track 14
     Filename J:\torrents\Verve Today 2011\14. Frank Chastenier - Ella, Elle L'a.wav
     Peak level 98.8 %
     Extraction speed 5.0 X
     Track quality 99.9 %
     Test CRC BDC3C8B1
     Copy CRC BDC3C8B1
     Accurately ripped (confidence 2)  [4305B07D]  (AR v1)
     Copy OK
All tracks accurately ripped
No errors occurred
End of status report
Код:
REM GENRE Jazz
REM DATE 2011
REM DISCID B3107E0E
REM COMMENT "ExactAudioCopy v1.0b2"
PERFORMER "Diverse"
TITLE "Verve Today 2011"
FILE "01. Nikki Yanofsky - Never Make It On Time.wav" WAVE
  TRACK 01 AUDIO
    TITLE "Never Make It On Time"
    PERFORMER "Nikki Yanofsky"
    INDEX 01 00:00:00
  TRACK 02 AUDIO
    TITLE "The Sidewinder"
    PERFORMER "Michel Camilo"
    INDEX 00 02:27:14
FILE "02. Michel Camilo - The Sidewinder.wav" WAVE
    INDEX 01 00:00:00
FILE "03. Nailah Porter - Breathe.wav" WAVE
  TRACK 03 AUDIO
    TITLE "Breathe"
    PERFORMER "Nailah Porter"
    INDEX 01 00:00:00
  TRACK 04 AUDIO
    TITLE "Listening Walk"
    PERFORMER "Julian Lage"
    INDEX 00 06:19:23
FILE "04. Julian Lage - Listening Walk.wav" WAVE
    INDEX 01 00:00:00
FILE "05. Hugh Masekela - U, Dwi (Kahedi Mix).wav" WAVE
  TRACK 05 AUDIO
    TITLE "U, Dwi (Kahedi Mix)"
    PERFORMER "Hugh Masekela"
    INDEX 01 00:00:00
  TRACK 06 AUDIO
    TITLE "Liebeskrank"
    PERFORMER "Celine Rudolph"
    INDEX 00 04:36:45
FILE "06. Celine Rudolph - Liebeskrank.wav" WAVE
    INDEX 01 00:00:00
  TRACK 07 AUDIO
    TITLE "Simply Put"
    PERFORMER "John Scofield Quartett"
    INDEX 00 03:50:61
FILE "07. John Scofield Quartett - Simply Put.wav" WAVE
    INDEX 01 00:00:00
FILE "08. Tigran - Samsara.wav" WAVE
  TRACK 08 AUDIO
    TITLE "Samsara"
    PERFORMER "Tigran"
    INDEX 01 00:00:00
  TRACK 09 AUDIO
    TITLE "Kammermusik"
    PERFORMER "Bugge Wesseltoft & Henrik Schwarz"
    INDEX 00 05:33:31
FILE "09. Bugge Wesseltoft & Henrik Schwarz - Kammermusik.wav" WAVE
    INDEX 01 00:00:00
FILE "10. Romane & Stochelo Rosenberg - Guet-Apens.wav" WAVE
  TRACK 10 AUDIO
    TITLE "Guet-Apens"
    PERFORMER "Romane & Stochelo Rosenberg"
    INDEX 01 00:00:00
  TRACK 11 AUDIO
    TITLE "(I've Got To Use My) Imagination"
    PERFORMER "Lizz Wright"
    INDEX 00 04:32:69
FILE "11. Lizz Wright - (I've Got To Use My) Imagination.wav" WAVE
    INDEX 01 00:00:00
  TRACK 12 AUDIO
    TITLE "Spielt Der Donner ..."
    PERFORMER "Armin Mueller-Stahl"
    INDEX 00 04:36:57
FILE "12. Armin Mueller-Stahl - Spielt Der Donner ....wav" WAVE
    INDEX 01 00:00:00
  TRACK 13 AUDIO
    TITLE "Bootleg Bruise"
    PERFORMER "Gerald Clayton"
    INDEX 00 03:36:68
FILE "13. Gerald Clayton - Bootleg Bruise.wav" WAVE
    INDEX 01 00:00:00
FILE "14. Frank Chastenier - Ella, Elle L'a.wav" WAVE
  TRACK 14 AUDIO
    TITLE "Ella, Elle L'a"
    PERFORMER "Frank Chastenier"
    INDEX 01 00:00:00
Download / Скачать

Хотите скачать бесплатно? Зарегистрируйтесь на сайте (ссылка на регистрацию). Pirat.ca - самый быстрый торрент трекер в рунете!

Как скачивать  ·   Что такое торрент  ·   Рейтинг и ограничения

Боцман

1855

Пост 27-Ноя-2011 07:17 (спустя 26 дней)

[Q] 

Подхватываю...

_________________
не верь не бойся не проси не плачь...
[Профиль]  [ЛС] 

marishynchik

Шкипер

Пост 01-Янв-2013 19:56 (спустя 1 год 1 месяц)

[Q] 

[Профиль]  [ЛС] 

gis

Корсар

Пост 30-Июл-2013 18:19 (спустя 6 месяцев 28 дней)

[Q] 

Спасибо!
[Профиль]  [ЛС] 
Показать сообщения:    
Ответить на тему

Текущее время: Сегодня 16:26

Часовой пояс: GMT + 4



Вы не можете начинать темы
Вы не можете отвечать на сообщения
Вы не можете редактировать свои сообщения
Вы не можете удалять свои сообщения
Вы не можете голосовать в опросах
Вы не можете прикреплять файлы к сообщениям
Вы не можете скачивать файлы

Майнать ▼