(rock) Jethro Tull: Aqualung - 40th Anniversary Collector's Edition [2011, rock, Blu-ray 1080p, LPCM & DTS-HD MA 5.1 96/24]

Ответить на тему
 
Автор
Сообщение

Пост 06-Апр-2012 20:39

[Q] 

Koralina

Jethro Tull • Aqualung
40th Anniversary Collector's Edition
Оригинальное название: Jethro Tull - Aqualung - 40th Anniversary Collector's Edition
Жанр: rock
Продолжительность: ~ 237 min.
Год выхода альбома: 1971
Год выпуска издания: 2011
Labels: EMI Records| Chrysalis Records
Remastering: Steven Wilson
Ian Anderson - vocals, acoustic guitar, flute
Martin Barre - electric guitar, descant recorder
John Evan - piano, organ, mellotron
Jeffrey Hammond (as "Jeffrey Hammond-Hammond") - bass guitar, alto recorder and odd voices (and backing vocals on "Mother Goose")
Clive Bunker - drums and percussion
Glenn Cornick - bass guitar (played with the band at rehearsals for the album in June 1970, some of which may also have been recording sessions, although he is not credited on the album)
Commemorative Collector's Edition of the classic 1971 album, featuring previously unreleased all new stereo and 5.1 surround sound edition, mixed by Steven Wilson. Blu-ray Album mixed to 5.1 surround sound with 4 additional recordings all 96/24 LPCM & DTS-HD Master Audio.
Though this is ostensibly an "audio only" release, there is minimal video content on the Blu-ray, encoded via AVC. It's simple things like an animated screen featuring the original album cover with superimposed titles of whatever song is playing, or in the case of the bonus tracks, various (sometimes weird and wacky) promo pictures of Ian and the boys.
The audio options on the Blu-ray disc:
• New Mix by Steven Wilson 2011 – 96/24 LPCM Stereo
• New Mix by Steven Wilson 2011 – 96/24 LPCM 5.1
• New Mix by Steven Wilson 2011 – DTS-HD Master Audio 5.1
• Original Mix (Direct Transfer of ј Inch Master) – 96/24 LPCM Stereo
• Quad Mix (Original 1974 Quadrophonic Mix by Robin Black) – 96/24 LPCM 4.1
• Quad Mix (Original 1974 Quadrophonic Mix by Robin Black) – DTS-HD Master Audio 4.1
Tracklisting album:
1. Aqualung (6:35) | 2. Cross-Eyed Mary (4:10) | 3. Cheap Day Return (1:22) | 4. Mother Goose (3:53)
5. Wond'ring Aloud (1:53) | 6. Up To Me (3:14) | 7. My God (7:11) | 8. Hymn (3:18) | 9. Slipstream (1:13)
10. Locomotive Breath (4:41) | 11. Wind-Up (6:03)-Bonus tracks - Additional Recordings 1970-71 (Stereo 96/24 LPCM):
1. Lick Your Fingers Clean (2:49) *
2. Just Trying to Be (1:38)
3. My God (9:43) * (Early version, previously unreleased)
4. Wond'ring Aloud (1:52) (Unreleased early version 12/13/70)
5. Wind-Up (5:22) (Early version)
6. Slipstream (0:55) (Take 2)
7. Up the Pool (1:13) (Early version, previously unreleased)
8. Wond'ring Aloud Again (7:08) (Unreleased Morgan Studios version)
9. Life is a Long Song (3:20) *
10. Up the Pool (3:13) *
11. Dr. Bogenbroom (3:01) (Original Mix Remastered)
12. From Later (2:09) (Original Mix Remastered)
13. Nursie (1:38) (Original Mix Remastered)

* track marked have an additional 5.1 surround mix
-
Aqualung
«Акваланг» — четвёртый студийный альбом британской рок-группы «Jethro Tull».
Альбом стал первым для нового участника группы Джеффри Хэммонда (бас-гитара) и последним в
составе «Jethro Tull» для ударника Клайва Банкера. «Акваланг» является самым коммерчески успешным
диском группы: общее число продаж составило более 7 миллионов экземпляров. В 2003 году он достиг
337 отметки в списке «500 величайших альбомов всех времён по версии журнала Rolling Stone».
Качество: Blu-ray
Контейнер: BDMV
Видео кодек: AVC
Аудио кодек: DTS, PCM
Video: MPEG-4 AVC 14752 kbps 1920x1080p / 23,976 fps / 16:9 / High Profile 4.1
Audio#1: English LPCM 5.1 / 96 kHz / 13824 kbps / 24-bit
Audio#2: English LPCM 2.0 / 96 kHz / 4608 kbps / 24-bit
Audio#3: English DTS-HD MA 5.1 / 96 kHz / 7622 kbps / 24-bit (DTS Core: 6.1 / 48 kHz / 1509 kbps / 24-bit)
Audio#4: English DTS-HD MA 4.1 / 96 kHz / 6131 kbps / 24-bit (DTS Core: 4.1 / 48 kHz / 1509 kbps / 24-bit)
Disc Title: Jethro Tull © 1971 - Aqualung - 40th Anniversary Collector's Edition.2011.BD1080p
Disc Size: 35 252 211 305 bytes
Protection: AACS
BD-Java: No
BDInfo: 0.5.6
Notes:
BDINFO HOME:
Cinema Squid
http://www.cinemasquid.com/blu-ray/tools/bdinfo
INCLUDES FORUMS REPORT FOR:
AVS Forum Blu-ray Audio and Video Specifications Thread
http://www.avsforum.com/avs-vb/showthread.php?t=1155731
********************
PLAYLIST: 00017.MPLS
********************
Код:
Total   Video
Title                                                           Codec   Length  Movie Size      Disc Size       Bitrate Bitrate Main Audio Track                          Secondary Audio Track
-----                                                           ------  ------- --------------  --------------  ------- ------- ------------------                        ---------------------
00017.MPLS                                                      MPEG-2  0:43:57 6 734 917 632   35 252 211 305  20,43   0,03    LPCM 5.1 13824Kbps (96kHz/24-bit)         DTS-HD Master 5.1 2912Kbps (96kHz/24-bit)
Код:
DISC INFO:
Disc Title:     Jethro Tull © 1971 - Aqualung - 40th Anniversary Collector's Edition.2011.BD1080p
Disc Size:      35 252 211 305 bytes
Protection:     AACS
BD-Java:        No
BDInfo:         0.5.6
PLAYLIST REPORT:
Name:                   00017.MPLS
Length:                 0:43:57 (h:m:s)
Size:                   6 734 917 632 bytes
Total Bitrate:          20,43 Mbps
VIDEO:
Codec                   Bitrate             Description
-----                   -------             -----------
MPEG-2 Video            29 kbps             1080p / 23,976 fps / 16:9
AUDIO:
Codec                           Language        Bitrate         Description
-----                           --------        -------         -----------
LPCM Audio                      English         13824 kbps      5.1 / 96 kHz / 13824 kbps / 24-bit
DTS-HD Master Audio             English         2912 kbps       5.1 / 96 kHz / 2912 kbps / 24-bit (DTS Core: 6.1 / 48 kHz / 1509 kbps / 24-bit)
LPCM Audio                      English         4608 kbps       2.0 / 96 kHz / 4608 kbps / 24-bit
FILES:
Name            Time In         Length          Size            Total Bitrate
----            -------         ------          ----            -------------
00002.M2TS      0:00:00.000     0:02:49.216     602 234 880     14 245
00003.M2TS      0:02:49.216     0:01:37.934     182 145 024     7 508
00004.M2TS      0:04:27.150     0:09:42.752     1 980 549 120   13 600
00005.M2TS      0:14:09.902     0:01:51.529     207 925 248     7 490
00006.M2TS      0:16:01.432     0:05:21.654     596 539 392     7 428
00007.M2TS      0:21:23.087     0:00:55.054     103 133 184     7 502
00008.M2TS      0:22:18.142     0:01:12.740     136 009 728     7 555
00009.M2TS      0:23:30.882     0:07:07.890     793 061 376     7 423
00010.M2TS      0:30:38.772     0:03:19.825     697 712 640     14 015
00011.M2TS      0:33:58.597     0:03:12.695     679 630 848     14 149
00012.M2TS      0:37:11.292     0:03:00.850     336 113 664     7 464
00013.M2TS      0:40:12.142     0:02:08.799     239 947 776     7 495
00014.M2TS      0:42:20.942     0:01:35.750     178 372 608     7 508
00021.M2TS      0:43:56.692     0:00:01.000     1 542 144       6 573
CHAPTERS:
Number          Time In         Length          Avg Video Rate  Max 1-Sec Rate  Max 1-Sec Time  Max 5-Sec Rate  Max 5-Sec Time  Max 10Sec Rate  Max 10Sec Time  Avg Frame Size  Max Frame Size  Max Frame Time
------          -------         ------          --------------  --------------  --------------  --------------  --------------  --------------  --------------  --------------  --------------  --------------
1               0:00:00.000     0:02:49.216     98 kbps         105 kbps        00:02:49.132    105 kbps        00:02:49.132    105 kbps        00:02:49.132    687 964 bytes   792 613 bytes   00:02:49.085
2               0:02:49.216     0:01:37.934     107 kbps        18 kbps         00:04:27.067    18 kbps         00:04:27.067    18 kbps         00:04:27.067    652 218 bytes   825 768 bytes   00:14:09.649
3               0:04:27.150     0:09:42.752     22 kbps         116 kbps        00:14:09.819    116 kbps        00:14:09.819    116 kbps        00:14:09.819    803 458 bytes   825 768 bytes   00:14:09.691
4               0:14:09.902     0:01:51.529     111 kbps        38 kbps         00:16:01.349    38 kbps         00:16:01.349    38 kbps         00:16:01.349    771 787 bytes   781 148 bytes   00:16:00.972
5               0:16:01.432     0:05:21.654     38 kbps         222 kbps        00:21:23.004    222 kbps        00:21:23.004    222 kbps        00:21:23.004    764 590 bytes   766 753 bytes   00:22:18.059
6               0:21:23.087     0:00:55.054     213 kbps        163 kbps        00:22:18.059    163 kbps        00:22:18.059    163 kbps        00:22:18.059    733 419 bytes   766 753 bytes   00:22:18.101
7               0:22:18.142     0:01:12.740     162 kbps        28 kbps         00:23:30.799    28 kbps         00:23:30.799    28 kbps         00:23:30.799    738 089 bytes   776 094 bytes   00:30:38.226
8               0:23:30.882     0:07:07.890     29 kbps         63 kbps         00:30:38.689    63 kbps         00:30:38.689    63 kbps         00:30:38.689    778 495 bytes   780 896 bytes   00:33:57.888
9               0:30:38.772     0:03:19.825     61 kbps         63 kbps         00:33:58.514    63 kbps         00:33:58.514    63 kbps         00:33:58.514    759 436 bytes   780 896 bytes   00:33:57.930
10              0:33:58.597     0:03:12.694     63 kbps         67 kbps         00:37:11.209    67 kbps         00:37:11.209    67 kbps         00:37:11.209    753 692 bytes   769 407 bytes   00:40:11.389
11              0:37:11.292     0:03:00.849     70 kbps         99 kbps         00:40:12.059    99 kbps         00:40:12.059    99 kbps         00:40:12.059    795 274 bytes   821 141 bytes   00:42:20.187
12              0:40:12.142     0:02:08.799     89 kbps         120 kbps        00:42:20.859    120 kbps        00:42:20.859    120 kbps        00:42:20.859    713 276 bytes   821 141 bytes   00:42:20.229
13              0:42:20.942     0:01:35.750     53 kbps         5 089 kbps      00:43:56.609    0 kbps          00:00:00.000    0 kbps          00:00:00.000    318 362 bytes   605 410 bytes   00:43:55.996
14              0:43:56.692     0:00:01.001     250 kbps        0 kbps          00:00:00.000    0 kbps          00:00:00.000    0 kbps          00:00:00.000    31 313 bytes    31 313 bytes    00:43:57.652
STREAM DIAGNOSTICS:
File            PID             Type            Codec           Language                Seconds                 Bitrate                 Bytes           Packets
----            ---             ----            -----           --------                --------------          --------------          -------------   -----
00002.M2TS      4113 (0x1011)   0x02            MPEG-2                                  0                       0                       1 585 226       8 616
00002.M2TS      4352 (0x1100)   0x80            LPCM            eng (English)           0                       0                       97 603 212      541 488
00002.M2TS      4353 (0x1101)   0x80            LPCM            eng (English)           0                       0                       292 538 892     1 624 464
00002.M2TS      4354 (0x1102)   0x86            DTS-HD MA       eng (English)           0                       0                       171 096 368     956 378
00003.M2TS      4113 (0x1011)   0x02            MPEG-2                                  0                       0                       957 334         5 204
00003.M2TS      4352 (0x1100)   0x80            LPCM            eng (English)           0                       0                       56 488 908      313 392
00003.M2TS      4353 (0x1101)   0x80            LPCM            eng (English)           0                       0                       56 488 908      313 392
00003.M2TS      4354 (0x1102)   0x80            LPCM            eng (English)           0                       0                       56 488 908      313 392
00004.M2TS      4113 (0x1011)   0x02            MPEG-2                                  0                       0                       1 651 536       8 976
00004.M2TS      4352 (0x1100)   0x80            LPCM            eng (English)           0                       0                       336 130 200     1 864 800
00004.M2TS      4353 (0x1101)   0x80            LPCM            eng (English)           0                       0                       1 007 458 200   5 594 400
00004.M2TS      4354 (0x1102)   0x86            DTS-HD MA       eng (English)           0                       0                       503 524 724     2 827 606
00005.M2TS      4113 (0x1011)   0x02            MPEG-2                                  0                       0                       1 562 296       8 492
00005.M2TS      4352 (0x1100)   0x80            LPCM            eng (English)           0                       0                       64 330 504      356 896
00005.M2TS      4353 (0x1101)   0x80            LPCM            eng (English)           0                       0                       64 330 504      356 896
00005.M2TS      4354 (0x1102)   0x80            LPCM            eng (English)           0                       0                       64 330 504      356 896
00006.M2TS      4113 (0x1011)   0x02            MPEG-2                                  0                       0                       1 524 852       8 288
00006.M2TS      4352 (0x1100)   0x80            LPCM            eng (English)           0                       0                       185 530 604     1 029 296
00006.M2TS      4353 (0x1101)   0x80            LPCM            eng (English)           0                       0                       185 530 604     1 029 296
00006.M2TS      4354 (0x1102)   0x80            LPCM            eng (English)           0                       0                       185 530 604     1 029 296
00007.M2TS      4113 (0x1011)   0x02            MPEG-2                                  0                       0                       1 533 506       8 336
00007.M2TS      4352 (0x1100)   0x80            LPCM            eng (English)           0                       0                       31 660 552      175 648
00007.M2TS      4353 (0x1101)   0x80            LPCM            eng (English)           0                       0                       31 660 552      175 648
00007.M2TS      4354 (0x1102)   0x80            LPCM            eng (English)           0                       0                       31 660 552      175 648
00008.M2TS      4113 (0x1011)   0x02            MPEG-2                                  0                       0                       1 400 168       7 610
00008.M2TS      4352 (0x1100)   0x80            LPCM            eng (English)           0                       0                       41 956 432      232 768
00008.M2TS      4353 (0x1101)   0x80            LPCM            eng (English)           0                       0                       41 956 432      232 768
00008.M2TS      4354 (0x1102)   0x80            LPCM            eng (English)           0                       0                       41 956 432      232 768
00009.M2TS      4113 (0x1011)   0x02            MPEG-2                                  0                       0                       1 552 188       8 438
00009.M2TS      4352 (0x1100)   0x80            LPCM            eng (English)           0                       0                       246 806 952     1 369 248
00009.M2TS      4353 (0x1101)   0x80            LPCM            eng (English)           0                       0                       246 806 952     1 369 248
00009.M2TS      4354 (0x1102)   0x80            LPCM            eng (English)           0                       0                       246 806 952     1 369 248
00010.M2TS      4113 (0x1011)   0x02            MPEG-2                                  0                       0                       1 561 792       8 490
00010.M2TS      4352 (0x1100)   0x80            LPCM            eng (English)           0                       0                       115 259 060     639 440
00010.M2TS      4353 (0x1101)   0x80            LPCM            eng (English)           0                       0                       344 463 400     1 912 800
00010.M2TS      4354 (0x1102)   0x86            DTS-HD MA       eng (English)           0                       0                       190 519 332     1 066 465
00011.M2TS      4113 (0x1011)   0x02            MPEG-2                                  0                       0                       1 475 952       8 022
00011.M2TS      4352 (0x1100)   0x80            LPCM            eng (English)           0                       0                       111 146 476     616 624
00011.M2TS      4353 (0x1101)   0x80            LPCM            eng (English)           0                       0                       333 131 116     1 849 872
00011.M2TS      4354 (0x1102)   0x86            DTS-HD MA       eng (English)           0                       0                       189 286 408     1 058 721
00012.M2TS      4113 (0x1011)   0x02            MPEG-2                                  0                       0                       1 538 814       8 364
00012.M2TS      4352 (0x1100)   0x80            LPCM            eng (English)           0                       0                       104 314 280     578 720
00012.M2TS      4353 (0x1101)   0x80            LPCM            eng (English)           0                       0                       104 314 280     578 720
00012.M2TS      4354 (0x1102)   0x80            LPCM            eng (English)           0                       0                       104 314 280     578 720
00013.M2TS      4113 (0x1011)   0x02            MPEG-2                                  0                       0                       1 642 282       8 926
00013.M2TS      4352 (0x1100)   0x80            LPCM            eng (English)           0                       0                       74 291 840      412 160
00013.M2TS      4353 (0x1101)   0x80            LPCM            eng (English)           0                       0                       74 291 840      412 160
00013.M2TS      4354 (0x1102)   0x80            LPCM            eng (English)           0                       0                       74 291 840      412 160
00014.M2TS      4113 (0x1011)   0x02            MPEG-2                                  0                       0                       1 210 820       6 582
00014.M2TS      4352 (0x1100)   0x80            LPCM            eng (English)           0                       0                       55 228 600      306 400
00014.M2TS      4353 (0x1101)   0x80            LPCM            eng (English)           0                       0                       55 228 600      306 400
00014.M2TS      4354 (0x1102)   0x80            LPCM            eng (English)           0                       0                       55 228 600      306 400
00021.M2TS      4113 (0x1011)   0x02            MPEG-2                                  0                       0                       62 626          342
00021.M2TS      4352 (0x1100)   0x80            LPCM            eng (English)           0                       0                       576 800         3 200
00021.M2TS      4353 (0x1101)   0x80            LPCM            eng (English)           0                       0                       576 800         3 200
00021.M2TS      4354 (0x1102)   0x86            DTS-HD MA       eng (English)           0                       0                       195 520         1 222
QUICK SUMMARY:
Disc Title: Jethro Tull © 1971 - Aqualung - 40th Anniversary Collector's Edition.2011.BD1080p
Disc Size: 35 252 211 305 bytes
Protection: AACS
BD-Java: No
Playlist: 00017.MPLS
Size: 6 734 917 632 bytes
Length: 0:43:57
Total Bitrate: 20,43 Mbps
Video: MPEG-2 Video / 29 kbps / 1080p / 23,976 fps / 16:9
Audio: English / LPCM Audio / 5.1 / 96 kHz / 13824 kbps / 24-bit
Audio: English / DTS-HD Master Audio / 5.1 / 96 kHz / 2912 kbps / 24-bit (DTS Core: 6.1 / 48 kHz / 1509 kbps / 24-bit)
Audio: English / LPCM Audio / 2.0 / 96 kHz / 4608 kbps / 24-bit
********************
PLAYLIST: 00014.MPLS
********************
Код:
Total   Video
Title                                                           Codec   Length  Movie Size      Disc Size       Bitrate Bitrate Main Audio Track                          Secondary Audio Track
-----                                                           ------  ------- --------------  --------------  ------- ------- ------------------                        ---------------------
00014.MPLS                                                      AVC     0:43:34 13 574 633 472  35 252 211 305  41,54   14,76   LPCM 5.1 13824Kbps (96kHz/24-bit)         DTS-HD Master 4.1 6131Kbps (96kHz/24-bit)
Код:
DISC INFO:
Disc Title:     Jethro Tull © 1971 - Aqualung - 40th Anniversary Collector's Edition.2011.BD1080p
Disc Size:      35 252 211 305 bytes
Protection:     AACS
BD-Java:        No
BDInfo:         0.5.6
PLAYLIST REPORT:
Name:                   00014.MPLS
Length:                 0:43:34 (h:m:s)
Size:                   13 574 633 472 bytes
Total Bitrate:          41,54 Mbps
VIDEO:
Codec                   Bitrate             Description
-----                   -------             -----------
MPEG-4 AVC Video        14763 kbps          1080p / 23,976 fps / 16:9 / High Profile 4.1
AUDIO:
Codec                           Language        Bitrate         Description
-----                           --------        -------         -----------
LPCM Audio                      English         13824 kbps      5.1 / 96 kHz / 13824 kbps / 24-bit
DTS-HD Master Audio             English         6131 kbps       4.1 / 96 kHz / 6131 kbps / 24-bit (DTS Core: 4.1 / 48 kHz / 1509 kbps / 24-bit)
LPCM Audio                      English         4608 kbps       2.0 / 96 kHz / 4608 kbps / 24-bit
FILES:
Name            Time In         Length          Size            Total Bitrate
----            -------         ------          ----            -------------
00000.M2TS      0:00:00.000     0:43:33.235     13 573 144 128  41 551
00024.M2TS      0:43:33.235     0:00:01.084     1 489 344       10 580
CHAPTERS:
Number          Time In         Length          Avg Video Rate  Max 1-Sec Rate  Max 1-Sec Time  Max 5-Sec Rate  Max 5-Sec Time  Max 10Sec Rate  Max 10Sec Time  Avg Frame Size  Max Frame Size  Max Frame Time
------          -------         ------          --------------  --------------  --------------  --------------  --------------  --------------  --------------  --------------  --------------  --------------
1               0:00:00.000     0:06:38.731     14 750 kbps     29 165 kbps     00:00:00.041    20 857 kbps     00:06:02.487    18 561 kbps     00:04:30.645    76 890 bytes    600 539 bytes   00:02:11.005
2               0:06:38.731     0:04:11.834     14 549 kbps     28 226 kbps     00:09:23.229    20 591 kbps     00:09:31.070    18 457 kbps     00:08:31.052    75 850 bytes    607 548 bytes   00:07:11.347
3               0:10:50.566     0:01:23.458     14 226 kbps     26 884 kbps     00:12:07.351    20 418 kbps     00:11:18.761    18 557 kbps     00:11:31.357    74 168 bytes    607 933 bytes   00:12:13.023
4               0:12:14.024     0:03:53.399     14 725 kbps     28 162 kbps     00:15:23.839    20 724 kbps     00:12:32.418    18 639 kbps     00:14:31.662    76 769 bytes    604 253 bytes   00:12:14.859
5               0:16:07.424     0:01:55.740     14 512 kbps     26 767 kbps     00:16:22.564    20 739 kbps     00:16:33.325    18 669 kbps     00:16:31.323    75 657 bytes    605 889 bytes   00:16:12.096
6               0:18:03.165     0:03:15.028     14 694 kbps     26 551 kbps     00:18:23.227    20 665 kbps     00:19:20.075    18 802 kbps     00:19:31.712    76 609 bytes    601 264 bytes   00:21:17.693
7               0:21:18.193     0:07:12.765     14 883 kbps     27 267 kbps     00:24:24.588    20 830 kbps     00:24:04.317    18 987 kbps     00:27:32.525    77 593 bytes    599 958 bytes   00:22:13.373
8               0:28:30.959     0:03:18.990     14 888 kbps     27 292 kbps     00:31:06.447    20 879 kbps     00:29:34.522    19 014 kbps     00:31:33.141    77 617 bytes    600 007 bytes   00:31:13.955
9               0:31:49.949     0:01:13.364     14 690 kbps     26 474 kbps     00:32:24.192    20 632 kbps     00:32:34.953    19 017 kbps     00:32:32.950    76 588 bytes    601 874 bytes   00:32:13.723
10              0:33:03.314     0:04:26.557     14 930 kbps     27 022 kbps     00:36:25.808    20 786 kbps     00:33:34.929    19 046 kbps     00:34:33.696    77 838 bytes    606 362 bytes   00:33:13.658
11              0:37:29.872     0:06:03.363     14 923 kbps     31 627 kbps     00:43:31.358    20 877 kbps     00:40:34.223    19 053 kbps     00:39:34.205    77 810 bytes    600 606 bytes   00:38:15.167
12              0:43:33.235     0:00:01.084     72 kbps         75 kbps         00:43:33.235    0 kbps          00:00:00.000    0 kbps          00:00:00.000    406 bytes       2 427 bytes     00:43:34.194
STREAM DIAGNOSTICS:
File            PID             Type            Codec           Language                Seconds                 Bitrate                 Bytes           Packets
----            ---             ----            -----           --------                --------------          --------------          -------------   -----
00000.M2TS      4113 (0x1011)   0x1B            AVC                                     2613,111                14 771                  4 824 706 492   26 258 373
00000.M2TS      4352 (0x1100)   0x80            LPCM            eng (English)           2613,111                4 615                   1 507 290 876   8 362 224
00000.M2TS      4353 (0x1101)   0x80            LPCM            eng (English)           2613,111                13 616                  4 447 536 812   24 697 104
00000.M2TS      4354 (0x1102)   0x86            DTS-HD MA       eng (English)           2613,111                6 133                   2 003 361 216   11 288 224
00024.M2TS      4113 (0x1011)   0x1B            AVC                                     1,001                   100                     12 495          76
00024.M2TS      4352 (0x1100)   0x80            LPCM            eng (English)           1,001                   4 610                   576 800         3 200
00024.M2TS      4353 (0x1101)   0x80            LPCM            eng (English)           1,001                   4 610                   576 800         3 200
00024.M2TS      4354 (0x1102)   0x86            DTS-HD MA       eng (English)           1,001                   1 563                   195 520         1 222
QUICK SUMMARY:
Disc Title: Jethro Tull © 1971 - Aqualung - 40th Anniversary Collector's Edition.2011.BD1080p
Disc Size: 35 252 211 305 bytes
Protection: AACS
BD-Java: No
Playlist: 00014.MPLS
Size: 13 574 633 472 bytes
Length: 0:43:34
Total Bitrate: 41,54 Mbps
Video: MPEG-4 AVC Video / 14763 kbps / 1080p / 23,976 fps / 16:9 / High Profile 4.1
Audio: English / LPCM Audio / 5.1 / 96 kHz / 13824 kbps / 24-bit
Audio: English / DTS-HD Master Audio / 4.1 / 96 kHz / 6131 kbps / 24-bit (DTS Core: 4.1 / 48 kHz / 1509 kbps / 24-bit)
Audio: English / LPCM Audio / 2.0 / 96 kHz / 4608 kbps / 24-bit
********************
PLAYLIST: 00015.MPLS
********************
Код:
Total   Video
Title                                                           Codec   Length  Movie Size      Disc Size       Bitrate Bitrate Main Audio Track                          Secondary Audio Track
-----                                                           ------  ------- --------------  --------------  ------- ------- ------------------                        ---------------------
00015.MPLS                                                      AVC     0:43:33 14 150 516 736  35 252 211 305  43,32   14,75   LPCM 5.1 13824Kbps (96kHz/24-bit)         DTS-HD Master 5.1 7622Kbps (96kHz/24-bit)
Код:
DISC INFO:
Disc Title:     Jethro Tull © 1971 - Aqualung - 40th Anniversary Collector's Edition.2011.BD1080p
Disc Size:      35 252 211 305 bytes
Protection:     AACS
BD-Java:        No
BDInfo:         0.5.6
PLAYLIST REPORT:
Name:                   00015.MPLS
Length:                 0:43:33 (h:m:s)
Size:                   14 150 516 736 bytes
Total Bitrate:          43,32 Mbps
VIDEO:
Codec                   Bitrate             Description
-----                   -------             -----------
MPEG-4 AVC Video        14752 kbps          1080p / 23,976 fps / 16:9 / High Profile 4.1
AUDIO:
Codec                           Language        Bitrate         Description
-----                           --------        -------         -----------
LPCM Audio                      English         13824 kbps      5.1 / 96 kHz / 13824 kbps / 24-bit
DTS-HD Master Audio             English         7622 kbps       5.1 / 96 kHz / 7622 kbps / 24-bit (DTS Core: 6.1 / 48 kHz / 1509 kbps / 24-bit)
LPCM Audio                      English         4608 kbps       2.0 / 96 kHz / 4608 kbps / 24-bit
FILES:
Name            Time In         Length          Size            Total Bitrate
----            -------         ------          ----            -------------
00001.M2TS      0:00:00.000     0:43:32.318     14 149 027 392  43 329
00024.M2TS      0:43:32.318     0:00:01.084     1 489 344       10 580
CHAPTERS:
Number          Time In         Length          Avg Video Rate  Max 1-Sec Rate  Max 1-Sec Time  Max 5-Sec Rate  Max 5-Sec Time  Max 10Sec Rate  Max 10Sec Time  Avg Frame Size  Max Frame Size  Max Frame Time
------          -------         ------          --------------  --------------  --------------  --------------  --------------  --------------  --------------  --------------  --------------  --------------
1               0:00:00.000     0:06:34.852     14 698 kbps     29 169 kbps     00:00:00.041    20 751 kbps     00:06:02.570    18 625 kbps     00:04:30.645    76 619 bytes    600 539 bytes   00:02:11.005
2               0:06:34.852     0:04:09.540     14 547 kbps     27 897 kbps     00:10:23.164    20 604 kbps     00:07:18.855    18 512 kbps     00:08:31.052    75 841 bytes    607 548 bytes   00:07:11.347
3               0:10:44.393     0:01:21.831     14 587 kbps     26 857 kbps     00:11:21.847    20 483 kbps     00:11:31.607    18 532 kbps     00:11:31.357    76 049 bytes    606 789 bytes   00:11:12.254
4               0:12:06.225     0:03:52.815     14 690 kbps     28 200 kbps     00:14:23.737    20 825 kbps     00:12:32.918    18 650 kbps     00:13:31.560    76 585 bytes    604 253 bytes   00:12:11.689
5               0:15:59.041     0:01:53.238     14 826 kbps     29 004 kbps     00:17:23.876    20 947 kbps     00:17:03.605    18 597 kbps     00:16:31.573    77 294 bytes    605 889 bytes   00:16:12.429
6               0:17:52.279     0:03:14.485     14 651 kbps     28 617 kbps     00:20:24.348    20 726 kbps     00:20:32.189    18 865 kbps     00:18:31.485    76 382 bytes    601 253 bytes   00:18:13.133
7               0:21:06.765     0:07:11.222     14 722 kbps     27 349 kbps     00:25:24.856    20 756 kbps     00:27:34.152    19 006 kbps     00:27:32.984    76 755 bytes    602 265 bytes   00:28:17.529
8               0:28:17.987     0:03:17.697     15 042 kbps     27 026 kbps     00:28:23.785    20 801 kbps     00:28:34.546    19 017 kbps     00:29:33.188    78 422 bytes    600 007 bytes   00:31:14.789
9               0:31:35.685     0:01:12.864     14 832 kbps     26 456 kbps     00:32:26.527    20 649 kbps     00:32:35.286    18 928 kbps     00:32:33.201    77 329 bytes    601 874 bytes   00:32:14.057
10              0:32:48.549     0:04:41.322     14 844 kbps     27 323 kbps     00:36:25.057    20 816 kbps     00:33:49.152    19 015 kbps     00:35:33.047    77 388 bytes    606 362 bytes   00:33:14.158
11              0:37:29.872     0:06:02.445     14 897 kbps     27 404 kbps     00:43:30.524    20 891 kbps     00:42:34.760    19 097 kbps     00:43:21.640    77 673 bytes    600 606 bytes   00:38:15.167
12              0:43:32.318     0:00:01.084     72 kbps         75 kbps         00:43:32.318    0 kbps          00:00:00.000    0 kbps          00:00:00.000    406 bytes       2 427 bytes     00:43:33.277
STREAM DIAGNOSTICS:
File            PID             Type            Codec           Language                Seconds                 Bitrate                 Bytes           Packets
----            ---             ----            -----           --------                --------------          --------------          -------------   -----
00001.M2TS      4113 (0x1011)   0x1B            AVC                                     2612,193                14 759                  4 819 186 793   26 228 173
00001.M2TS      4352 (0x1100)   0x80            LPCM            eng (English)           2612,193                4 615                   1 506 786 176   8 359 424
00001.M2TS      4353 (0x1101)   0x80            LPCM            eng (English)           2612,193                13 831                  4 516 178 816   25 078 272
00001.M2TS      4354 (0x1102)   0x86            DTS-HD MA       eng (English)           2612,193                7 625                   2 489 824 560   13 939 441
00024.M2TS      4113 (0x1011)   0x1B            AVC                                     1,001                   100                     12 495          76
00024.M2TS      4352 (0x1100)   0x80            LPCM            eng (English)           1,001                   4 610                   576 800         3 200
00024.M2TS      4353 (0x1101)   0x80            LPCM            eng (English)           1,001                   4 610                   576 800         3 200
00024.M2TS      4354 (0x1102)   0x86            DTS-HD MA       eng (English)           1,001                   1 563                   195 520         1 222
QUICK SUMMARY:
Disc Title: Jethro Tull © 1971 - Aqualung - 40th Anniversary Collector's Edition.2011.BD1080p
Disc Size: 35 252 211 305 bytes
Protection: AACS
BD-Java: No
Playlist: 00015.MPLS
Size: 14 150 516 736 bytes
Length: 0:43:33
Total Bitrate: 43,32 Mbps
Video: MPEG-4 AVC Video / 14752 kbps / 1080p / 23,976 fps / 16:9 / High Profile 4.1
Audio: English / LPCM Audio / 5.1 / 96 kHz / 13824 kbps / 24-bit
Audio: English / DTS-HD Master Audio / 5.1 / 96 kHz / 7622 kbps / 24-bit (DTS Core: 6.1 / 48 kHz / 1509 kbps / 24-bit)
Audio: English / LPCM Audio / 2.0 / 96 kHz / 4608 kbps / 24-bit
за материал огромное спасибо tegoffs
--
Download / Скачать

Хотите скачать бесплатно? Зарегистрируйтесь на сайте (ссылка на регистрацию). Pirat.ca - самый быстрый торрент трекер в рунете!

Как скачивать  ·   Что такое торрент  ·   Рейтинг и ограничения

ГРЕВ

Корсар

Пост 08-Апр-2012 11:28 (спустя 1 день 14 часов)

[Q] 

ВОТ ЭТО ОФОРМЛЕНИЕ РАЗДАЧИ !!!
+1000

_________________
Я ЗДЕСЬ, Я ТАМ, Я ВСЕГДА...
[Профиль]  [ЛС] 

Пост 23-Апр-2012 22:40 (спустя 15 дней)

Топик был перенесен из форума DVD-Audio, SACD и Audio-DVD в форум HD Audio

Kote Makaradze
 

Billy_Bons

Шкипер

Пост 13-Июн-2012 21:18 (спустя 2 месяца 5 дней)

[Q] 

Спасибо!!!
[Профиль]  [ЛС] 

Пират

1554

Пост 23-Июл-2013 17:35 (спустя 1 год 1 месяц)

[Q] 

встаю на раздачку......

_________________
Всё, что с нами происходит - результат наших прошлых поступков. Наше будущее зависит от того, что мы делаем сейчас...
[Профиль]  [ЛС] 

Koralina ®

82984

Пост 26-Сен-2013 11:44 (спустя 2 месяца 2 дня)

[Q] 

399733встаю на раздачку......
Как мы вам за это благодарны...., если б вы только знали. ah fh

_________________
[Профиль]  [ЛС] 
Показать сообщения:    
Ответить на тему

Текущее время: Сегодня 07:59

Часовой пояс: GMT + 4



Вы не можете начинать темы
Вы не можете отвечать на сообщения
Вы не можете редактировать свои сообщения
Вы не можете удалять свои сообщения
Вы не можете голосовать в опросах
Вы не можете прикреплять файлы к сообщениям
Вы не можете скачивать файлы

Майнать ▼