(Ragtime. Jazz) George Lewis - Walking With the King - 1996(1954-55) [FLAC, tracks+.cue, lossless]

Ответить на тему
 
Автор
Сообщение

Пост 28-Сен-2013 03:55

[Q] 

Бром

-George Lewis / Walking With the King -- Год издания: 1996(1954-55)
Страна: USA
Жанр: Ragtime. Jazz
Продолжительность: 01:15:47-Лейбл издания: Giant of Jazz
Тип альбома: Сборник
Страна-выпуска диска: USA
Номер по каталогу: CD-53186
Источник (релизер): eika256-Формат: FLAC
Битрейт аудио: lossless
Тип рипа: tracks+.cue
Наличие сканов в содержимом раздачи: да-
01 - Walking With The King
02 - Ol' Man Mose
03 - Gettysburg March
04 - Mama Don't Allow It
05 - Canal Street Blues
06 - Just A Closer Walk With Thee
07 - Bill Bailey
08 - Over The Waves
09 - Burgundy Street Blues
10 - Mahogany Hall Stomp
11 - Bucket's Got A Hole In It
12 - High Society
13 - See See Rider
14 - Savoy Blues
15 - Heebie Jeebies
16 - I Can't Escape From You
17 - When You Wore A Tulip
18 - Ice Cream
Exact Audio Copy V0.99 prebeta 4 from 23. January 2008
EAC extraction logfile from 15. March 2009, 2:38
George Lewis / Walking With the King
Used drive : PIONEER DVD-RW DVR-111D Adapter: 1 ID: 0
Read mode : Secure
Utilize accurate stream : Yes
Defeat audio cache : Yes
Make use of C2 pointers : No
Read offset correction : 48
Overread into Lead-In and Lead-Out : No
Fill up missing offset samples with silence : Yes
Delete leading and trailing silent blocks : No
Null samples used in CRC calculations : Yes
Used interface : Native Win32 interface for Win NT & 2000
Used output format : Internal WAV Routines
Sample format : 44.100 Hz; 16 Bit; Stereo
TOC of the extracted CD
Track | Start | Length | Start sector | End sector
---------------------------------------------------------
1 | 0:00.00 | 2:54.60 | 0 | 13109
2 | 2:54.60 | 2:25.02 | 13110 | 23986
3 | 5:19.62 | 2:56.20 | 23987 | 37206
4 | 8:16.07 | 4:39.40 | 37207 | 58171
5 | 12:55.47 | 3:21.08 | 58172 | 73254
6 | 16:16.55 | 9:46.52 | 73255 | 117256
7 | 26:03.32 | 3:02.15 | 117257 | 130921
8 | 29:05.47 | 6:11.00 | 130922 | 158746
9 | 35:16.47 | 3:17.38 | 158747 | 173559
10 | 38:34.10 | 3:45.40 | 173560 | 190474
11 | 42:19.50 | 3:26.05 | 190475 | 205929
12 | 45:45.55 | 4:29.70 | 205930 | 226174
13 | 50:15.50 | 5:08.70 | 226175 | 249344
14 | 55:24.45 | 4:38.65 | 249345 | 270259
15 | 60:03.35 | 3:15.12 | 270260 | 284896
16 | 63:18.47 | 3:59.43 | 284897 | 302864
17 | 67:18.15 | 3:20.30 | 302865 | 317894
18 | 70:38.45 | 5:49.32 | 317895 | 344101
Range status and errors
Selected range
Filename D:\!CD\53186\George Lewis - Walking With the King.wav
Peak level 98.8 %
Range quality 100.0 %
Test CRC 04F47BB5
Copy CRC 04F47BB5
Copy OK
No errors occurred
AccurateRip summary
Track 1 not present in database
Track 2 not present in database
Track 3 not present in database
Track 4 not present in database
Track 5 not present in database
Track 6 not present in database
Track 7 not present in database
Track 8 not present in database
Track 9 not present in database
Track 10 not present in database
Track 11 not present in database
Track 12 not present in database
Track 13 not present in database
Track 14 not present in database
Track 15 not present in database
Track 16 not present in database
Track 17 not present in database
Track 18 not present in database
None of the tracks are present in the AccurateRip database
End of status report
REM GENRE Jazz
REM DATE 1996
REM DISCID F811EC12
REM COMMENT "ExactAudioCopy v0.99pb4"
PERFORMER "George Lewis"
TITLE "Walking With The King (1954-1955)"
FILE "George Lewis - Walking With the King.flac" WAVE
TRACK 01 AUDIO
TITLE "Walking With The King"
PERFORMER "George Lewis"
INDEX 01 00:00:00
TRACK 02 AUDIO
TITLE "Ol' Man Mose"
PERFORMER "George Lewis"
INDEX 00 02:53:25
INDEX 01 02:54:60
TRACK 03 AUDIO
TITLE "Gettysburg March"
PERFORMER "George Lewis"
INDEX 00 05:18:27
INDEX 01 05:19:62
TRACK 04 AUDIO
TITLE "Mama Don't Allow It"
PERFORMER "George Lewis"
INDEX 00 08:14:47
INDEX 01 08:16:07
TRACK 05 AUDIO
TITLE "Canal Street Blues"
PERFORMER "George Lewis"
INDEX 00 12:54:12
INDEX 01 12:55:47
TRACK 06 AUDIO
TITLE "Just A Closer Walk With Thee"
PERFORMER "George Lewis"
INDEX 00 16:15:20
INDEX 01 16:16:55
TRACK 07 AUDIO
TITLE "Bill Bailey"
PERFORMER "George Lewis"
INDEX 00 26:01:72
INDEX 01 26:03:32
TRACK 08 AUDIO
TITLE "Over The Waves"
PERFORMER "George Lewis"
INDEX 00 29:04:12
INDEX 01 29:05:47
TRACK 09 AUDIO
TITLE "Burgundy Street Blues"
PERFORMER "George Lewis"
INDEX 00 35:15:12
INDEX 01 35:16:47
TRACK 10 AUDIO
TITLE "Mahogany Hall Stomp"
PERFORMER "George Lewis"
INDEX 00 38:32:50
INDEX 01 38:34:10
TRACK 11 AUDIO
TITLE "Bucket's Got A Hole In It"
PERFORMER "George Lewis"
INDEX 00 42:18:15
INDEX 01 42:19:50
TRACK 12 AUDIO
TITLE "High Society"
PERFORMER "George Lewis"
INDEX 00 45:44:20
INDEX 01 45:45:55
TRACK 13 AUDIO
TITLE "See See Rider"
PERFORMER "George Lewis"
INDEX 00 50:14:15
INDEX 01 50:15:50
TRACK 14 AUDIO
TITLE "Savoy Blues"
PERFORMER "George Lewis"
INDEX 00 55:23:10
INDEX 01 55:24:45
TRACK 15 AUDIO
TITLE "Heebie Jeebies"
PERFORMER "George Lewis"
INDEX 00 60:02:00
INDEX 01 60:03:35
TRACK 16 AUDIO
TITLE "I Can't Escape From You"
PERFORMER "George Lewis"
INDEX 00 63:17:12
INDEX 01 63:18:47
TRACK 17 AUDIO
TITLE "When You Wore A Tulip"
PERFORMER "George Lewis"
INDEX 00 67:16:55
INDEX 01 67:18:15
TRACK 18 AUDIO
TITLE "Ice Cream"
PERFORMER "George Lewis"
INDEX 00 70:37:10
INDEX 01 70:38:45
Download / Скачать

Хотите скачать бесплатно? Зарегистрируйтесь на сайте (ссылка на регистрацию). Pirat.ca - самый быстрый торрент трекер в рунете!

Как скачивать  ·   Что такое торрент  ·   Рейтинг и ограничения

Показать сообщения:    
Ответить на тему

Текущее время: Сегодня 12:03

Часовой пояс: GMT + 4



Вы не можете начинать темы
Вы не можете отвечать на сообщения
Вы не можете редактировать свои сообщения
Вы не можете удалять свои сообщения
Вы не можете голосовать в опросах
Вы не можете прикреплять файлы к сообщениям
Вы не можете скачивать файлы

Майнать ▼