(Blues, Jazz) Woody Allen - Wild Man Blues - 1998 [FLAC, tracks+.cue, lossless]

Ответить на тему
 
Автор
Сообщение

Пост 18-Окт-2013 00:18

[Q] 

Бром

-Woody Allen / Wild Man Blues-- Год издания: 1998
Страна: USA
Жанр: Blues, Jazz
Продолжительность: 01:00:57-Лейбл издания: RCA VICTOR
Тип альбома: Compilation
Страна-выпуска диска: USA
Номер по каталогу: 09026-63353-2
Источник (релизер): d2-Формат: FLAC
Битрейт аудио: lossless
Тип рипа: tracks+.cue
Наличие сканов в содержимом раздачи: да-
01 - Lonesome Blues
02 - Dippermouth Blues
03 - After You've Gone
04 - Martha (AKA Mazie)
05 - Lead Me Savior
06 - Swing A Lullaby
07 - Last Night On The Back Porch
08 - Shake That Thing
09 - Yaaka Hula Hickey Dula
10 - In The Evening
11 - Come On And Stomp, Stomp, Stomp
12 - Wild Man Blues
13 - Tie Me To Your Apron Strings Again
14 - Pappy's B Flat Blues
15 - Hear Me Talkin' To Ya
X Lossless Decoder version 20100711 (120.5)
XLD extraction logfile from 2010-08-08 22:27:39 -0700
Woody Allen & His New Orleans Jazz Band / Wild Man Blues Soundtrack
Used drive : MATSHITA DVD-R UJ-85J (revision FAV1)
Use cdparanoia mode : YES (CDParanoia III 10.2 engine)
Disable audio cache : OK for the drive with cache less than 2750KB
Make use of C2 pointers : NO
Read offset correction : 102
Max retry count : 100
Gap status : Analyzed, Appended
TOC of the extracted CD
Track | Start | Length | Start sector | End sector
---------------------------------------------------------
1 | 00:00:00 | 03:44:35 | 0 | 16834
2 | 03:44:35 | 02:50:32 | 16835 | 29616
3 | 06:34:67 | 03:37:35 | 29617 | 45926
4 | 10:12:27 | 04:05:00 | 45927 | 64301
5 | 14:17:27 | 03:19:10 | 64302 | 79236
6 | 17:36:37 | 04:45:20 | 79237 | 100631
7 | 22:21:57 | 02:46:68 | 100632 | 113149
8 | 25:08:50 | 03:34:07 | 113150 | 129206
9 | 28:42:57 | 02:31:40 | 129207 | 140571
10 | 31:14:22 | 04:35:58 | 140572 | 161254
11 | 35:50:05 | 04:48:57 | 161255 | 182911
12 | 40:38:62 | 03:35:70 | 182912 | 199106
13 | 44:14:57 | 04:14:48 | 199107 | 218204
14 | 48:29:30 | 06:57:70 | 218205 | 249549
15 | 55:27:25 | 05:30:35 | 249550 | 274334
Track 01
Filename : /Users/markgrant/Desktop/Torrents/Woody Allen Wild Man Blues/01 Woody Allen & His New Orleans Jazz Band - Lonesome Blues.flac
Pre-gap length : 00:02:00
CRC32 hash (test run) : 02B21C0E
CRC32 hash : 02B21C0E
CRC32 hash (skip zero) : A4EBEE66
AccurateRip signature : F83AFAB9
->Accurately ripped! (confidence 2)
Statistics
Read error : 0
Skipped (treated as error) : 0
Edge jitter error (maybe fixed) : 0
Atom jitter error (maybe fixed) : 0
Drift error (maybe fixed) : 0
Dropped bytes error (maybe fixed) : 0
Duplicated bytes error (maybe fixed) : 0
Inconsistency in error sectors : 0
Track 02
Filename : /Users/markgrant/Desktop/Torrents/Woody Allen Wild Man Blues/02 Woody Allen & His New Orleans Jazz Band - Dippermouth Blues.flac
Pre-gap length : 00:01:53
CRC32 hash (test run) : D1E5C03C
CRC32 hash : D1E5C03C
CRC32 hash (skip zero) : AFBD51C7
AccurateRip signature : 8A2BF83F
->Accurately ripped! (confidence 2)
Statistics
Read error : 0
Skipped (treated as error) : 0
Edge jitter error (maybe fixed) : 0
Atom jitter error (maybe fixed) : 0
Drift error (maybe fixed) : 0
Dropped bytes error (maybe fixed) : 0
Duplicated bytes error (maybe fixed) : 0
Inconsistency in error sectors : 0
Track 03
Filename : /Users/markgrant/Desktop/Torrents/Woody Allen Wild Man Blues/03 Woody Allen & His New Orleans Jazz Band - After You've Gone.flac
Pre-gap length : 00:01:70
CRC32 hash (test run) : BF63E21C
CRC32 hash : BF63E21C
CRC32 hash (skip zero) : 179125A0
AccurateRip signature : B11026A6
->Accurately ripped! (confidence 2)
Statistics
Read error : 0
Skipped (treated as error) : 0
Edge jitter error (maybe fixed) : 0
Atom jitter error (maybe fixed) : 0
Drift error (maybe fixed) : 0
Dropped bytes error (maybe fixed) : 0
Duplicated bytes error (maybe fixed) : 0
Inconsistency in error sectors : 0
Track 04
Filename : /Users/markgrant/Desktop/Torrents/Woody Allen Wild Man Blues/04 Woody Allen & His New Orleans Jazz Band - Martha (AKA Mazie).flac
Pre-gap length : 00:01:57
CRC32 hash (test run) : 012CAD2D
CRC32 hash : 012CAD2D
CRC32 hash (skip zero) : 97528E37
AccurateRip signature : E1FC8B8F
->Accurately ripped! (confidence 2)
Statistics
Read error : 0
Skipped (treated as error) : 0
Edge jitter error (maybe fixed) : 0
Atom jitter error (maybe fixed) : 0
Drift error (maybe fixed) : 0
Dropped bytes error (maybe fixed) : 0
Duplicated bytes error (maybe fixed) : 0
Inconsistency in error sectors : 0
Track 05
Filename : /Users/markgrant/Desktop/Torrents/Woody Allen Wild Man Blues/05 Woody Allen & His New Orleans Jazz Band - Lead Me Savior.flac
Pre-gap length : 00:02:05
CRC32 hash (test run) : 5197EC14
CRC32 hash : 5197EC14
CRC32 hash (skip zero) : 6D4A4733
AccurateRip signature : F81060F4
->Accurately ripped! (confidence 2)
Statistics
Read error : 0
Skipped (treated as error) : 0
Edge jitter error (maybe fixed) : 0
Atom jitter error (maybe fixed) : 0
Drift error (maybe fixed) : 0
Dropped bytes error (maybe fixed) : 0
Duplicated bytes error (maybe fixed) : 0
Inconsistency in error sectors : 0
Track 06
Filename : /Users/markgrant/Desktop/Torrents/Woody Allen Wild Man Blues/06 Woody Allen & His New Orleans Jazz Band - Swing A Lullaby.flac
Pre-gap length : 00:02:07
CRC32 hash (test run) : 0E1802B9
CRC32 hash : 0E1802B9
CRC32 hash (skip zero) : 2FB6B38C
AccurateRip signature : 24D39960
->Accurately ripped! (confidence 2)
Statistics
Read error : 0
Skipped (treated as error) : 0
Edge jitter error (maybe fixed) : 0
Atom jitter error (maybe fixed) : 0
Drift error (maybe fixed) : 0
Dropped bytes error (maybe fixed) : 0
Duplicated bytes error (maybe fixed) : 0
Inconsistency in error sectors : 0
Track 07
Filename : /Users/markgrant/Desktop/Torrents/Woody Allen Wild Man Blues/07 Woody Allen & His New Orleans Jazz Band - Last Night On The Back Porch.flac
Pre-gap length : 00:01:62
CRC32 hash (test run) : 8930D893
CRC32 hash : 8930D893
CRC32 hash (skip zero) : 4024B287
AccurateRip signature : 2D4EF709
->Accurately ripped! (confidence 2)
Statistics
Read error : 0
Skipped (treated as error) : 0
Edge jitter error (maybe fixed) : 0
Atom jitter error (maybe fixed) : 0
Drift error (maybe fixed) : 0
Dropped bytes error (maybe fixed) : 0
Duplicated bytes error (maybe fixed) : 0
Inconsistency in error sectors : 0
Track 08
Filename : /Users/markgrant/Desktop/Torrents/Woody Allen Wild Man Blues/08 Woody Allen & His New Orleans Jazz Band - Shake That Thing.flac
Pre-gap length : 00:01:68
CRC32 hash (test run) : 7B34956D
CRC32 hash : 7B34956D
CRC32 hash (skip zero) : 15196C76
AccurateRip signature : 9C406DA2
->Accurately ripped! (confidence 2)
Statistics
Read error : 0
Skipped (treated as error) : 0
Edge jitter error (maybe fixed) : 0
Atom jitter error (maybe fixed) : 0
Drift error (maybe fixed) : 0
Dropped bytes error (maybe fixed) : 0
Duplicated bytes error (maybe fixed) : 0
Inconsistency in error sectors : 0
Track 09
Filename : /Users/markgrant/Desktop/Torrents/Woody Allen Wild Man Blues/09 Woody Allen & His New Orleans Jazz Band - Yaaka Hula Hickey Dula.flac
Pre-gap length : 00:01:62
CRC32 hash (test run) : 987120E4
CRC32 hash : 987120E4
CRC32 hash (skip zero) : 683B9CF8
AccurateRip signature : 03870866
->Accurately ripped! (confidence 2)
Statistics
Read error : 0
Skipped (treated as error) : 0
Edge jitter error (maybe fixed) : 0
Atom jitter error (maybe fixed) : 0
Drift error (maybe fixed) : 0
Dropped bytes error (maybe fixed) : 0
Duplicated bytes error (maybe fixed) : 0
Inconsistency in error sectors : 0
Track 10
Filename : /Users/markgrant/Desktop/Torrents/Woody Allen Wild Man Blues/10 Woody Allen & His New Orleans Jazz Band - In The Evening.flac
Pre-gap length : 00:01:67
CRC32 hash (test run) : FEAA926C
CRC32 hash : FEAA926C
CRC32 hash (skip zero) : 73DEE2DE
AccurateRip signature : E1918994
->Accurately ripped! (confidence 2)
Statistics
Read error : 0
Skipped (treated as error) : 0
Edge jitter error (maybe fixed) : 0
Atom jitter error (maybe fixed) : 0
Drift error (maybe fixed) : 0
Dropped bytes error (maybe fixed) : 0
Duplicated bytes error (maybe fixed) : 0
Inconsistency in error sectors : 0
Track 11
Filename : /Users/markgrant/Desktop/Torrents/Woody Allen Wild Man Blues/11 Woody Allen & His New Orleans Jazz Band - Come On And Stomp, Stomp, Stomp.flac
Pre-gap length : 00:01:60
CRC32 hash (test run) : 9CADA42E
CRC32 hash : 9CADA42E
CRC32 hash (skip zero) : 8A97778B
AccurateRip signature : FA6BBE29
->Accurately ripped! (confidence 2)
Statistics
Read error : 0
Skipped (treated as error) : 0
Edge jitter error (maybe fixed) : 0
Atom jitter error (maybe fixed) : 0
Drift error (maybe fixed) : 0
Dropped bytes error (maybe fixed) : 0
Duplicated bytes error (maybe fixed) : 0
Inconsistency in error sectors : 0
Track 12
Filename : /Users/markgrant/Desktop/Torrents/Woody Allen Wild Man Blues/12 Woody Allen & His New Orleans Jazz Band - Wild Man Blues.flac
Pre-gap length : 00:02:25
CRC32 hash (test run) : 4A3DED90
CRC32 hash : 4A3DED90
CRC32 hash (skip zero) : F6CC92DB
AccurateRip signature : 8FB29DDB
->Accurately ripped! (confidence 2)
Statistics
Read error : 0
Skipped (treated as error) : 0
Edge jitter error (maybe fixed) : 0
Atom jitter error (maybe fixed) : 0
Drift error (maybe fixed) : 0
Dropped bytes error (maybe fixed) : 0
Duplicated bytes error (maybe fixed) : 0
Inconsistency in error sectors : 0
Track 13
Filename : /Users/markgrant/Desktop/Torrents/Woody Allen Wild Man Blues/13 Woody Allen & His New Orleans Jazz Band - Tie Me To Your Apron Strings Again.flac
Pre-gap length : 00:02:00
CRC32 hash (test run) : D83A3927
CRC32 hash : D83A3927
CRC32 hash (skip zero) : 5D9B665B
AccurateRip signature : B695200A
->Accurately ripped! (confidence 2)
Statistics
Read error : 0
Skipped (treated as error) : 0
Edge jitter error (maybe fixed) : 0
Atom jitter error (maybe fixed) : 0
Drift error (maybe fixed) : 0
Dropped bytes error (maybe fixed) : 0
Duplicated bytes error (maybe fixed) : 0
Inconsistency in error sectors : 0
Track 14
Filename : /Users/markgrant/Desktop/Torrents/Woody Allen Wild Man Blues/14 Woody Allen & His New Orleans Jazz Band - Pappy's B Flat Blues.flac
Pre-gap length : 00:01:70
CRC32 hash (test run) : E5EEEC5D
CRC32 hash : E5EEEC5D
CRC32 hash (skip zero) : 1C71AA09
AccurateRip signature : F25CDFCD
->Accurately ripped! (confidence 2)
Statistics
Read error : 0
Skipped (treated as error) : 0
Edge jitter error (maybe fixed) : 0
Atom jitter error (maybe fixed) : 0
Drift error (maybe fixed) : 0
Dropped bytes error (maybe fixed) : 0
Duplicated bytes error (maybe fixed) : 0
Inconsistency in error sectors : 0
Track 15
Filename : /Users/markgrant/Desktop/Torrents/Woody Allen Wild Man Blues/15 Woody Allen & His New Orleans Jazz Band - Hear Me Talkin' To Ya.flac
Pre-gap length : 00:01:38
CRC32 hash (test run) : D17212C1
CRC32 hash : D17212C1
CRC32 hash (skip zero) : 75049632
AccurateRip signature : 54E3995F
->Accurately ripped! (confidence 2)
Statistics
Read error : 0
Skipped (treated as error) : 0
Edge jitter error (maybe fixed) : 0
Atom jitter error (maybe fixed) : 0
Drift error (maybe fixed) : 0
Dropped bytes error (maybe fixed) : 0
Duplicated bytes error (maybe fixed) : 0
Inconsistency in error sectors : 0
No errors occurred
End of status report
TITLE "Wild Man Blues Soundtrack"
PERFORMER "Woody Allen & His New Orleans Jazz Band"
REM GENRE "Jazz"
REM DATE 1998
REM DISCNUMBER 1
REM TOTALDISCS 1
REM DISCID C80E490F
FILE "01 Woody Allen & His New Orleans Jazz Band - Lonesome Blues.wav" WAVE
TRACK 01 AUDIO
TITLE "Lonesome Blues"
SONGWRITER "Armstrong, Lillian Hardin"
INDEX 01 00:00:00
TRACK 02 AUDIO
TITLE "Dippermouth Blues"
SONGWRITER "Oliver, Joe "King""
INDEX 00 03:42:57
FILE "02 Woody Allen & His New Orleans Jazz Band - Dippermouth Blues.wav" WAVE
INDEX 01 00:00:00
TRACK 03 AUDIO
TITLE "After You've Gone"
SONGWRITER "Layton/Creamer"
INDEX 00 02:48:37
FILE "03 Woody Allen & His New Orleans Jazz Band - After You've Gone.wav" WAVE
INDEX 01 00:00:00
TRACK 04 AUDIO
TITLE "Martha (AKA Mazie)"
SONGWRITER "Caine/Gold/Dawson"
INDEX 00 03:35:53
FILE "04 Woody Allen & His New Orleans Jazz Band - Martha (AKA Mazie).wav" WAVE
INDEX 01 00:00:00
TRACK 05 AUDIO
TITLE "Lead Me Savior"
SONGWRITER "Davis, Frank F."
INDEX 00 04:02:70
FILE "05 Woody Allen & His New Orleans Jazz Band - Lead Me Savior.wav" WAVE
INDEX 01 00:00:00
TRACK 06 AUDIO
TITLE "Swing A Lullaby"
SONGWRITER "Spinosa, Tom"
INDEX 00 03:17:03
FILE "06 Woody Allen & His New Orleans Jazz Band - Swing A Lullaby.wav" WAVE
INDEX 01 00:00:00
TRACK 07 AUDIO
TITLE "Last Night On The Back Porch"
SONGWRITER "Schraubstader/Brown"
INDEX 00 04:43:33
FILE "07 Woody Allen & His New Orleans Jazz Band - Last Night On The Back Porch.wav" WAVE
INDEX 01 00:00:00
TRACK 08 AUDIO
TITLE "Shake That Thing"
SONGWRITER "Jackson, "Papa" Charlie; New Lyric: Davis, Eddy"
INDEX 00 02:45:00
FILE "08 Woody Allen & His New Orleans Jazz Band - Shake That Thing.wav" WAVE
INDEX 01 00:00:00
TRACK 09 AUDIO
TITLE "Yaaka Hula Hickey Dula"
SONGWRITER "Goetz/Young/Wendling"
INDEX 00 03:32:20
FILE "09 Woody Allen & His New Orleans Jazz Band - Yaaka Hula Hickey Dula.wav" WAVE
INDEX 01 00:00:00
TRACK 10 AUDIO
TITLE "In The Evening"
SONGWRITER "Carr, Leroy; New Lyric: Davis, Eddy"
INDEX 00 02:29:48
FILE "10 Woody Allen & His New Orleans Jazz Band - In The Evening.wav" WAVE
INDEX 01 00:00:00
TRACK 11 AUDIO
TITLE "Come On And Stomp, Stomp, Stomp"
SONGWRITER "Mills/Waller/Smith"
INDEX 00 04:33:73
FILE "11 Woody Allen & His New Orleans Jazz Band - Come On And Stomp, Stomp, Stomp.wav" WAVE
INDEX 01 00:00:00
TRACK 12 AUDIO
TITLE "Wild Man Blues"
SONGWRITER "Morton/Armstrong"
INDEX 00 04:46:32
FILE "12 Woody Allen & His New Orleans Jazz Band - Wild Man Blues.wav" WAVE
INDEX 01 00:00:00
TRACK 13 AUDIO
TITLE "Tie Me To Your Apron Strings Again"
SONGWRITER "Shay/Goodwin"
INDEX 00 03:33:70
FILE "13 Woody Allen & His New Orleans Jazz Band - Tie Me To Your Apron Strings Again.wav" WAVE
INDEX 01 00:00:00
TRACK 14 AUDIO
TITLE "Pappy's B Flat Blues"
SONGWRITER "Davis, Eddy"
INDEX 00 04:12:53
FILE "14 Woody Allen & His New Orleans Jazz Band - Pappy's B Flat Blues.wav" WAVE
INDEX 01 00:00:00
TRACK 15 AUDIO
TITLE "Hear Me Talkin' To Ya"
SONGWRITER "Armstrong, Louis"
INDEX 00 06:56:32
FILE "15 Woody Allen & His New Orleans Jazz Band - Hear Me Talkin' To Ya.wav" WAVE
INDEX 01 00:00:00
Download / Скачать

Хотите скачать бесплатно? Зарегистрируйтесь на сайте (ссылка на регистрацию). Pirat.ca - самый быстрый торрент трекер в рунете!

Как скачивать  ·   Что такое торрент  ·   Рейтинг и ограничения

Показать сообщения:    
Ответить на тему

Текущее время: Сегодня 19:49

Часовой пояс: GMT + 4



Вы не можете начинать темы
Вы не можете отвечать на сообщения
Вы не можете редактировать свои сообщения
Вы не можете удалять свои сообщения
Вы не можете голосовать в опросах
Вы не можете прикреплять файлы к сообщениям
Вы не можете скачивать файлы

Майнать ▼