(Jazz) Tara O'Grady - A Celt in the Cotton Club - 2013 [FLAC, tracks+.cue, lossless]

Ответить на тему
 
Автор
Сообщение

Пост 18-Окт-2013 00:41

[Q] 

Бром

-Tara O'Grady / A Celt in the Cotton Club-- Год издания: 2013
Страна: UK
Жанр: Jazz
Продолжительность: 48:47-Тип альбома: Master
Страна-выпуска диска: USA
Формат: FLAC
Битрейт аудио: lossless
Тип рипа: tracks+.cue
Наличие сканов в содержимом раздачи: нет-
01 - On Feeling Blue
02 - You Won't Get Me There Tonight
03 - Black Is The Color
04 - In Belfast Tonight
05 - Go Lassie Go
06 - To Be Missing The Sun
07 - Love Me Madly Lashes
08 - That's What The Miners Would Say
09 - Where's My Valentine
10 - La Dee Da
11 - Gardenia Girl
12 - Too Ra Loo Ra
13 - Hidden Track
X Lossless Decoder version 20130720 (144.0)
XLD extraction logfile from 2013-08-31 12:56:00 -0400
Tara O'Grady / A Celt In The Cotton Club
Used drive : OPTIARC DVD RW AD-5690H (revision 4AH5)
Media type : Pressed CD
Ripper mode : XLD Secure Ripper
Disable audio cache : OK for the drive with a cache less than 1375KiB
Make use of C2 pointers : NO
Read offset correction : 48
Max retry count : 20
Gap status : Analyzed, Appended (except HTOA)
TOC of the extracted CD
Track | Start | Length | Start sector | End sector
---------------------------------------------------------
1 | 00:00:00 | 04:35:72 | 0 | 20696
2 | 04:35:72 | 02:40:43 | 20697 | 32739
3 | 07:16:40 | 04:12:15 | 32740 | 51654
4 | 11:28:55 | 03:21:20 | 51655 | 66749
5 | 14:50:00 | 03:21:63 | 66750 | 81887
6 | 18:11:63 | 04:11:32 | 81888 | 100744
7 | 22:23:20 | 02:53:45 | 100745 | 113764
8 | 25:16:65 | 04:17:39 | 113765 | 133078
9 | 29:34:29 | 03:31:38 | 133079 | 148941
10 | 33:05:67 | 04:31:17 | 148942 | 169283
11 | 37:37:09 | 04:56:40 | 169284 | 191523
12 | 42:33:49 | 05:33:34 | 191524 | 216532
13 | 48:07:08 | 00:38:73 | 216533 | 219455
AccurateRip Summary
Disc not found in AccurateRip DB.
All Tracks
Album gain : -9.69 dB
Peak : 1.000000
Statistics
Read error : 0
Jitter error (maybe fixed) : 0
Retry sector count : 0
Damaged sector count : 0
Track 01
Filename : /Users/teskridge/Music/XLD/Tara O'Grady - A Celt In The Cotton Club (2013) [FLAC]/01 On Feeling Blue.flac
Pre-gap length : 00:02:00
Track gain : -10.78 dB
Peak : 1.000000
CRC32 hash (test run) : D60D865C
CRC32 hash : D60D865C
CRC32 hash (skip zero) : 0EFA1296
AccurateRip v1 signature : 5FCF6DAE
AccurateRip v2 signature : 83CE4DD5
->Track not present in AccurateRip database.
Statistics
Read error : 0
Jitter error (maybe fixed) : 0
Retry sector count : 0
Damaged sector count : 0
Track 02
Filename : /Users/teskridge/Music/XLD/Tara O'Grady - A Celt In The Cotton Club (2013) [FLAC]/02 You Won't Get Me There Tonight.flac
Track gain : -8.19 dB
Peak : 0.999237
CRC32 hash (test run) : 960B574C
CRC32 hash : 960B574C
CRC32 hash (skip zero) : D69A4920
AccurateRip v1 signature : DEB9DC50
AccurateRip v2 signature : 76781BA5
->Track not present in AccurateRip database.
Statistics
Read error : 0
Jitter error (maybe fixed) : 0
Retry sector count : 0
Damaged sector count : 0
Track 03
Filename : /Users/teskridge/Music/XLD/Tara O'Grady - A Celt In The Cotton Club (2013) [FLAC]/03 Black Is The Color.flac
Track gain : -9.33 dB
Peak : 1.000000
CRC32 hash (test run) : DC936BF8
CRC32 hash : DC936BF8
CRC32 hash (skip zero) : AE11ADF5
AccurateRip v1 signature : CCA6040A
AccurateRip v2 signature : 78BA7ACD
->Track not present in AccurateRip database.
Statistics
Read error : 0
Jitter error (maybe fixed) : 0
Retry sector count : 0
Damaged sector count : 0
Track 04
Filename : /Users/teskridge/Music/XLD/Tara O'Grady - A Celt In The Cotton Club (2013) [FLAC]/04 In Belfast Tonight.flac
Track gain : -7.66 dB
Peak : 0.997467
CRC32 hash (test run) : 0CCC2E6E
CRC32 hash : 0CCC2E6E
CRC32 hash (skip zero) : 25314808
AccurateRip v1 signature : 468FBC20
AccurateRip v2 signature : 2CC7C237
->Track not present in AccurateRip database.
Statistics
Read error : 0
Jitter error (maybe fixed) : 0
Retry sector count : 0
Damaged sector count : 0
Track 05
Filename : /Users/teskridge/Music/XLD/Tara O'Grady - A Celt In The Cotton Club (2013) [FLAC]/05 Go Lassie Go.flac
Track gain : -10.03 dB
Peak : 1.000000
CRC32 hash (test run) : D7DBDC4B
CRC32 hash : D7DBDC4B
CRC32 hash (skip zero) : D9B6BEBF
AccurateRip v1 signature : 107CF098
AccurateRip v2 signature : AA050D37
->Track not present in AccurateRip database.
Statistics
Read error : 0
Jitter error (maybe fixed) : 0
Retry sector count : 0
Damaged sector count : 0
Track 06
Filename : /Users/teskridge/Music/XLD/Tara O'Grady - A Celt In The Cotton Club (2013) [FLAC]/06 To Be Missing The Sun.flac
Track gain : -11.03 dB
Peak : 0.999969
CRC32 hash (test run) : 37436BA8
CRC32 hash : 37436BA8
CRC32 hash (skip zero) : 3176BB31
AccurateRip v1 signature : 1260348F
AccurateRip v2 signature : 705FBCBF
->Track not present in AccurateRip database.
Statistics
Read error : 0
Jitter error (maybe fixed) : 0
Retry sector count : 0
Damaged sector count : 0
Track 07
Filename : /Users/teskridge/Music/XLD/Tara O'Grady - A Celt In The Cotton Club (2013) [FLAC]/07 Love Me Madly Lashes.flac
Track gain : -8.90 dB
Peak : 0.997589
CRC32 hash (test run) : 74AB8DE6
CRC32 hash : 74AB8DE6
CRC32 hash (skip zero) : 294BC4F8
AccurateRip v1 signature : E1D626BB
AccurateRip v2 signature : 865FA266
->Track not present in AccurateRip database.
Statistics
Read error : 0
Jitter error (maybe fixed) : 0
Retry sector count : 0
Damaged sector count : 0
Track 08
Filename : /Users/teskridge/Music/XLD/Tara O'Grady - A Celt In The Cotton Club (2013) [FLAC]/08 That's What The Miners Would Say.flac
Track gain : -8.54 dB
Peak : 0.997955
CRC32 hash (test run) : 9C8BD964
CRC32 hash : 9C8BD964
CRC32 hash (skip zero) : 14E0BBD4
AccurateRip v1 signature : EE04BBC4
AccurateRip v2 signature : D1D9BCB5
->Track not present in AccurateRip database.
Statistics
Read error : 0
Jitter error (maybe fixed) : 0
Retry sector count : 0
Damaged sector count : 0
Track 09
Filename : /Users/teskridge/Music/XLD/Tara O'Grady - A Celt In The Cotton Club (2013) [FLAC]/09 Where's My Valentine?.flac
Track gain : -8.68 dB
Peak : 0.999969
CRC32 hash (test run) : 9FB633FD
CRC32 hash : 9FB633FD
CRC32 hash (skip zero) : 4830ABC2
AccurateRip v1 signature : E6AC66F0
AccurateRip v2 signature : FAB0E1BE
->Track not present in AccurateRip database.
Statistics
Read error : 0
Jitter error (maybe fixed) : 0
Retry sector count : 0
Damaged sector count : 0
Track 10
Filename : /Users/teskridge/Music/XLD/Tara O'Grady - A Celt In The Cotton Club (2013) [FLAC]/10 La Dee Da.flac
Track gain : -9.92 dB
Peak : 1.000000
CRC32 hash (test run) : 2EB80270
CRC32 hash : 2EB80270
CRC32 hash (skip zero) : EB44B31B
AccurateRip v1 signature : 9AC82BB0
AccurateRip v2 signature : B2AE4E96
->Track not present in AccurateRip database.
Statistics
Read error : 0
Jitter error (maybe fixed) : 0
Retry sector count : 0
Damaged sector count : 0
Track 11
Filename : /Users/teskridge/Music/XLD/Tara O'Grady - A Celt In The Cotton Club (2013) [FLAC]/11 Gardenia Girl.flac
Track gain : -8.10 dB
Peak : 1.000000
CRC32 hash (test run) : 0544096A
CRC32 hash : 0544096A
CRC32 hash (skip zero) : BD23DE06
AccurateRip v1 signature : AB024C47
AccurateRip v2 signature : 1D4FCFEC
->Track not present in AccurateRip database.
Statistics
Read error : 0
Jitter error (maybe fixed) : 0
Retry sector count : 0
Damaged sector count : 0
Track 12
Filename : /Users/teskridge/Music/XLD/Tara O'Grady - A Celt In The Cotton Club (2013) [FLAC]/12 Too Ra Loo Ra.flac
Track gain : -9.24 dB
Peak : 1.000000
CRC32 hash (test run) : 1103A865
CRC32 hash : 1103A865
CRC32 hash (skip zero) : BCCCB395
AccurateRip v1 signature : 6680B9A5
AccurateRip v2 signature : 141AB230
->Track not present in AccurateRip database.
Statistics
Read error : 0
Jitter error (maybe fixed) : 0
Retry sector count : 0
Damaged sector count : 0
Track 13
Filename : /Users/teskridge/Music/XLD/Tara O'Grady - A Celt In The Cotton Club (2013) [FLAC]/13 Hidden Track.flac
Track gain : -8.83 dB
Peak : 0.940918
CRC32 hash (test run) : CB0544C3
CRC32 hash : CB0544C3
CRC32 hash (skip zero) : EE7E9827
AccurateRip v1 signature : 7B344B8D
AccurateRip v2 signature : 51423577
->Track not present in AccurateRip database.
Statistics
Read error : 0
Jitter error (maybe fixed) : 0
Retry sector count : 0
Damaged sector count : 0
No errors occurred
End of status report
TITLE "A Celt In The Cotton Club"
PERFORMER "Tara O'Grady"
REM GENRE "Jazz"
REM DATE "2013"
REM DISCNUMBER 1
REM TOTALDISCS 1
REM DISCID D80B6E0D
REM REPLAYGAIN_ALBUM_GAIN -9.69 dB
REM REPLAYGAIN_ALBUM_PEAK 1.000000
FILE "01 On Feeling Blue.flac" WAVE
TRACK 01 AUDIO
TITLE "On Feeling Blue"
FLAGS DCP
REM REPLAYGAIN_TRACK_GAIN -10.78 dB
REM REPLAYGAIN_TRACK_PEAK 1.000000
INDEX 01 00:00:00
FILE "02 You Won't Get Me There Tonight.flac" WAVE
TRACK 02 AUDIO
TITLE "You Won't Get Me There Tonight"
FLAGS DCP
REM REPLAYGAIN_TRACK_GAIN -8.19 dB
REM REPLAYGAIN_TRACK_PEAK 0.999237
INDEX 01 00:00:00
FILE "03 Black Is The Color.flac" WAVE
TRACK 03 AUDIO
TITLE "Black Is The Color"
FLAGS DCP
REM REPLAYGAIN_TRACK_GAIN -9.33 dB
REM REPLAYGAIN_TRACK_PEAK 1.000000
INDEX 01 00:00:00
FILE "04 In Belfast Tonight.flac" WAVE
TRACK 04 AUDIO
TITLE "In Belfast Tonight"
FLAGS DCP
REM REPLAYGAIN_TRACK_GAIN -7.66 dB
REM REPLAYGAIN_TRACK_PEAK 0.997467
INDEX 01 00:00:00
FILE "05 Go Lassie Go.flac" WAVE
TRACK 05 AUDIO
TITLE "Go Lassie Go"
FLAGS DCP
REM REPLAYGAIN_TRACK_GAIN -10.03 dB
REM REPLAYGAIN_TRACK_PEAK 1.000000
INDEX 01 00:00:00
FILE "06 To Be Missing The Sun.flac" WAVE
TRACK 06 AUDIO
TITLE "To Be Missing The Sun"
FLAGS DCP
REM REPLAYGAIN_TRACK_GAIN -11.03 dB
REM REPLAYGAIN_TRACK_PEAK 0.999969
INDEX 01 00:00:00
FILE "07 Love Me Madly Lashes.flac" WAVE
TRACK 07 AUDIO
TITLE "Love Me Madly Lashes"
FLAGS DCP
REM REPLAYGAIN_TRACK_GAIN -8.90 dB
REM REPLAYGAIN_TRACK_PEAK 0.997589
INDEX 01 00:00:00
FILE "08 That's What The Miners Would Say.flac" WAVE
TRACK 08 AUDIO
TITLE "That's What The Miners Would Say"
FLAGS DCP
REM REPLAYGAIN_TRACK_GAIN -8.54 dB
REM REPLAYGAIN_TRACK_PEAK 0.997955
INDEX 01 00:00:00
FILE "09 Where's My Valentine?.flac" WAVE
TRACK 09 AUDIO
TITLE "Where's My Valentine?"
FLAGS DCP
REM REPLAYGAIN_TRACK_GAIN -8.68 dB
REM REPLAYGAIN_TRACK_PEAK 0.999969
INDEX 01 00:00:00
FILE "10 La Dee Da.flac" WAVE
TRACK 10 AUDIO
TITLE "La Dee Da"
FLAGS DCP
REM REPLAYGAIN_TRACK_GAIN -9.92 dB
REM REPLAYGAIN_TRACK_PEAK 1.000000
INDEX 01 00:00:00
FILE "11 Gardenia Girl.flac" WAVE
TRACK 11 AUDIO
TITLE "Gardenia Girl"
FLAGS DCP
REM REPLAYGAIN_TRACK_GAIN -8.10 dB
REM REPLAYGAIN_TRACK_PEAK 1.000000
INDEX 01 00:00:00
FILE "12 Too Ra Loo Ra.flac" WAVE
TRACK 12 AUDIO
TITLE "Too Ra Loo Ra"
FLAGS DCP
REM REPLAYGAIN_TRACK_GAIN -9.24 dB
REM REPLAYGAIN_TRACK_PEAK 1.000000
INDEX 01 00:00:00
FILE "13 Hidden Track.flac" WAVE
TRACK 13 AUDIO
TITLE "Hidden Track"
FLAGS DCP
REM REPLAYGAIN_TRACK_GAIN -8.83 dB
REM REPLAYGAIN_TRACK_PEAK 0.940918
INDEX 01 00:00:00
Download / Скачать

Хотите скачать бесплатно? Зарегистрируйтесь на сайте (ссылка на регистрацию). Pirat.ca - самый быстрый торрент трекер в рунете!

Как скачивать  ·   Что такое торрент  ·   Рейтинг и ограничения

Показать сообщения:    
Ответить на тему

Текущее время: Сегодня 09:13

Часовой пояс: GMT + 4



Вы не можете начинать темы
Вы не можете отвечать на сообщения
Вы не можете редактировать свои сообщения
Вы не можете удалять свои сообщения
Вы не можете голосовать в опросах
Вы не можете прикреплять файлы к сообщениям
Вы не можете скачивать файлы

Майнать ▼