(Blues) Russell Morris - Sharkmouth - 2012 [FLAC, tracks+.cue, lossless]

Ответить на тему
 
Автор
Сообщение

Пост 15-Ноя-2013 20:46

[Q] 

Бром

-Russell Morris / Sharkmouth-- Год издания: 2012
Страна: Australia
Жанр: Blues
Продолжительность: 44:11:47-Лейбл издания: Fanfare
Тип альбома: Master
Страна-выпуска диска: Australia
Номер по каталогу: Fanfare085
Источник (релизер): ausy (AF)-Формат: FLAC
Битрейт аудио: lossless
Тип рипа: tracks+.cue
Наличие сканов в содержимом раздачи: да-
1. Black Dog Blues (3:33)
2. The Big House (2:43)
3. Ballad of Les Darcy (3:56)
4. Bout to Break (4:13)
5. Sharkmouth (4:00)
6. Walk My Blues (2:43)
7. The Drifter (4:14)
8. Squizzy (3:51)
9. The Bridge (3:05)
10. Money Don't Grow on Trees (3:53)
11. Big Red (3:33)
12. Mr. Eternity (4:23)
Exact Audio Copy V1.0 beta 3 from 29. August 2011
EAC extraction logfile from 9. July 2013, 16:29
Russell Morris / Sharkmouth
Used drive : ATAPI iHAS324 B Adapter: 2 ID: 0
Read mode : Secure
Utilize accurate stream : Yes
Defeat audio cache : Yes
Make use of C2 pointers : No
Read offset correction : 6
Overread into Lead-In and Lead-Out : No
Fill up missing offset samples with silence : Yes
Delete leading and trailing silent blocks : No
Null samples used in CRC calculations : Yes
Used interface : Installed external ASPI interface
Gap handling : Appended to previous track
Used output format : User Defined Encoder
Selected bitrate : 1024 kBit/s
Quality : High
Add ID3 tag : No
Command line compressor : C:\Program Files\Exact Audio Copy\Flac\flac.exe
Additional command line options : -8 -V -T "ARTIST=%artist%" -T "TITLE=%title%" -T "ALBUM=%albumtitle%" -T "DATE=%year%" -T "TRACKNUMBER=%tracknr%" -T "GENRE=%genre%" -T "PERFORMER=%albuminterpret%" -T "COMPOSER=%composer%" %haslyrics%--tag-from-file=LYRICS="%lyricsfile%"%haslyrics% -T "ALBUMARTIST=%albumartist%" -T "DISCNUMBER=%cdnumber%" -T "TOTALDISCS=%totalcds%" -T "TOTALTRACKS=%numtracks%" -T "COMMENT=EAC V1.0 beta 3, Secure Mode, Test & Copy, AccurateRip, FLAC -8" %source% -o %dest%
TOC of the extracted CD
Track | Start | Length | Start sector | End sector
---------------------------------------------------------
1 | 0:00.00 | 3:33.12 | 0 | 15986
2 | 3:33.12 | 2:43.64 | 15987 | 28275
3 | 6:17.01 | 3:56.65 | 28276 | 46040
4 | 10:13.66 | 4:13.18 | 46041 | 65033
5 | 14:27.09 | 4:00.10 | 65034 | 83043
6 | 18:27.19 | 2:43.01 | 83044 | 95269
7 | 21:10.20 | 4:14.16 | 95270 | 114335
8 | 25:24.36 | 3:51.17 | 114336 | 131677
9 | 29:15.53 | 3:05.56 | 131678 | 145608
10 | 32:21.34 | 3:53.38 | 145609 | 163121
11 | 36:14.72 | 3:33.10 | 163122 | 179106
12 | 39:48.07 | 4:23.44 | 179107 | 198875
Track 1
Filename D:\Australian\Russell Morris - Sharkmouth\01 - Black Dog Blues.wav
Pre-gap length 0:00:02.00
Peak level 98.8 %
Extraction speed 1.8 X
Track quality 100.0 %
Test CRC 6D95D2ED
Copy CRC 6D95D2ED
Accurately ripped (confidence 1) [96A4648B] (AR v2)
Copy OK
Track 2
Filename D:\Australian\Russell Morris - Sharkmouth\02 - The Big House.wav
Peak level 98.8 %
Extraction speed 1.9 X
Track quality 100.0 %
Test CRC 9887F97C
Copy CRC 9887F97C
Accurately ripped (confidence 1) [E8AAB426] (AR v2)
Copy OK
Track 3
Filename D:\Australian\Russell Morris - Sharkmouth\03 - Ballad Of Les Darcy.wav
Peak level 98.8 %
Extraction speed 2.1 X
Track quality 100.0 %
Test CRC E5B9EBDE
Copy CRC E5B9EBDE
Accurately ripped (confidence 1) [20B1E4C7] (AR v2)
Copy OK
Track 4
Filename D:\Australian\Russell Morris - Sharkmouth\04 - Bout To Break.wav
Peak level 98.8 %
Extraction speed 2.3 X
Track quality 100.0 %
Test CRC ABD2E7F4
Copy CRC ABD2E7F4
Accurately ripped (confidence 1) [F7D2ECA3] (AR v2)
Copy OK
Track 5
Filename D:\Australian\Russell Morris - Sharkmouth\05 - Sharkmouth.wav
Peak level 98.8 %
Extraction speed 2.5 X
Track quality 100.0 %
Test CRC 2E5DE295
Copy CRC 2E5DE295
Accurately ripped (confidence 1) [CC25D977] (AR v2)
Copy OK
Track 6
Filename D:\Australian\Russell Morris - Sharkmouth\06 - Walk My Blues.wav
Peak level 98.8 %
Extraction speed 1.6 X
Track quality 99.9 %
Test CRC 9E90D6B6
Copy CRC 9E90D6B6
Accurately ripped (confidence 1) [CD011581] (AR v2)
Copy OK
Track 7
Filename D:\Australian\Russell Morris - Sharkmouth\07 - The Drifter.wav
Peak level 98.8 %
Extraction speed 2.8 X
Track quality 100.0 %
Test CRC 347E23AF
Copy CRC 347E23AF
Accurately ripped (confidence 1) [A833CF25] (AR v2)
Copy OK
Track 8
Filename D:\Australian\Russell Morris - Sharkmouth\08 - Squizzy.wav
Peak level 95.5 %
Extraction speed 2.9 X
Track quality 100.0 %
Test CRC 5D0D0974
Copy CRC 5D0D0974
Accurately ripped (confidence 1) [06B28D54] (AR v2)
Copy OK
Track 9
Filename D:\Australian\Russell Morris - Sharkmouth\09 - The Bridge.wav
Peak level 98.8 %
Extraction speed 2.9 X
Track quality 100.0 %
Test CRC D22BE85F
Copy CRC D22BE85F
Accurately ripped (confidence 1) [248BEEEC] (AR v2)
Copy OK
Track 10
Filename D:\Australian\Russell Morris - Sharkmouth\10 - Money Don't Grow On Trees.wav
Peak level 98.8 %
Extraction speed 3.1 X
Track quality 100.0 %
Test CRC 16AF7764
Copy CRC 16AF7764
Accurately ripped (confidence 1) [3EF5185B] (AR v2)
Copy OK
Track 11
Filename D:\Australian\Russell Morris - Sharkmouth\11 - Big Red.wav
Peak level 98.8 %
Extraction speed 2.2 X
Track quality 99.9 %
Test CRC 5B45748A
Copy CRC 5B45748A
Accurately ripped (confidence 1) [CE68FEB6] (AR v2)
Copy OK
Track 12
Filename D:\Australian\Russell Morris - Sharkmouth\12 - Mr. Eternity.wav
Peak level 98.8 %
Extraction speed 2.5 X
Track quality 99.9 %
Test CRC 2B9AE6BB
Copy CRC 2B9AE6BB
Accurately ripped (confidence 1) [E62D0F48] (AR v2)
Copy OK
All tracks accurately ripped
No errors occurred
End of status report
---- CUETools DB Plugin V2.1.3
[CTDB TOCID: XeA5EWJOtpYzj848j1fz6D9MX84-] found, Submit result: XeA5EWJOtpYzj848j1fz6D9MX84- has been confirmed
[a39ba79b] (2/2) Accurately ripped
==== Log checksum E7386202370715BAFA5945824BBB07CD77CE19714407136A29100F4C8CFDFBC4 ====
REM GENRE Blues
REM DATE 2012
REM DISCID A80A5B0C
REM COMMENT "ExactAudioCopy v1.0b3"
PERFORMER "Russell Morris"
TITLE "Sharkmouth"
FILE "01 - Black Dog Blues.wav" WAVE
TRACK 01 AUDIO
TITLE "Black Dog Blues"
PERFORMER "Russell Morris"
INDEX 01 00:00:00
FILE "02 - The Big House.wav" WAVE
TRACK 02 AUDIO
TITLE "The Big House"
PERFORMER "Russell Morris"
INDEX 01 00:00:00
FILE "03 - Ballad Of Les Darcy.wav" WAVE
TRACK 03 AUDIO
TITLE "Ballad Of Les Darcy"
PERFORMER "Russell Morris"
INDEX 01 00:00:00
FILE "04 - Bout To Break.wav" WAVE
TRACK 04 AUDIO
TITLE "Bout To Break"
PERFORMER "Russell Morris"
INDEX 01 00:00:00
FILE "05 - Sharkmouth.wav" WAVE
TRACK 05 AUDIO
TITLE "Sharkmouth"
PERFORMER "Russell Morris"
INDEX 01 00:00:00
FILE "06 - Walk My Blues.wav" WAVE
TRACK 06 AUDIO
TITLE "Walk My Blues"
PERFORMER "Russell Morris"
INDEX 01 00:00:00
FILE "07 - The Drifter.wav" WAVE
TRACK 07 AUDIO
TITLE "The Drifter"
PERFORMER "Russell Morris"
INDEX 01 00:00:00
FILE "08 - Squizzy.wav" WAVE
TRACK 08 AUDIO
TITLE "Squizzy"
PERFORMER "Russell Morris"
INDEX 01 00:00:00
FILE "09 - The Bridge.wav" WAVE
TRACK 09 AUDIO
TITLE "The Bridge"
PERFORMER "Russell Morris"
INDEX 01 00:00:00
FILE "10 - Money Don't Grow On Trees.wav" WAVE
TRACK 10 AUDIO
TITLE "Money Don't Grow On Trees"
PERFORMER "Russell Morris"
INDEX 01 00:00:00
FILE "11 - Big Red.wav" WAVE
TRACK 11 AUDIO
TITLE "Big Red"
PERFORMER "Russell Morris"
INDEX 01 00:00:00
FILE "12 - Mr. Eternity.wav" WAVE
TRACK 12 AUDIO
TITLE "Mr. Eternity"
PERFORMER "Russell Morris"
INDEX 01 00:00:00
Download / Скачать

Хотите скачать бесплатно? Зарегистрируйтесь на сайте (ссылка на регистрацию). Pirat.ca - самый быстрый торрент трекер в рунете!

Как скачивать  ·   Что такое торрент  ·   Рейтинг и ограничения

Показать сообщения:    
Ответить на тему

Текущее время: Сегодня 19:49

Часовой пояс: GMT + 4



Вы не можете начинать темы
Вы не можете отвечать на сообщения
Вы не можете редактировать свои сообщения
Вы не можете удалять свои сообщения
Вы не можете голосовать в опросах
Вы не можете прикреплять файлы к сообщениям
Вы не можете скачивать файлы

Майнать ▼