(Vocal Jazz) Caro Emerald - The Shocking Miss Emerald - 2013 [FLAC, tracks+.cue, lossless]

Ответить на тему
 
Автор
Сообщение

Пост 10-Дек-2013 18:16

[Q] 

Koralina

Caro Emerald / The Shocking Miss Emerald Год издания: 2013
Страна: Netherlands
Жанр: Vocal Jazz
Продолжительность: 00.51.20
Лейбл издания: Grandmono
Страна-выпуска диска: Netherlands
Источник (релизер): Koralina
Формат: FLAC
Битрейт аудио: lossless
Тип рипа: tracks+.cue
Наличие сканов в содержимом раздачи: нет
01 - Miss Emerald Intro
02 - One Day
03 - Coming Back As A Man
04 - Tangled Up
05 - Completely
06 - Black Valentine
07 - Pack Up The Louie
08 - I Belong To You
09 - The Maestro
10 - Liquid Lunch
11 - Excuse My French
12 - Paris
13 - My Two Cents
14 - The Wonderful In You
15 - Tell Me How Long
Код:
X Lossless Decoder version 20130127 (142.3)
XLD extraction logfile from 2013-05-04 15:14:14 +0200
Caro Emerald / The Shocking Miss Emerald
Used drive : OPTIARC DVD RW AD-5680H (revision 3AHB)
Media type : Pressed CD
Ripper mode             : XLD Secure Ripper
Disable audio cache     : OK for the drive with a cache less than 1375KiB
Make use of C2 pointers : NO
Read offset correction  : 48
Max retry count         : 20
Gap status              : Analyzed, Appended
TOC of the extracted CD
     Track |   Start  |  Length  | Start sector | End sector
    ---------------------------------------------------------
        1  | 00:00:00 | 00:39:23 |         0    |     2947
        2  | 00:39:23 | 04:32:64 |      2948    |    23411
        3  | 05:12:12 | 03:34:47 |     23412    |    39508
        4  | 08:46:59 | 03:15:15 |     39509    |    54148
        5  | 12:01:74 | 02:29:33 |     54149    |    65356
        6  | 14:31:32 | 05:03:45 |     65357    |    88126
        7  | 19:35:02 | 03:33:01 |     88127    |   104102
        8  | 23:08:03 | 03:27:66 |    104103    |   119693
        9  | 26:35:69 | 02:37:18 |    119694    |   131486
       10  | 29:13:12 | 03:59:61 |    131487    |   149472
       11  | 33:12:73 | 03:52:45 |    149473    |   166917
       12  | 37:05:43 | 04:47:07 |    166918    |   188449
       13  | 41:52:50 | 03:45:60 |    188450    |   205384
       14  | 45:38:35 | 03:12:34 |    205385    |   219818
       15  | 48:50:69 | 02:29:24 |    219819    |   231017
AccurateRip Summary
    Disc not found in AccurateRip DB.
All Tracks
    Album gain               : -8.87 dB
    Peak                     : 0.993408
    Statistics
        Read error                           : 0
        Jitter error (maybe fixed)           : 0
        Retry sector count                   : 0
        Damaged sector count                 : 0
Track 01
    Filename : /Volumes/FirewireHitachi/XLD-Output/Caro Emerald - The Shocking Miss Emerald (2013) [AIFF]/01 Miss Emerald: Intro.aiff
               /Volumes/FirewireHitachi/XLD-Output/Caro Emerald - The Shocking Miss Emerald (2013) [FLAC]/01 Miss Emerald: Intro.flac
               /Volumes/FirewireHitachi/XLD-Output/Caro Emerald - The Shocking Miss Emerald (2013) [MP3 V0]/01 Miss Emerald: Intro.mp3
               /Volumes/FirewireHitachi/XLD-Output/Caro Emerald - The Shocking Miss Emerald (2013) [MP3 V2]/01 Miss Emerald: Intro.mp3
               /Volumes/FirewireHitachi/XLD-Output/Caro Emerald - The Shocking Miss Emerald (2013) [MP3 320]/01 Miss Emerald: Intro.mp3
    Pre-gap length : 00:02:00
    Track gain               : -6.39 dB
    Peak                     : 0.987396
    CRC32 hash (test run)    : 63A235EE
    CRC32 hash               : 63A235EE
    CRC32 hash (skip zero)   : B4AD3E5A
    AccurateRip v1 signature : 89C55A11
    AccurateRip v2 signature : E7049275
        ->Track not present in AccurateRip database.
    Statistics
        Read error                           : 0
        Jitter error (maybe fixed)           : 0
        Retry sector count                   : 0
        Damaged sector count                 : 0
Track 02
    Filename : /Volumes/FirewireHitachi/XLD-Output/Caro Emerald - The Shocking Miss Emerald (2013) [AIFF]/02 One Day.aiff
               /Volumes/FirewireHitachi/XLD-Output/Caro Emerald - The Shocking Miss Emerald (2013) [FLAC]/02 One Day.flac
               /Volumes/FirewireHitachi/XLD-Output/Caro Emerald - The Shocking Miss Emerald (2013) [MP3 V0]/02 One Day.mp3
               /Volumes/FirewireHitachi/XLD-Output/Caro Emerald - The Shocking Miss Emerald (2013) [MP3 V2]/02 One Day.mp3
               /Volumes/FirewireHitachi/XLD-Output/Caro Emerald - The Shocking Miss Emerald (2013) [MP3 320]/02 One Day.mp3
    Track gain               : -8.48 dB
    Peak                     : 0.987732
    CRC32 hash (test run)    : 04857CB8
    CRC32 hash               : 04857CB8
    CRC32 hash (skip zero)   : 4C106293
    AccurateRip v1 signature : 28482F11
    AccurateRip v2 signature : 1FC64488
        ->Track not present in AccurateRip database.
    Statistics
        Read error                           : 0
        Jitter error (maybe fixed)           : 0
        Retry sector count                   : 0
        Damaged sector count                 : 0
Track 03
    Filename : /Volumes/FirewireHitachi/XLD-Output/Caro Emerald - The Shocking Miss Emerald (2013) [AIFF]/03 Coming Back As A Man.aiff
               /Volumes/FirewireHitachi/XLD-Output/Caro Emerald - The Shocking Miss Emerald (2013) [FLAC]/03 Coming Back As A Man.flac
               /Volumes/FirewireHitachi/XLD-Output/Caro Emerald - The Shocking Miss Emerald (2013) [MP3 V0]/03 Coming Back As A Man.mp3
               /Volumes/FirewireHitachi/XLD-Output/Caro Emerald - The Shocking Miss Emerald (2013) [MP3 V2]/03 Coming Back As A Man.mp3
               /Volumes/FirewireHitachi/XLD-Output/Caro Emerald - The Shocking Miss Emerald (2013) [MP3 320]/03 Coming Back As A Man.mp3
    Track gain               : -8.51 dB
    Peak                     : 0.987518
    CRC32 hash (test run)    : 3C7F79DC
    CRC32 hash               : 3C7F79DC
    CRC32 hash (skip zero)   : 9DDEF44F
    AccurateRip v1 signature : 230E9A4C
    AccurateRip v2 signature : AE745388
        ->Track not present in AccurateRip database.
    Statistics
        Read error                           : 0
        Jitter error (maybe fixed)           : 0
        Retry sector count                   : 0
        Damaged sector count                 : 0
Track 04
    Filename : /Volumes/FirewireHitachi/XLD-Output/Caro Emerald - The Shocking Miss Emerald (2013) [AIFF]/04 Tangled Up.aiff
               /Volumes/FirewireHitachi/XLD-Output/Caro Emerald - The Shocking Miss Emerald (2013) [FLAC]/04 Tangled Up.flac
               /Volumes/FirewireHitachi/XLD-Output/Caro Emerald - The Shocking Miss Emerald (2013) [MP3 V0]/04 Tangled Up.mp3
               /Volumes/FirewireHitachi/XLD-Output/Caro Emerald - The Shocking Miss Emerald (2013) [MP3 V2]/04 Tangled Up.mp3
               /Volumes/FirewireHitachi/XLD-Output/Caro Emerald - The Shocking Miss Emerald (2013) [MP3 320]/04 Tangled Up.mp3
    Track gain               : -10.05 dB
    Peak                     : 0.987518
    CRC32 hash (test run)    : 4CDFD48A
    CRC32 hash               : 4CDFD48A
    CRC32 hash (skip zero)   : 8B8550C8
    AccurateRip v1 signature : 52DAA2D5
    AccurateRip v2 signature : 8C72230E
        ->Track not present in AccurateRip database.
    Statistics
        Read error                           : 0
        Jitter error (maybe fixed)           : 0
        Retry sector count                   : 0
        Damaged sector count                 : 0
Track 05
    Filename : /Volumes/FirewireHitachi/XLD-Output/Caro Emerald - The Shocking Miss Emerald (2013) [AIFF]/05 Completely.aiff
               /Volumes/FirewireHitachi/XLD-Output/Caro Emerald - The Shocking Miss Emerald (2013) [FLAC]/05 Completely.flac
               /Volumes/FirewireHitachi/XLD-Output/Caro Emerald - The Shocking Miss Emerald (2013) [MP3 V0]/05 Completely.mp3
               /Volumes/FirewireHitachi/XLD-Output/Caro Emerald - The Shocking Miss Emerald (2013) [MP3 V2]/05 Completely.mp3
               /Volumes/FirewireHitachi/XLD-Output/Caro Emerald - The Shocking Miss Emerald (2013) [MP3 320]/05 Completely.mp3
    Track gain               : -10.03 dB
    Peak                     : 0.987518
    CRC32 hash (test run)    : 35D63557
    CRC32 hash               : 35D63557
    CRC32 hash (skip zero)   : D59B6D6A
    AccurateRip v1 signature : 3FCBE6E6
    AccurateRip v2 signature : 82441E73
        ->Track not present in AccurateRip database.
    Statistics
        Read error                           : 0
        Jitter error (maybe fixed)           : 0
        Retry sector count                   : 0
        Damaged sector count                 : 0
Track 06
    Filename : /Volumes/FirewireHitachi/XLD-Output/Caro Emerald - The Shocking Miss Emerald (2013) [AIFF]/06 Black Valentine.aiff
               /Volumes/FirewireHitachi/XLD-Output/Caro Emerald - The Shocking Miss Emerald (2013) [FLAC]/06 Black Valentine.flac
               /Volumes/FirewireHitachi/XLD-Output/Caro Emerald - The Shocking Miss Emerald (2013) [MP3 V0]/06 Black Valentine.mp3
               /Volumes/FirewireHitachi/XLD-Output/Caro Emerald - The Shocking Miss Emerald (2013) [MP3 V2]/06 Black Valentine.mp3
               /Volumes/FirewireHitachi/XLD-Output/Caro Emerald - The Shocking Miss Emerald (2013) [MP3 320]/06 Black Valentine.mp3
    Track gain               : -8.48 dB
    Peak                     : 0.987518
    CRC32 hash (test run)    : B4987A82
    CRC32 hash               : B4987A82
    CRC32 hash (skip zero)   : 097B4DFE
    AccurateRip v1 signature : C289932E
    AccurateRip v2 signature : D2DA638B
        ->Track not present in AccurateRip database.
    Statistics
        Read error                           : 0
        Jitter error (maybe fixed)           : 0
        Retry sector count                   : 0
        Damaged sector count                 : 0
Track 07
    Filename : /Volumes/FirewireHitachi/XLD-Output/Caro Emerald - The Shocking Miss Emerald (2013) [AIFF]/07 Pack Up The Louie.aiff
               /Volumes/FirewireHitachi/XLD-Output/Caro Emerald - The Shocking Miss Emerald (2013) [FLAC]/07 Pack Up The Louie.flac
               /Volumes/FirewireHitachi/XLD-Output/Caro Emerald - The Shocking Miss Emerald (2013) [MP3 V0]/07 Pack Up The Louie.mp3
               /Volumes/FirewireHitachi/XLD-Output/Caro Emerald - The Shocking Miss Emerald (2013) [MP3 V2]/07 Pack Up The Louie.mp3
               /Volumes/FirewireHitachi/XLD-Output/Caro Emerald - The Shocking Miss Emerald (2013) [MP3 320]/07 Pack Up The Louie.mp3
    Track gain               : -9.15 dB
    Peak                     : 0.993408
    CRC32 hash (test run)    : 48300D31
    CRC32 hash               : 48300D31
    CRC32 hash (skip zero)   : 61F3EAAF
    AccurateRip v1 signature : BD037D75
    AccurateRip v2 signature : 2BE48695
        ->Track not present in AccurateRip database.
    Statistics
        Read error                           : 0
        Jitter error (maybe fixed)           : 0
        Retry sector count                   : 0
        Damaged sector count                 : 0
Track 08
    Filename : /Volumes/FirewireHitachi/XLD-Output/Caro Emerald - The Shocking Miss Emerald (2013) [AIFF]/08 I Belong To You.aiff
               /Volumes/FirewireHitachi/XLD-Output/Caro Emerald - The Shocking Miss Emerald (2013) [FLAC]/08 I Belong To You.flac
               /Volumes/FirewireHitachi/XLD-Output/Caro Emerald - The Shocking Miss Emerald (2013) [MP3 V0]/08 I Belong To You.mp3
               /Volumes/FirewireHitachi/XLD-Output/Caro Emerald - The Shocking Miss Emerald (2013) [MP3 V2]/08 I Belong To You.mp3
               /Volumes/FirewireHitachi/XLD-Output/Caro Emerald - The Shocking Miss Emerald (2013) [MP3 320]/08 I Belong To You.mp3
    Track gain               : -9.98 dB
    Peak                     : 0.987488
    CRC32 hash (test run)    : 208AC9B6
    CRC32 hash               : 208AC9B6
    CRC32 hash (skip zero)   : 54D7C651
    AccurateRip v1 signature : DD3CCBEC
    AccurateRip v2 signature : FFF20D63
        ->Track not present in AccurateRip database.
    Statistics
        Read error                           : 0
        Jitter error (maybe fixed)           : 0
        Retry sector count                   : 0
        Damaged sector count                 : 0
Track 09
    Filename : /Volumes/FirewireHitachi/XLD-Output/Caro Emerald - The Shocking Miss Emerald (2013) [AIFF]/09 The Maestro.aiff
               /Volumes/FirewireHitachi/XLD-Output/Caro Emerald - The Shocking Miss Emerald (2013) [FLAC]/09 The Maestro.flac
               /Volumes/FirewireHitachi/XLD-Output/Caro Emerald - The Shocking Miss Emerald (2013) [MP3 V0]/09 The Maestro.mp3
               /Volumes/FirewireHitachi/XLD-Output/Caro Emerald - The Shocking Miss Emerald (2013) [MP3 V2]/09 The Maestro.mp3
               /Volumes/FirewireHitachi/XLD-Output/Caro Emerald - The Shocking Miss Emerald (2013) [MP3 320]/09 The Maestro.mp3
    Track gain               : -7.84 dB
    Peak                     : 0.987518
    CRC32 hash (test run)    : 509E758B
    CRC32 hash               : 509E758B
    CRC32 hash (skip zero)   : 403D48C8
    AccurateRip v1 signature : BF09B04D
    AccurateRip v2 signature : 2F5188D4
        ->Track not present in AccurateRip database.
    Statistics
        Read error                           : 0
        Jitter error (maybe fixed)           : 0
        Retry sector count                   : 0
        Damaged sector count                 : 0
Track 10
    Filename : /Volumes/FirewireHitachi/XLD-Output/Caro Emerald - The Shocking Miss Emerald (2013) [AIFF]/10 Liquid Lunch.aiff
               /Volumes/FirewireHitachi/XLD-Output/Caro Emerald - The Shocking Miss Emerald (2013) [FLAC]/10 Liquid Lunch.flac
               /Volumes/FirewireHitachi/XLD-Output/Caro Emerald - The Shocking Miss Emerald (2013) [MP3 V0]/10 Liquid Lunch.mp3
               /Volumes/FirewireHitachi/XLD-Output/Caro Emerald - The Shocking Miss Emerald (2013) [MP3 V2]/10 Liquid Lunch.mp3
               /Volumes/FirewireHitachi/XLD-Output/Caro Emerald - The Shocking Miss Emerald (2013) [MP3 320]/10 Liquid Lunch.mp3
    Track gain               : -7.94 dB
    Peak                     : 0.981567
    CRC32 hash (test run)    : 17D4CEDB
    CRC32 hash               : 17D4CEDB
    CRC32 hash (skip zero)   : CDAC4FDB
    AccurateRip v1 signature : AC956F94
    AccurateRip v2 signature : E8F6E4DA
        ->Track not present in AccurateRip database.
    Statistics
        Read error                           : 0
        Jitter error (maybe fixed)           : 0
        Retry sector count                   : 0
        Damaged sector count                 : 0
Track 11
    Filename : /Volumes/FirewireHitachi/XLD-Output/Caro Emerald - The Shocking Miss Emerald (2013) [AIFF]/11 Excuse My French.aiff
               /Volumes/FirewireHitachi/XLD-Output/Caro Emerald - The Shocking Miss Emerald (2013) [FLAC]/11 Excuse My French.flac
               /Volumes/FirewireHitachi/XLD-Output/Caro Emerald - The Shocking Miss Emerald (2013) [MP3 V0]/11 Excuse My French.mp3
               /Volumes/FirewireHitachi/XLD-Output/Caro Emerald - The Shocking Miss Emerald (2013) [MP3 V2]/11 Excuse My French.mp3
               /Volumes/FirewireHitachi/XLD-Output/Caro Emerald - The Shocking Miss Emerald (2013) [MP3 320]/11 Excuse My French.mp3
    Track gain               : -8.67 dB
    Peak                     : 0.987488
    CRC32 hash (test run)    : F64C0EB7
    CRC32 hash               : F64C0EB7
    CRC32 hash (skip zero)   : CCECF9D5
    AccurateRip v1 signature : 337A069B
    AccurateRip v2 signature : 0CBFD221
        ->Track not present in AccurateRip database.
    Statistics
        Read error                           : 0
        Jitter error (maybe fixed)           : 0
        Retry sector count                   : 0
        Damaged sector count                 : 0
Track 12
    Filename : /Volumes/FirewireHitachi/XLD-Output/Caro Emerald - The Shocking Miss Emerald (2013) [AIFF]/12 Paris.aiff
               /Volumes/FirewireHitachi/XLD-Output/Caro Emerald - The Shocking Miss Emerald (2013) [FLAC]/12 Paris.flac
               /Volumes/FirewireHitachi/XLD-Output/Caro Emerald - The Shocking Miss Emerald (2013) [MP3 V0]/12 Paris.mp3
               /Volumes/FirewireHitachi/XLD-Output/Caro Emerald - The Shocking Miss Emerald (2013) [MP3 V2]/12 Paris.mp3
               /Volumes/FirewireHitachi/XLD-Output/Caro Emerald - The Shocking Miss Emerald (2013) [MP3 320]/12 Paris.mp3
    Track gain               : -9.25 dB
    Peak                     : 0.987488
    CRC32 hash (test run)    : AF6095CC
    CRC32 hash               : AF6095CC
    CRC32 hash (skip zero)   : 555E0212
    AccurateRip v1 signature : FBC910B0
    AccurateRip v2 signature : 07487317
        ->Track not present in AccurateRip database.
    Statistics
        Read error                           : 0
        Jitter error (maybe fixed)           : 0
        Retry sector count                   : 0
        Damaged sector count                 : 0
Track 13
    Filename : /Volumes/FirewireHitachi/XLD-Output/Caro Emerald - The Shocking Miss Emerald (2013) [AIFF]/13 My Two Cents.aiff
               /Volumes/FirewireHitachi/XLD-Output/Caro Emerald - The Shocking Miss Emerald (2013) [FLAC]/13 My Two Cents.flac
               /Volumes/FirewireHitachi/XLD-Output/Caro Emerald - The Shocking Miss Emerald (2013) [MP3 V0]/13 My Two Cents.mp3
               /Volumes/FirewireHitachi/XLD-Output/Caro Emerald - The Shocking Miss Emerald (2013) [MP3 V2]/13 My Two Cents.mp3
               /Volumes/FirewireHitachi/XLD-Output/Caro Emerald - The Shocking Miss Emerald (2013) [MP3 320]/13 My Two Cents.mp3
    Track gain               : -8.05 dB
    Peak                     : 0.987518
    CRC32 hash (test run)    : A3163ABA
    CRC32 hash               : A3163ABA
    CRC32 hash (skip zero)   : 458CB7DC
    AccurateRip v1 signature : 68D8D1AE
    AccurateRip v2 signature : 9EF88464
        ->Track not present in AccurateRip database.
    Statistics
        Read error                           : 0
        Jitter error (maybe fixed)           : 0
        Retry sector count                   : 0
        Damaged sector count                 : 0
Track 14
    Filename : /Volumes/FirewireHitachi/XLD-Output/Caro Emerald - The Shocking Miss Emerald (2013) [AIFF]/14 The Wonderful In You.aiff
               /Volumes/FirewireHitachi/XLD-Output/Caro Emerald - The Shocking Miss Emerald (2013) [FLAC]/14 The Wonderful In You.flac
               /Volumes/FirewireHitachi/XLD-Output/Caro Emerald - The Shocking Miss Emerald (2013) [MP3 V0]/14 The Wonderful In You.mp3
               /Volumes/FirewireHitachi/XLD-Output/Caro Emerald - The Shocking Miss Emerald (2013) [MP3 V2]/14 The Wonderful In You.mp3
               /Volumes/FirewireHitachi/XLD-Output/Caro Emerald - The Shocking Miss Emerald (2013) [MP3 320]/14 The Wonderful In You.mp3
    Track gain               : -7.33 dB
    Peak                     : 0.987488
    CRC32 hash (test run)    : 8EBD0D46
    CRC32 hash               : 8EBD0D46
    CRC32 hash (skip zero)   : 4B7EDA1C
    AccurateRip v1 signature : DEF131D0
    AccurateRip v2 signature : BC2EE680
        ->Track not present in AccurateRip database.
    Statistics
        Read error                           : 0
        Jitter error (maybe fixed)           : 0
        Retry sector count                   : 0
        Damaged sector count                 : 0
Track 15
    Filename : /Volumes/FirewireHitachi/XLD-Output/Caro Emerald - The Shocking Miss Emerald (2013) [AIFF]/15 Tell Me How Long.aiff
               /Volumes/FirewireHitachi/XLD-Output/Caro Emerald - The Shocking Miss Emerald (2013) [FLAC]/15 Tell Me How Long.flac
               /Volumes/FirewireHitachi/XLD-Output/Caro Emerald - The Shocking Miss Emerald (2013) [MP3 V0]/15 Tell Me How Long.mp3
               /Volumes/FirewireHitachi/XLD-Output/Caro Emerald - The Shocking Miss Emerald (2013) [MP3 V2]/15 Tell Me How Long.mp3
               /Volumes/FirewireHitachi/XLD-Output/Caro Emerald - The Shocking Miss Emerald (2013) [MP3 320]/15 Tell Me How Long.mp3
    Track gain               : -8.09 dB
    Peak                     : 0.987488
    CRC32 hash (test run)    : FDB88A3B
    CRC32 hash               : FDB88A3B
    CRC32 hash (skip zero)   : 7E3E1B16
    AccurateRip v1 signature : 23E396CE
    AccurateRip v2 signature : C62B44BB
        ->Track not present in AccurateRip database.
    Statistics
        Read error                           : 0
        Jitter error (maybe fixed)           : 0
        Retry sector count                   : 0
        Damaged sector count                 : 0
No errors occurred
End of status report
Код:
REM GENRE Pop
REM DATE 2013
REM COMMENT www.losslessinside.com
PERFORMER "Caro Emerald"
TITLE "The Shocking Miss Emerald"
FILE "01 - Miss Emerald Intro.flac" WAVE
  TRACK 01 AUDIO
    TITLE "Miss Emerald: Intro"
    ISRC NLHR31300004
    REM REPLAYGAIN_TRACK_GAIN -6.39 dB
    REM REPLAYGAIN_TRACK_PEAK 0.987396
    INDEX 01 00:00:00
FILE "02 - One Day.flac" WAVE
  TRACK 02 AUDIO
    TITLE "One Day"
    ISRC NLHR31300005
    REM REPLAYGAIN_TRACK_GAIN -8.48 dB
    REM REPLAYGAIN_TRACK_PEAK 0.987732
    INDEX 01 00:00:00
FILE "03 - Coming Back As A Man.flac" WAVE
  TRACK 03 AUDIO
    TITLE "Coming Back As A Man"
    ISRC NLHR31300006
    REM REPLAYGAIN_TRACK_GAIN -8.51 dB
    REM REPLAYGAIN_TRACK_PEAK 0.987518
    INDEX 01 00:00:00
FILE "04 - Tangled Up.flac" WAVE
  TRACK 04 AUDIO
    TITLE "Tangled Up"
    ISRC NLHR31300001
    REM REPLAYGAIN_TRACK_GAIN -10.05 dB
    REM REPLAYGAIN_TRACK_PEAK 0.987518
    INDEX 01 00:00:00
FILE "05 - Completely.flac" WAVE
  TRACK 05 AUDIO
    TITLE "Completely"
    ISRC NLHR31300007
    REM REPLAYGAIN_TRACK_GAIN -10.03 dB
    REM REPLAYGAIN_TRACK_PEAK 0.987518
    INDEX 01 00:00:00
FILE "06 - Black Valentine.flac" WAVE
  TRACK 06 AUDIO
    TITLE "Black Valentine"
    ISRC NLHR31300008
    REM REPLAYGAIN_TRACK_GAIN -8.48 dB
    REM REPLAYGAIN_TRACK_PEAK 0.987518
    INDEX 01 00:00:00
FILE "07 - Pack Up The Louie.flac" WAVE
  TRACK 07 AUDIO
    TITLE "Pack Up The Louie"
    ISRC NLHR31300009
    REM REPLAYGAIN_TRACK_GAIN -9.15 dB
    REM REPLAYGAIN_TRACK_PEAK 0.993408
    INDEX 01 00:00:00
FILE "08 - I Belong To You.flac" WAVE
  TRACK 08 AUDIO
    TITLE "I Belong To You"
    ISRC NLHR31300010
    REM REPLAYGAIN_TRACK_GAIN -9.98 dB
    REM REPLAYGAIN_TRACK_PEAK 0.987488
    INDEX 01 00:00:00
FILE "09 - The Maestro.flac" WAVE
  TRACK 09 AUDIO
    TITLE "The Maestro"
    ISRC NLHR31300011
    REM REPLAYGAIN_TRACK_GAIN -7.84 dB
    REM REPLAYGAIN_TRACK_PEAK 0.987518
    INDEX 01 00:00:00
FILE "10 - Liquid Lunch.flac" WAVE
  TRACK 10 AUDIO
    TITLE "Liquid Lunch"
    ISRC NLHR31300012
    REM REPLAYGAIN_TRACK_GAIN -7.94 dB
    REM REPLAYGAIN_TRACK_PEAK 0.981567
    INDEX 01 00:00:00
FILE "11 - Excuse My French.flac" WAVE
  TRACK 11 AUDIO
    TITLE "Excuse My French"
    ISRC NLHR31300013
    REM REPLAYGAIN_TRACK_GAIN -8.67 dB
    REM REPLAYGAIN_TRACK_PEAK 0.987488
    INDEX 01 00:00:00
FILE "12 - Paris.flac" WAVE
  TRACK 12 AUDIO
    TITLE "Paris"
    ISRC NLHR31300014
    REM REPLAYGAIN_TRACK_GAIN -9.25 dB
    REM REPLAYGAIN_TRACK_PEAK 0.987488
    INDEX 01 00:00:00
FILE "13 - My Two Cents.flac" WAVE
  TRACK 13 AUDIO
    TITLE "My Two Cents"
    ISRC NLHR31300015
    REM REPLAYGAIN_TRACK_GAIN -8.05 dB
    REM REPLAYGAIN_TRACK_PEAK 0.987518
    INDEX 01 00:00:00
FILE "14 - The Wonderful In You.flac" WAVE
  TRACK 14 AUDIO
    TITLE "The Wonderful In You"
    ISRC NLHR31300016
    REM REPLAYGAIN_TRACK_GAIN -7.33 dB
    REM REPLAYGAIN_TRACK_PEAK 0.987488
    INDEX 01 00:00:00
FILE "15 - Tell Me How Long.flac" WAVE
  TRACK 15 AUDIO
    TITLE "Tell Me How Long"
    ISRC NLHR31300040
    REM REPLAYGAIN_TRACK_GAIN -8.09 dB
    REM REPLAYGAIN_TRACK_PEAK 0.987488
    INDEX 01 00:00:00
Каролина Эсмеральда ван дер Леу (нидерл. Caroline Esmeralda van der Leeuw; род. 26 апреля 1981), более известная как Каро Эмеральд (Caro Emerald) — нидерландская джазовая певица. Она дебютировала 6 июля 2009 года с синглом «Back It Up». Её первый студийный альбом Deleted Scenes from the Cutting Room Floor провёл 30 недель на первом месте в нидерландском хит-параде, на одну неделю опередив рекорд, который ранее принадлежал пластинке Thriller Майкла Джексона, и стал самым продаваемым диском 2010 года в Нидерландах. 3 октября 2010 года Каро Эмеральд была награждена нидерландской музыкальной премией Edison (англ.)русск. в категории «Лучшая певица».
15 января 2011 года она получила приз Popprijs за большой вклад в нидерландскую поп-музыку.
Второй студийный альбом
Download / Скачать

Хотите скачать бесплатно? Зарегистрируйтесь на сайте (ссылка на регистрацию). Pirat.ca - самый быстрый торрент трекер в рунете!

Как скачивать  ·   Что такое торрент  ·   Рейтинг и ограничения

Показать сообщения:    
Ответить на тему

Текущее время: Сегодня 11:27

Часовой пояс: GMT + 4



Вы не можете начинать темы
Вы не можете отвечать на сообщения
Вы не можете редактировать свои сообщения
Вы не можете удалять свои сообщения
Вы не можете голосовать в опросах
Вы не можете прикреплять файлы к сообщениям
Вы не можете скачивать файлы

Майнать ▼