Hoff Ensemble - Quiet Winter Night - An Acoustic Jazz Project [2012 г.] (Jazz) [Blu-ray Audio, 1080i]

Ответить на тему
 
Автор
Сообщение

Пост 23-Янв-2013 20:38

[Q] 

cataman

Hoff Ensemble - Quiet Winter Night - An Acoustic Jazz Project-- Год выпуска: 2012 г.
Страна: Норвегия
Жанр: Jazz
Продолжительность: 00:48:08-Качество видео: Blu-ray Audio
Контейнер: BDAV
Стандарт разрешения: 1080i
Видео: MPEG-4 AVC, 12 Мбит/с, 1920х1080, 29.970 кадр/с
Аудио: (DTS-HD MA, 24|192, 6 ch, 13346 Кбит/с), (LPCM, 24|192, 2 ch, 9216 Кбит/с)
Альбом ”Quiet winter night” (Тихая зимняя ночь) назначен на премию Грэмми 2013, в категории “Лучший многоканальный альбом” (2L и Мортен Линдберг). Диск имеет удобную навигацию и обеспечен звуком высокого качества. Содержит также и музыкальное видео, к которому рекомендуется отнестись как к бонусному материалу. Желающие скачать только аудио-материалы могут воспользоваться папакой "PCM DATA", выбрав качество согласно своим потребностям. Приятных зимних ночей в мире магии звука!!!
01. Dronning Fjellrose
02. Stille, stille kommer vi
03. Dele alle ord og tanker
04. Redd Mamma
05. Sulla, sulla krekling
06. Blagutten
07. Ville fjellgutt
08. Hva skal hende na?
09. Ved balet
10. Tufsa danser
11. Vesle, rare bygdeunge
12. En blanissekveld
13. Kveldslokk for sma unger
14. Lys i desember
2L and Hoff Ensemble present Quiet Winter Night, an acoustic jazz project. Members of the Hoff Ensemble include Mathias Eick (trumpet), Borge Petersen-Overleir (guitar), Annbjorg Lien (nyckelharpa and hardanger fiddle), Jan Gunnar Hoff (piano), Arild Andersen (double bass), Rune Arnesen (percussion). Vocals by Helene Boksle, Asne Valland Nordli, Annbjorg Lien, Sondre Bratland, Unni Wilhelmsen, Tomine Harket, Bj++rn Johan Muri, Cecilia Vennersten and Bjorn Eidsvag.
OFF ENSEMBLE consists of some of Norway's finest jazz and session musicians, fronted by trumpeter Mathias Eick, of ECM renown, who plays a leading role in several of the compositions. The ensemble's basic quartet features legendary veteran bassist Arild Andersen and arranger Jan Gunnar Hoff on piano. Hoff has performed with his own group since 1993, collaborating with such artists as Mike Stern, Pat Metheny, Maria Joao and Alex Acuna. This time in this great Norwegian band he mixes flavours in a "cross-over" setting. Eick, with whom Hoff has worked on earlier projects, was the obvious first choice for QUIET WINTER NIGHT, along with Andersen and the rest of the band, complemented by Rune Arnesen (ex N.P.Molv?r) on percussion and Borge Petersen-Overleir, Norway's leading session guitarist.
Brilliant fiddle player Annbjorg Lien is an exciting addition to the HOFF ENSEMBLE, giving QUIET WINTER NIGHT a sound that is definitely Nordic with elements of jazz, folk and beyond, making this an interesting and original journey. On some of the instrumental tracks, like "Blagutten", Eick and Petersen-Overleir create an overall jazz/fusion sound, while the trio setting of "Redd Mamma" is reminiscent of the work of Sweden's Jan Johansson. "Hva skal hende na" bears comparison with Metheny's ballad form, yet with a more rock-influenced guitar sound. This tune also includes a great bass solo by Andersen.
The music is created by film composers Geir Bohren and Bent Aserud and among the vocalists are some of Norway's top names (and Universal artists) in popular music: Helene Boksle, Asne Valland Nordli, Sondre Bratland, Unni Wilhelmsen, Tomine Harket, Bjorn Johan Muri, Cecilia Vennersten and Bjorn Eidsvag.
Код:
General
ID                               : 0 (0x0)
Complete name                    : H:QUIET_WINTER_NIGHT_HDCLUBBDMVSTREAM�0000.m2ts
Format                           : BDAV
Format/Info                      : Blu-ray Video
File size                        : 8.42 GiB
Duration                         : 48mn 8s
Overall bit rate mode            : Variable
Overall bit rate                 : 25.0 Mbps
Maximum Overall bit rate         : 48.0 Mbps
Video
ID                               : 4113 (0x1011)
Menu ID                          : 1 (0x1)
Format                           : AVC
Format/Info                      : Advanced Video Codec
Format profile                   : [email protected]
Format settings, CABAC           : Yes
Format settings, ReFrames        : 4 frames
Format settings, GOP             : M=3, N=30
Codec ID                         : 27
Duration                         : 48mn 8s
Bit rate mode                    : Constant
Bit rate                         : 12.0 Mbps
Nominal bit rate                 : 950 Kbps
Width                            : 1 920 pixels
Height                           : 1 080 pixels
Display aspect ratio             : 16:9
Frame rate                       : 29.970 fps
Color space                      : YUV
Chroma subsampling               : 4:2:0
Bit depth                        : 8 bits
Scan type                        : MBAFF
Bits/(Pixel*Frame)               : 0.193
Stream size                      : 4.04 GiB (48%)
Audio #1
ID                               : 4352 (0x1100)
Menu ID                          : 1 (0x1)
Format                           : DTS
Format/Info                      : Digital Theater Systems
Format profile                   : MA / Core
Muxing mode                      : Stream extension
Codec ID                         : 134
Duration                         : 48mn 8s
Bit rate mode                    : Variable
Bit rate                         : 2 799 Kbps / 1 510 Kbps
Channel(s)                       : 6 channels
Channel positions                : Front: L C R, Side: L R, LFE
Sampling rate                    : 192 KHz / 48.0 KHz
Bit depth                        : 24 bits
Compression mode                 : Lossless / Lossy
Audio #2
ID                               : 4353 (0x1101)
Menu ID                          : 1 (0x1)
Format                           : PCM
Format settings, Endianness      : Big
Format settings, Sign            : Signed
Muxing mode                      : Blu-ray
Codec ID                         : 128
Duration                         : 48mn 8s
Bit rate mode                    : Constant
Bit rate                         : 9 216 Kbps
Channel(s)                       : 2 channels
Channel positions                : Front: L R
Sampling rate                    : 192 KHz
Bit depth                        : 24 bits
Stream size                      : 3.10 GiB (37%)
Код:
DISC INFO:
Disc Title:     QUIET_WINTER_NIGHT_HDCLUB
Disc Size:      16 835 024 224 bytes
Protection:     AACS
BD-Java:        Yes
BDInfo:         0.5.8
PLAYLIST REPORT:
Name:                   00000.MPLS
Length:                 0:48:08.118 (h:m:s.ms)
Size:                   9 041 639 424 bytes
Total Bitrate:          25,05 Mbps
VIDEO:
Codec                   Bitrate             Deion
-----                   -------             -----------
MPEG-4 AVC Video        950 kbps            1080i / 29,970 fps / 16:9 / High Profile 4.1
AUDIO:
Codec                           Language        Bitrate         Deion
-----                           --------        -------         -----------
DTS-HD Master Audio             Miscellaneous languages13346 kbps      5.1 / 192 kHz / 13346 kbps / 24-bit (DTS Core: 5.1 / 48 kHz / 1509 kbps / 24-bit)
LPCM Audio                      Miscellaneous languages9216 kbps       2.0 / 192 kHz / 9216 kbps / 24-bit
FILES:
Name            Time In         Length          Size            Total Bitrate
----            -------         ------          ----            -------------
00000.M2TS      0:00:00.000     0:48:08.118     9 041 639 424   25 045
-
Download / Скачать

Хотите скачать бесплатно? Зарегистрируйтесь на сайте (ссылка на регистрацию). Pirat.ca - самый быстрый торрент трекер в рунете!

Как скачивать  ·   Что такое торрент  ·   Рейтинг и ограничения

popov234

Корсар

Пост 04-Фев-2014 16:41 (спустя 1 год)

[Q] 

Настоящий Blu-ray Pure Audio. Спасибо.
[Профиль]  [ЛС] 
Показать сообщения:    
Ответить на тему

Текущее время: Сегодня 11:52

Часовой пояс: GMT + 4



Вы не можете начинать темы
Вы не можете отвечать на сообщения
Вы не можете редактировать свои сообщения
Вы не можете удалять свои сообщения
Вы не можете голосовать в опросах
Вы не можете прикреплять файлы к сообщениям
Вы не можете скачивать файлы

Майнать ▼