ХХII Зимние Олимпийские Игры Сочи 2014 / Горные лыжи (Горнолыжный спорт), Супер-гигант / Мужчины (Спорт 1 HD - Илья Козаков) [16.02.2014 г., IPTVRip, AVI, RU] [R.G. DOCpiratTV]

Ответить на тему
 
Автор
Сообщение

Пост 08-Мар-2014 23:28

[Q] 

UcrusPazzo

Горные лыжи (Горнолыжный спорт), Супер-гигант / МужчиныЖаркие. Зимние. Твои.Официальный сайт "Сочи 2014" -Год выпуска: 16.02.2014 г.
Вид спорта: Горные лыжи (Горнолыжный спорт), Супер-гигант
Участники: Мужчины
Продолжительность: 02:02:42
Комментатор: Илья Козаков
Язык комментариев: русский-ТВ Канал: -Арена: Роза Хутор (Сочи, Россия) 16 февраля 2014 года, воскресенье. 10:00 МСК-Качество видео: IPTVRip
Контейнер: AVI
Видео кодек: XviD
Аудио кодек: MP3
Видео: 720x400 (1.80:1), 25 fps, XviD build 50 ~1999 kbps avg, 0.28 bit/pixel
Аудио: 48 kHz, MPEG Layer 3, 2 ch, ~192.00 kbps avg
Горные лыжи. Расписание и результаты. Скачать.
Автор рипа:
1 Кьетил Янсруд Норвегия
2 Эндрю Уайбрехт США
3 Ян Гудец Канада
3 Боде Миллер США
5 Отмар Штридингер Австрия
6 Макс Франц Австрия
7 Аксель Лунд Свиндаль Норвегия
8 Петер Филл Италия
9 Ондржей Банк Чехия
10 Морган Приди Канада
11 Адриен То Франция
12 Патрик Кюнг Швейцария
13 Александер Омодт Кильде Норвегия
14 Тед Лигети США
15 Тома Мермийо-Блонден Франция
16 Доминик Парис Италия
17 Давид Пуассон Франция
17 Вернер Хель Италия
19 Натко Зрнчич-Дим Хорватия
19 Жоан Кларе Франция
21 Георг Штрайтбергер Австрия
22 Карло Янка Швейцария
23 Трэвис Гэнонг США
24 Мануэль Осборн-Паради Канада
24 Ивица Костелич Хорватия
26 Павел Трихичев Россия
27 Бит Фойц Швейцария
28 Адам Зампа Словакия
29 Клемен Коси Словения
30 Дмитрий Кошкин Казахстан
31 Степан Зуев Россия
32 Хенрик фон Аппен Чили
33 Мартин Враблик Чехия
34 Марк Оливерас Андорра
35 Оливье Жено Монако
36 Андреас Зампа Словакия
37 Юрий Данилочкин Белоруссия
38 Мацей Бидлински Польша
39 Никола Чонгаров Болгария
40 Мартин Хубер Казахстан
41 Георги Георгиев Болгария
42 Матей Фалат Словакия
43 Мартин Бендик Словакия
44 Игорь Закурдаев Казахстан
45 Эугенио Кларо Чили
46 Кристоффер Форуп Дания
47 Кристиан Хавьер Симари Биркнер Аргентина
48 Марко Вукичевич Сербия
49 Хорхе Биркнер Кетельон Аргентина
50 Игорь Лайкерт Босния и Герцеговина
51 Костас Сикарас Греция
52 Дмитрий Мыцак Украина
Маттиас Майер Австрия
Эрик Гуэй Канада
Массимилиано Валькареджи Греция
Кристоф Иннерхофер Италия
Робертс Роде Латвия
Георг Линдер Молдавия
Арно Алессандрия Монако
Александр Глебов Россия
Пауль де ла Куэста Испания
Ферран Терра Испания
Дидье Дефаго Швейцария
Общее
Формат : AVI
Формат/Информация : Audio Video Interleave
Размер файла : 1,89 Гбайт
Продолжительность : 2 ч. 2 м.
Общий поток : 2201 Кбит/сек
Название фильма : XXII ЗОИ Сочи 2014 Горные лыжи (Горнолыжный спорт) Супер-гигант Мужчины (16.02.14) [R.G. DOCpiratTV]
Программа кодирования : VirtualDubMod 1.5.10.3 | www.virtualdub-fr.org || (build 2550/release)
Правообладатель : R.G. DOCpiratTV (UcrusPazzo)
Видео
Идентификатор : 0
Формат : MPEG-4 Visual
Профиль формата : Advanced Simple@L5
Параметр BVOP формата : 2
Параметр QPel формата : Нет
Параметр GMC формата : Без точки перехода
Параметр матрицы формата : Default (MPEG)
Идентификатор кодека : XVID
Идентификатор кодека/Подсказка : XviD
Продолжительность : 2 ч. 2 м.
Битрейт : 2000 Кбит/сек
Ширина : 720 пикселей
Высота : 400 пикселей
Соотношение сторон : 16:9
Частота кадров : 25,000 кадров/сек
Цветовое пространство : YUV
Субдискретизация насыщенности : 4:2:0
Битовая глубина : 8 бит
Тип развёртки : Прогрессивная
Метод сжатия : С потерями
Бит/(Пиксели*Кадры) : 0.278
Размер потока : 1,71 Гбайт (91%)
Библиотека кодирования : XviD 1.2.1 (UTC 2008-12-04)
Аудио
Идентификатор : 1
Формат : MPEG Audio
Версия формата : Version 1
Профиль формата : Layer 3
Идентификатор кодека : 55
Идентификатор кодека/Подсказка : MP3
Продолжительность : 2 ч. 2 м.
Вид битрейта : Постоянный
Битрейт : 192 Кбит/сек
Каналы : 2 канала
Частота : 48,0 КГц
Метод сжатия : С потерями
Размер потока : 168 Мбайт (9%)
Выравнивание : Соединение по промежуткам
Продолжительность промежутка : 40 мс. (1,00 видеокадр)
Время предзагрузки промежутка : 504 мс.
Библиотека кодирования : LAME3.99r
Настройки программы : -m s -V 4 -q 0 -lowpass 18.6 -b 192
Спасибо joedirt (с другого ресурса) за исходный материал
Download / Скачать

Хотите скачать бесплатно? Зарегистрируйтесь на сайте (ссылка на регистрацию). Pirat.ca - самый быстрый торрент трекер в рунете!

Как скачивать  ·   Что такое торрент  ·   Рейтинг и ограничения

Показать сообщения:    
Ответить на тему

Текущее время: Сегодня 06:21

Часовой пояс: GMT + 4



Вы не можете начинать темы
Вы не можете отвечать на сообщения
Вы не можете редактировать свои сообщения
Вы не можете удалять свои сообщения
Вы не можете голосовать в опросах
Вы не можете прикреплять файлы к сообщениям
Вы не можете скачивать файлы

Майнать ▼