ХХII Зимние Олимпийские Игры Сочи 2014 / Биатлон, Спринт 7,5 км / Женщины (Спорт 1 HD - Дмитрий Губерниев) [09.02.2014 г., HDTVRip, MKV, 720p, RU]

Ответить на тему
 
Автор
Сообщение

Пост 14-Фев-2014 19:57

[Q] 

UcrusPazzo

ХХII Зимние Олимпийские Игры Сочи 2014 /
Биатлон, Спринт 7,5 км / Женщины
Жаркие. Зимние. Твои.Официальный сайт "Сочи 2014" -Год выпуска: 09.02.2014 г.
Вид спорта: Биатлон, Спринт 7,5 км
Участники: Женщины
Продолжительность: 01:23:18
Комментатор: Дмитрий Губерниев
Язык комментариев: русский
Автор рипа / записи: Striker-ТВ Канал: -Арена: Лаура (Сочи, Россия) 09 февраля 2014 года, воскресенье. 18:30 МСК-Качество видео: HDTVRip
Контейнер: MKV
Видео кодек: H.264
Аудио кодек: AC3
Видео: 4418 Кбит/сек; 1280*720 (16:9); в 50,000 кадра/сек; AVC; 0.096 Бит/(Пиксели*Кадры)
Аудио: 192 Кбит/сек; 48,0 КГц; 16 бит; 2 каналоа; АС-3
Биатлон. Расписание и результаты. Скачать.
1 Анастасия Кузьмина Словакия
2 Ольга Вилухина Россия
3 Вита Семеренко Украина
4 Карин Оберхофер Италия
5 Анаи Бескон Франция
6 Доротея Вирер Италия
7 Вероника Новаковска-Земняк Польша
8 Элиза Гаспарин Швейцария
9 Дарья Домрачева Белоруссия
10 Тура Бергер Норвегия
11 Эви Захенбахер-Штеле Германия
12 Валентина Семеренко Украина
13 Селина Гаспарин Швейцария
14 Сюзан Данкли США
15 Тея Грегорин Словения
16 Вероника Виткова Чехия
17 Надежда Скардино Белоруссия
18 Тириль Экхофф Норвегия
19 Яна Романова Россия
20 Мари Дорен-Абер Франция
21 Моника Хойниш Польша
22 Андреа Хенкель Германия
22 Ева Тофалви Румыния
24 Анн-Кристин Офедт Флатланн Норвегия
25 Розанна Кроуфорд Канада
26 Елена Пидгрушная Украина
27 Лиза Тереза Хойзер Австрия
28 Ольга Зайцева Россия
29 Габриэла Соукалова Чехия
30 Кайса Мякяряйнен Финляндия
31 Меган Имри Канада
32 Зина Кохер Канада
33 Кристина Палка Польша
34 Анастасия Дуборезова Белоруссия
35 Сюннёве Сулемдаль Норвегия
36 Мари Лаукканен Финляндия
37 Людмила Калинчик Белоруссия
38 Микела Понца Италия
39 Фуюко Сузуки Япония
40 Магдалена Гвиздонь Польша
41 Франциска Пройс Германия
42 Юлия Джима Украина
43 Яна Герекова Словакия
44 Сара Студебейкер США
45 Ева Пускарчикова Чехия
46 Лаура Дальмайер Германия
47 Анаис Шевалье Франция
48 Йоханна Талихарм Эстония
49 Чжан Ян Китай
50 Йитка Ландова Чехия
51 Диана Расимовичюте Литва
52 Виктория Падьяль Эрнандес Испания
53 Аннализ Кук США
54 Николь Гонтье Италия
55 Тан Цзялинь Китай
56 Мари-Лор Брюне Франция
57 Елена Хрусталёва Казахстан
58 Дарья Усанова Казахстан
59 Меган Танди-Хайнике Канада
60 Екатерина Шумилова Россия
61 Десислава Стоянова Болгария
62 Мартина Храпанова Словакия
63 Сун Чаоцин Китай
64 Галина Вишневская Казахстан
65 Хана Дрейссигакер США
66 Лор Сулье Андорра
67 Дарья Юрлова Эстония
68 Юки Накадзима Япония
69 Кадри Лехтла Эстония
70 Эмёке Сёч Венгрия
71 Грете Гайм Эстония
72 Паулина Фиалкова Словакия
73 Марина Лебедева Казахстан
74 Мун Чи-Хи Южная Корея
75 Аманда Лайтфут Великобритания
76 Катарина Иннерхофер Австрия
77 Жаклин Моурао Бразилия
78 Таня Каришик Босния и Герцеговина
79 Жанна Юшкане Латвия
80 Рина Судзуки Япония
81 Мики Кобаяси Япония
82 Люси Глэнвилл Австралия
83 Сон На Китай
84 Александра Каменщик Молдавия
Общее
Уникальный идентификатор : 65278708138380558685892307253169248712 (0x311C38CCB2FFF182DD2F4E0F4AFC59C8)
Формат : Matroska
Версия формата : Version 2
Размер файла : 2,74 Гбайт
Продолжительность : 1 ч. 23 м.
Общий поток : 4704 Кбит/сек
Название фильма : Веб-камера, TV или другое видеоустройство
Программа кодирования : Lavf54.63.104
Библиотека кодирования : Lavf54.63.104
Видео
Идентификатор : 1
Формат : AVC
Формат/Информация : Advanced Video Codec
Профиль формата : [email protected]
Параметр CABAC формата : Нет
Параметр ReFrames формата : 1 кадр
Идентификатор кодека : V_MPEG4/ISO/AVC
Продолжительность : 1 ч. 23 м.
Битрейт : 4418 Кбит/сек
Ширина : 1280 пикселей
Высота : 720 пикселей
Соотношение сторон : 16:9
Режим частоты кадров : Постоянный
Частота кадров : 50,000 кадров/сек
Цветовое пространство : YUV
Субдискретизация насыщенности : 4:2:0
Битовая глубина : 8 бит
Тип развёртки : Прогрессивная
Бит/(Пиксели*Кадры) : 0.096
Размер потока : 2,57 Гбайт (94%)
Default : Да
Forced : Нет
Аудио
Идентификатор : 2
Формат : AC-3
Формат/Информация : Audio Coding 3
Расширение режима : CM (complete main)
Параметр Endianness формата : Big
Идентификатор кодека : A_AC3
Продолжительность : 1 ч. 23 м.
Вид битрейта : Постоянный
Битрейт : 192 Кбит/сек
Каналы : 2 канала
Расположение каналов : Front: L R
Частота : 48,0 КГц
Битовая глубина : 16 бит
Метод сжатия : С потерями
Размер потока : 114 Мбайт (4%)
Default : Да
Forced : Нет
Download / Скачать

Хотите скачать бесплатно? Зарегистрируйтесь на сайте (ссылка на регистрацию). Pirat.ca - самый быстрый торрент трекер в рунете!

Как скачивать  ·   Что такое торрент  ·   Рейтинг и ограничения

UcrusPazzo ®

7725

Пост 16-Фев-2014 17:26 (спустя 1 день 21 час)

[Q] 

Изменил торрент на более лучшее качество.
Я вот все-таки подумал... и решил что лучше 720р. Да, больше размер чуть, но зато приятно смотреть и слушать Дмитрия Губернева!
П.С. Постараюсь сделать все раздачи Олимпиады - хорошего качества. Не сильно большие, но 720 буду пытаться делать.

_________________
[Профиль]  [ЛС] 

[email protected]

Штурман

Пост 21-Мар-2014 12:38 (спустя 1 месяц 4 дня)

[Q] 

Домрачева, молодец! Лови бочку
[Профиль]  [ЛС] 
Показать сообщения:    
Ответить на тему

Текущее время: Сегодня 13:56

Часовой пояс: GMT + 4



Вы не можете начинать темы
Вы не можете отвечать на сообщения
Вы не можете редактировать свои сообщения
Вы не можете удалять свои сообщения
Вы не можете голосовать в опросах
Вы не можете прикреплять файлы к сообщениям
Вы не можете скачивать файлы

Майнать ▼