ХХII Зимние Олимпийские Игры Сочи 2014 / Хоккей на льду, Плей-офф, четвертьфинал (1/4 финала) / Мужчины / Швеция - Словения (Спорт 1 HD - Роман Скворцов, Сергей Гимаев) [19.02.2014 г., HDTVRip, MKV, 720p, RU]

Ответить на тему
 
Автор
Сообщение

Пост 20-Фев-2014 23:21

[Q] 

UcrusPazzo

Хоккей на льду, Плей-офф, четвертьфинал (1/4 финала) / Мужчины
Швеция - Словения
Жаркие. Зимние. Твои.Официальный сайт "Сочи 2014" -Год выпуска: 19.02.2014 г.
Вид спорта: Хоккей на льду
Участники: Швеция - Словения (Мужчины)
Продолжительность: 01:38:45
Комментатор: Роман Скворцов, Сергей Гимаев
Язык комментариев: русский
Автор рипа / записи: Striker-ТВ Канал: -Арена: Большой (Сочи, Россия) 19 февраля 2014 года, среда. 12:00 МСК-Качество видео: HDTVRip
Контейнер: MKV
Видео кодек: H.264
Аудио кодек: AC3
Видео: 4500 Кбит/сек; 1280*720 (16:9); в 50,000 кадра/сек; AVC; 0.096 Бит/(Пиксели*Кадры)
Аудио: 192 Кбит/сек; 48,0 КГц; 16 бит; 2 каналоа; АС-3
Хоккей на льду. Расписание и результаты. Скачать.
Швеция: Хенрик Лундквист (Юнас Энрот), Джонатан Эрикссон — Никлас Кронвалль — Даниэль Альфредссон — Патрик Берглунд — Александер Стин, Никлас Яльмарссон — Джонни Одуйя — Никлас Бекстрём — Луи Эрикссон — Даниэль Седин, Александер Эдлер — Эрик Карлссон — Якоб Сильверберг — Маркус Юханссон — Габриэль Ландеског, Оливер Экман-Ларссон — Маркус Крюгер — Густав Нюквист — Джимми Эрикссон — Карл Хагелин.
Главный тренер: Пер Мортс.-Словения: Роберт Кристан (Андрей Хочевар), Клемен Претнар — Алеш Краньц — Анже Копитар — Давид Родман — Ян Муршак, Митя Робар — Сабахудин Ковачевич — Жига Еглич — Рок Тичар — Роберт Саболич, Блаж Грегорц — Жига Павлин — Томаж Разингар — Марцел Родман — Ян Урбас, Андрей Тавжель — Матиц Подлипник — Алеш Мушич — Жига Панце — Боштьян Голичич.
Главный тренер: Матьяж Копитар.-Главный судья: Брэд Майер (США), Владимир Шиндлер (Чехия).
Общее
Уникальный идентификатор : 300495789376078688628263180054833382833 (0xE2116246C1CE5B03D107B1438D9FC5B1)
Формат : Matroska
Версия формата : Version 2
Размер файла : 3,15 Гбайт
Продолжительность : 1 ч. 38 м.
Режим общего битрейта : Постоянный
Общий поток : 4572 Кбит/сек
Дата кодирования : UTC 2014-02-19 23:29:43
Программа кодирования : TMPGEnc Video Mastering Works 5 Version. 5.0.6.38
Библиотека кодирования : TMPGEnc Video Mastering Works 5 Version. 5.0.6.38
Видео
Идентификатор : 2
Формат : AVC
Формат/Информация : Advanced Video Codec
Профиль формата : [email protected]
Параметр CABAC формата : Да
Параметр ReFrames формата : 4 кадра
Идентификатор кодека : V_MPEG4/ISO/AVC
Продолжительность : 1 ч. 38 м.
Вид битрейта : Постоянный
Битрейт : 4500 Кбит/сек / 4500 Кбит/сек
Ширина : 1280 пикселей
Высота : 720 пикселей
Соотношение сторон : 16:9
Режим частоты кадров : Постоянный
Частота кадров : 50,000 кадров/сек
Стандарт вещания : NTSC
Цветовое пространство : YUV
Субдискретизация насыщенности : 4:2:0
Битовая глубина : 8 бит
Тип развёртки : Прогрессивная
Бит/(Пиксели*Кадры) : 0.098
Размер потока : 2,96 Гбайт (94%)
Библиотека кодирования : x264 core 114
Настройки программы : cabac=1 / ref=4 / deblock=1:0:0 / analyse=0x3:0x113 / me=umh / subme=8 / psy=1 / psy_rd=1.00:0.00 / mixed_ref=1 / me_range=16 / chroma_me=1 / trellis=1 / 8x8dct=1 / cqm=2 / deadzone=21,11 / fast_pskip=1 / chroma_qp_offset=-2 / threads=12 / sliced_threads=0 / slices=1 / nr=0 / decimate=1 / interlaced=0 / constrained_intra=0 / bframes=4 / b_pyramid=0 / b_adapt=2 / b_bias=0 / direct=3 / weightb=1 / open_gop=0 / weightp=2 / keyint=250 / keyint_min=25 / scenecut=40 / intra_refresh=0 / rc_lookahead=50 / rc=cbr / mbtree=1 / bitrate=4500 / ratetol=1.0 / qcomp=0.60 / qpmin=3 / qpmax=69 / qpstep=4 / vbv_maxrate=4500 / vbv_bufsize=4489 / nal_hrd=cbr / ip_ratio=1.40 / aq=1:1.00
Default : Да
Forced : Нет
Основные цвета : BT.709
Характеристики трансфера : BT.709
Коэффициенты матрицы : BT.709
Аудио
Идентификатор : 1
Формат : AC-3
Формат/Информация : Audio Coding 3
Расширение режима : CM (complete main)
Параметр Endianness формата : Big
Идентификатор кодека : A_AC3
Продолжительность : 1 ч. 38 м.
Вид битрейта : Постоянный
Битрейт : 192 Кбит/сек
Каналы : 2 канала
Расположение каналов : Front: L R
Частота : 48,0 КГц
Битовая глубина : 16 бит
Метод сжатия : С потерями
Размер потока : 136 Мбайт (4%)
Default : Да
Forced : Нет
Download / Скачать

Хотите скачать бесплатно? Зарегистрируйтесь на сайте (ссылка на регистрацию). Pirat.ca - самый быстрый торрент трекер в рунете!

Как скачивать  ·   Что такое торрент  ·   Рейтинг и ограничения

M.Basler11

Пост 09-Апр-2014 14:23 (спустя 1 месяц 16 дней)

[Q] 

В avi можете сделать или подсказать каким конвертером переделать в ави?
[Профиль]  [ЛС] 

UcrusPazzo ®

7732

Пост 09-Апр-2014 18:17 (спустя 3 часа)

[Q] 

я знаю каким делать, и я бы все сделал в МКВ а не в ави, но долго делается ))

_________________
[Профиль]  [ЛС] 
Показать сообщения:    
Ответить на тему

Текущее время: Сегодня 17:42

Часовой пояс: GMT + 4



Вы не можете начинать темы
Вы не можете отвечать на сообщения
Вы не можете редактировать свои сообщения
Вы не можете удалять свои сообщения
Вы не можете голосовать в опросах
Вы не можете прикреплять файлы к сообщениям
Вы не можете скачивать файлы

Майнать ▼