КВН Сибирь 2011 / 1-й полуфинал [2011 г., Юмор, ТВ-шоу, IPTVRip]

Ответить на тему
 
Автор
Сообщение

Пост 12-Фев-2012 21:58

[Q] 

Андря

КВН Сибирь 2011 / 1-й полуфинал
Год выпуска: 2011
Продолжительность: 01:37:25
Жанр: Юмор, ТВ-шоу
Описание: 23 сентября 2011 года. Новосибирск. Центральная Лига Международного Союза КВН. КВН Сибирь. Первый полуфинал. ТВ трансляция "49 канал" (Новосибирск). Участвуют команды:
Сборная Восход - Новосибирск
Сборная Алтайского края - АлтГТУ, Барнаул
Евротур - Томск
Семена Моркови - Новосибирск
Сухой закон - Павлодар
Качество: IPTVRip
Формат: MKV
Видео кодек: H.264
Аудио кодек: MP3
Видео: AVC (h.264) 690x556 25.00 fps VBR ~ 1500 Kbps
Аудио: MPEG Audio Layer 3 44,1 KHz CBR 96 kbps 2 channels
1. Сборная Алтайского края, Барнаул - 20,6
2. "Сухой закон", Павлодар - 18,8
3. "Сборная Восхода", Новосибирск 18,23
4. "Евротур", - Томск 17,37
5. "Семена Моркови", Новосибирск - 15,93
Сборная Алтайского края и "Сухой закон" выходят в финал. "Сборная Восхода" отправляется в лист ожидания.
Общее
Уникальный идентификатор : 238664003200091024959266642517479499403 (0xB38D03D9BAC10D1E81FFD81E21FDA68B)
Полное имя : 2011_КВН_Сибирь_полуфинал1.mkv
Формат : Matroska
Версия формата : Version 2
Размер файла : 1,10 Гбайт
Продолжительность : 1 ч. 37 м.
Общий поток : 1609 Кбит/сек
Дата кодирования : UTC 2011-11-17 10:44:54
Программа кодирования : mkvmerge v3.2.0 ('Beginnings') built on Feb 12 2010 16:46:17
Библиотека кодирования : libebml v0.7.9 + libmatroska v0.8.1
Видео
Идентификатор : 1
Формат : AVC
Формат/Информация : Advanced Video Codec
Профиль формата : [email protected].0
Параметр CABAC формата : Да
Параметр ReFrames формата : 2 кадра
Идентификатор кодека : V_MPEG4/ISO/AVC
Продолжительность : 1 ч. 37 м.
Битрейт : 1500 Кбит/сек
Ширина : 690 пикселей
Высота : 556 пикселей
Соотношение сторон : 4:3
Режим частоты кадров : Переменный
Частота кадров : 25,000 кадров/сек
Цветовое пространство : YUV
Субдискретизация насыщенности : 4:2:0
Битовая глубина : 8 бит
Тип развёртки : Прогрессивная
Бит/(Пиксели*Кадры) : 0.156
Размер потока : 1,01 Гбайт (92%)
Библиотека кодирования : x264 core 116
Настройки программы : cabac=1 / ref=1 / deblock=1:0:0 / analyse=0x3:0x113 / me=hex / subme=7 / psy=1 / psy_rd=1.00:0.00 / mixed_ref=0 / me_range=16 / chroma_me=1 / trellis=1 / 8x8dct=1 / cqm=0 / deadzone=21,11 / fast_pskip=1 / chroma_qp_offset=0 / threads=2 / sliced_threads=0 / nr=0 / decimate=1 / interlaced=0 / bluray_compat=0 / constrained_intra=0 / bframes=1 / b_pyramid=0 / b_adapt=0 / b_bias=0 / direct=1 / weightb=1 / open_gop=0 / weightp=2 / keyint=250 / keyint_min=25 / scenecut=40 / intra_refresh=0 / rc_lookahead=40 / rc=abr / mbtree=1 / bitrate=1500 / ratetol=1.0 / qcomp=0.60 / qpmin=0 / qpmax=69 / qpstep=4 / ip_ratio=1.40 / aq=1:1.00
Default : Да
Forced : Нет
Аудио
Идентификатор : 2
Формат : MPEG Audio
Версия формата : Version 1
Профиль формата : Layer 3
Режим : Joint stereo
Расширение режима : MS Stereo
Идентификатор кодека : A_MPEG/L3
Идентификатор кодека/Подсказка : MP3
Продолжительность : 1 ч. 37 м.
Вид битрейта : Постоянный
Битрейт : 96,0 Кбит/сек
Каналы : 2 канала
Частота : 44,1 КГц
Метод сжатия : С потерями
Размер потока : 66,9 Мбайт (6%)
Библиотека кодирования : LAME3.98.4ЄЄЄЄЄЄ
Default : Да
Forced : Нет




Download / Скачать

Хотите скачать бесплатно? Зарегистрируйтесь на сайте (ссылка на регистрацию). Pirat.ca - самый быстрый торрент трекер в рунете!

Как скачивать  ·   Что такое торрент  ·   Рейтинг и ограничения

YuzyakAV

Пост 17-Апр-2014 17:21 (спустя 2 года 2 месяца)

[Q] 

Хорошая игра!
[Профиль]  [ЛС] 
Показать сообщения:    
Ответить на тему

Текущее время: Сегодня 23:20

Часовой пояс: GMT + 4



Вы не можете начинать темы
Вы не можете отвечать на сообщения
Вы не можете редактировать свои сообщения
Вы не можете удалять свои сообщения
Вы не можете голосовать в опросах
Вы не можете прикреплять файлы к сообщениям
Вы не можете скачивать файлы

Майнать ▼