(Hip-Hop) [CD] Tech N9ne - Strangeulation (Collabos) (Deluxe Edition) - 2014 [FLAC, tracks+.cue, lossless]

Ответить на тему
 
Автор
Сообщение

Пост 10-Май-2014 19:05

[Q] 

-B1ack-



Tech N9ne / Strangeulation (Collabos) (Deluxe Edition)


Год издания: 2014
Страна: USA
Жанр: Hip-Hop
Продолжительность: 01:17:39
Лейбл издания: Strange Music
Страна-выпуска диска: USA
Номер по каталогу: STGM425CD
Источник (релизер): killerguy5050 (What.cd)
Формат:

Битрейт аудио: lossless
Тип рипа: tracks+.cue
Наличие сканов в содержимом раздачи: нет


01. Strangeulation I
02. Hard (A Monster Made It) [feat. Murs]
03. Over It (feat. Ryan Bradley)
04. Make Waves (feat. Krizz Kaliko, Rittz & Tyler Lyon)
05. Nobody Cares (The Remix) [feat. Krizz Kaliko, Stevie Stone, Wrekonize, Bernz, Ubiquitous & Godemis]
06. Great Night (feat. Ces Cru)
07. Red Rags (feat. Big Scoob, Jay Rock & Kutt Calhoun)
08. Strangeulation II (feat. Stevie Stone, Murs, Brotha Lynch Hung & Godemis)
09. Which One (feat. Murs & Godemis)
10. American Horror Story (feat. Ces Cru)
11. Fear (feat. Mackenzie O'Guin)
12. Strangeulation III (feat. Bernz, Kutt Calhoun, Ubiquitous & Wrekonize)
13. Na na (feat. Stevie Stone & Rittz)
14. Stink (feat. Krizz Kaliko, Stevie Stone & Kendall Morgan)
15. The Calling (feat. Tyler Lyon)
16. Strangeulation IV (feat. Prozak, Big Scoob, Krizz Kaliko & Rittz)
17. We Are Free (feat. Bernz & Wrekonize)
18. Sut Mig (feat. Wrekonize) [Bonus Track]
19. SOTG Intro Remix (Bonus Track)
20. Straight Out the Gate (The Scott Stevens Remix) [feat. John 5, Krizz Kaliko & Serj Tankian] [Bonus Track]
21. Withdrawal (feat. Krizz Kaliko) [Bonus Track]

Exact Audio Copy V1.0 beta 3 from 29. August 2011
EAC extraction logfile from 6. May 2014, 16:42
Tech N9ne / Strangeulation - Deluxe
Used drive : TSSTcorpCDDVDW SH-222AL Adapter: 1 ID: 1
Read mode : Secure
Utilize accurate stream : Yes
Defeat audio cache : Yes
Make use of C2 pointers : No
Read offset correction : 6
Overread into Lead-In and Lead-Out : No
Fill up missing offset samples with silence : Yes
Delete leading and trailing silent blocks : No
Null samples used in CRC calculations : Yes
Used interface : Native Win32 interface for Win NT & 2000
Gap handling : Appended to previous track
Used output format : User Defined Encoder
Selected bitrate : 1024 kBit/s
Quality : High
Add ID3 tag : No
Command line compressor : C:\Program Files (x86)\Exact Audio Copy\Flac\flac.exe
Additional command line options : -8 -V -T "ARTIST=%artist%" -T "TITLE=%title%" -T "ALBUM=%albumtitle%" -T "DATE=%year%" -T "TRACKNUMBER=%tracknr%" -T "GENRE=%genre%" -T "PERFORMER=%albuminterpret%" -T "COMPOSER=%composer%" %haslyrics%--tag-from-file=LYRICS="%lyricsfile%"%haslyrics% -T "ALBUMARTIST=%albumartist%" -T "DISCNUMBER=%cdnumber%" -T "TOTALDISCS=%totalcds%" -T "TOTALTRACKS=%numtracks%" -T "COMMENT=%comment%" %source% -o %dest%
TOC of the extracted CD
Track | Start | Length | Start sector | End sector
---------------------------------------------------------
1 | 0:00.00 | 1:50.41 | 0 | 8290
2 | 1:50.41 | 3:57.46 | 8291 | 26111
3 | 5:48.12 | 4:28.24 | 26112 | 46235
4 | 10:16.36 | 4:55.35 | 46236 | 68395
5 | 15:11.71 | 4:59.23 | 68396 | 90843
6 | 20:11.19 | 3:32.56 | 90844 | 106799
7 | 23:44.00 | 3:56.63 | 106800 | 124562
8 | 27:40.63 | 3:06.53 | 124563 | 138565
9 | 30:47.41 | 2:56.74 | 138566 | 151839
10 | 33:44.40 | 4:09.20 | 151840 | 170534
11 | 37:53.60 | 4:25.61 | 170535 | 190470
12 | 42:19.46 | 3:39.27 | 190471 | 206922
13 | 45:58.73 | 4:08.66 | 206923 | 225588
14 | 50:07.64 | 3:59.70 | 225589 | 243583
15 | 54:07.59 | 4:18.36 | 243584 | 262969
16 | 58:26.20 | 3:14.11 | 262970 | 277530
17 | 61:40.31 | 4:30.46 | 277531 | 297826
18 | 66:11.02 | 3:23.66 | 297827 | 313117
19 | 69:34.68 | 0:22.46 | 313118 | 314813
20 | 69:57.39 | 3:44.16 | 314814 | 331629
21 | 73:41.55 | 3:58.01 | 331630 | 349480
Track 1
Filename C:\EAC Rips\Tech N9ne - Strangeulation (2014)[FLAC]\01 Strangeulation I.wav
Pre-gap length 0:00:02.00
Peak level 98.8 %
Extraction speed 1.4 X
Track quality 99.9 %
Test CRC 4E01B387
Copy CRC 4E01B387
Track not present in AccurateRip database
Copy OK
Track 2
Filename C:\EAC Rips\Tech N9ne - Strangeulation (2014)[FLAC]\02 Hard (A Monster Made It) [feat. Murs].wav
Peak level 98.8 %
Extraction speed 2.1 X
Track quality 100.0 %
Test CRC 0FDA7DE6
Copy CRC 0FDA7DE6
Track not present in AccurateRip database
Copy OK
Track 3
Filename C:\EAC Rips\Tech N9ne - Strangeulation (2014)[FLAC]\03 Over It (feat. Ryan Bradley).wav
Peak level 98.8 %
Extraction speed 2.1 X
Track quality 100.0 %
Test CRC 8BDF39AE
Copy CRC 8BDF39AE
Track not present in AccurateRip database
Copy OK
Track 4
Filename C:\EAC Rips\Tech N9ne - Strangeulation (2014)[FLAC]\04 Make Waves (feat. Krizz Kaliko, Rittz & Tyler Lyon).wav
Peak level 98.8 %
Extraction speed 1.9 X
Track quality 99.9 %
Test CRC 02BADFA4
Copy CRC 02BADFA4
Track not present in AccurateRip database
Copy OK
Track 5
Filename C:\EAC Rips\Tech N9ne - Strangeulation (2014)[FLAC]\05 Nobody Cares (The Remix) [feat. Krizz Kaliko, Stevie Stone, Wrekonize, Bernz, Ubiquitous & Godemis].wav
Peak level 98.8 %
Extraction speed 2.1 X
Track quality 100.0 %
Test CRC F210DE35
Copy CRC F210DE35
Track not present in AccurateRip database
Copy OK
Track 6
Filename C:\EAC Rips\Tech N9ne - Strangeulation (2014)[FLAC]\06 Great Night (feat. Ces Cru).wav
Peak level 98.8 %
Extraction speed 2.0 X
Track quality 100.0 %
Test CRC 446C1D22
Copy CRC 446C1D22
Track not present in AccurateRip database
Copy OK
Track 7
Filename C:\EAC Rips\Tech N9ne - Strangeulation (2014)[FLAC]\07 Red Rags (feat. Big Scoob, Jay Rock & Kutt Calhoun).wav
Peak level 98.8 %
Extraction speed 2.1 X
Track quality 100.0 %
Test CRC 1F6391CF
Copy CRC 1F6391CF
Track not present in AccurateRip database
Copy OK
Track 8
Filename C:\EAC Rips\Tech N9ne - Strangeulation (2014)[FLAC]\08 Strangeulation II (feat. Stevie Stone, Murs, Brotha Lynch Hung & Godemis).wav
Peak level 98.8 %
Extraction speed 2.0 X
Track quality 100.0 %
Test CRC 576D238F
Copy CRC 576D238F
Track not present in AccurateRip database
Copy OK
Track 9
Filename C:\EAC Rips\Tech N9ne - Strangeulation (2014)[FLAC]\09 Which One (feat. Murs & Godemis).wav
Peak level 100.0 %
Extraction speed 1.9 X
Track quality 100.0 %
Test CRC 66097D2B
Copy CRC 66097D2B
Track not present in AccurateRip database
Copy OK
Track 10
Filename C:\EAC Rips\Tech N9ne - Strangeulation (2014)[FLAC]\10 American Horror Story (feat. Ces Cru).wav
Peak level 98.8 %
Extraction speed 2.1 X
Track quality 100.0 %
Test CRC C059B400
Copy CRC C059B400
Track not present in AccurateRip database
Copy OK
Track 11
Filename C:\EAC Rips\Tech N9ne - Strangeulation (2014)[FLAC]\11 Fear (feat. Mackenzie O'Guin).wav
Peak level 98.8 %
Extraction speed 2.1 X
Track quality 100.0 %
Test CRC 1DC6CF19
Copy CRC 1DC6CF19
Track not present in AccurateRip database
Copy OK
Track 12
Filename C:\EAC Rips\Tech N9ne - Strangeulation (2014)[FLAC]\12 Strangeulation III (feat. Bernz, Kutt Calhoun, Ubiquitous & Wrekonize).wav
Peak level 98.9 %
Extraction speed 2.0 X
Track quality 100.0 %
Test CRC 21C78EBB
Copy CRC 21C78EBB
Track not present in AccurateRip database
Copy OK
Track 13
Filename C:\EAC Rips\Tech N9ne - Strangeulation (2014)[FLAC]\13 Na Na (feat. Stevie Stone & Rittz).wav
Peak level 98.8 %
Extraction speed 2.1 X
Track quality 100.0 %
Test CRC 55990C8D
Copy CRC 55990C8D
Track not present in AccurateRip database
Copy OK
Track 14
Filename C:\EAC Rips\Tech N9ne - Strangeulation (2014)[FLAC]\14 Stink (feat. Krizz Kaliko, Stevie Stone & Kendall Morgan).wav
Peak level 98.8 %
Extraction speed 2.0 X
Track quality 100.0 %
Test CRC 4AA10CF8
Copy CRC 4AA10CF8
Track not present in AccurateRip database
Copy OK
Track 15
Filename C:\EAC Rips\Tech N9ne - Strangeulation (2014)[FLAC]\15 The Calling (feat. Tyler Lyon).wav
Peak level 98.8 %
Extraction speed 2.1 X
Track quality 100.0 %
Test CRC 2F6521FD
Copy CRC 2F6521FD
Track not present in AccurateRip database
Copy OK
Track 16
Filename C:\EAC Rips\Tech N9ne - Strangeulation (2014)[FLAC]\16 Strangeulation IV (feat. Prozak, Big Scoob, Krizz Kaliko & Rittz).wav
Peak level 100.0 %
Extraction speed 2.0 X
Track quality 100.0 %
Test CRC 5BED031E
Copy CRC 5BED031E
Track not present in AccurateRip database
Copy OK
Track 17
Filename C:\EAC Rips\Tech N9ne - Strangeulation (2014)[FLAC]\17 We Are Free (feat. Bernz & Wrekonize).wav
Peak level 98.8 %
Extraction speed 2.1 X
Track quality 100.0 %
Test CRC D1016832
Copy CRC D1016832
Track not present in AccurateRip database
Copy OK
Track 18
Filename C:\EAC Rips\Tech N9ne - Strangeulation (2014)[FLAC]\18 Sut Mig (feat. Wrekonize) [Bonus Track].wav
Peak level 98.8 %
Extraction speed 2.0 X
Track quality 100.0 %
Test CRC CAE6461F
Copy CRC CAE6461F
Track not present in AccurateRip database
Copy OK
Track 19
Filename C:\EAC Rips\Tech N9ne - Strangeulation (2014)[FLAC]\19 SOTG Remix Intro (Bonus Track).wav
Peak level 79.5 %
Extraction speed 0.8 X
Track quality 100.0 %
Test CRC 3747F986
Copy CRC 3747F986
Track not present in AccurateRip database
Copy OK
Track 20
Filename C:\EAC Rips\Tech N9ne - Strangeulation (2014)[FLAC]\20 Straight Out the Gate (The Scott Stevens Remix) [feat. John 5, Krizz Kaliko & Serj Tankian] [Bonus Track].wav
Peak level 100.0 %
Extraction speed 2.0 X
Track quality 100.0 %
Test CRC 1383B3D4
Copy CRC 1383B3D4
Track not present in AccurateRip database
Copy OK
Track 21
Filename C:\EAC Rips\Tech N9ne - Strangeulation (2014)[FLAC]\21 Withdrawal (feat. Krizz Kaliko) [Bonus Track].wav
Peak level 98.8 %
Extraction speed 2.0 X
Track quality 100.0 %
Test CRC 7B1B8EEE
Copy CRC 7B1B8EEE
Track not present in AccurateRip database
Copy OK
None of the tracks are present in the AccurateRip database
No errors occurred
End of status report
---- CUETools DB Plugin V2.1.3
[CTDB TOCID: mCPI4Ylii9AWvFp3e6u8g5QfO28-] found, Submit result: already submitted
[4e76e127] (2/2) Accurately ripped
==== Log checksum 772DEC0ED16AAB18C63A1F18AD0260377F49A535010280996129FF16BC163F52 ====
REM GENRE "Rap & Hip-Hop"
REM DATE 2014
REM DISCID 1F123315
REM COMMENT "ExactAudioCopy v1.0b3"
PERFORMER "Tech N9ne"
TITLE "Strangeulation - Deluxe"
FILE "01 Strangeulation I.wav" WAVE
TRACK 01 AUDIO
TITLE "Strangeulation I"
PERFORMER "Tech N9ne"
ISRC USQY51441802
INDEX 01 00:00:00
FILE "02 Hard (A Monster Made It) [feat. Murs].wav" WAVE
TRACK 02 AUDIO
TITLE "Hard (A Monster Made It) [feat. Murs]"
PERFORMER "Tech N9ne"
ISRC USQY51441802
INDEX 01 00:00:00
FILE "03 Over It (feat. Ryan Bradley).wav" WAVE
TRACK 03 AUDIO
TITLE "Over It (feat. Ryan Bradley)"
PERFORMER "Tech N9ne"
ISRC USQY51441803
INDEX 01 00:00:00
FILE "04 Make Waves (feat. Krizz Kaliko, Rittz & Tyler Lyon).wav" WAVE
TRACK 04 AUDIO
TITLE "Make Waves (feat. Krizz Kaliko, Rittz & Tyler Lyon)"
PERFORMER "Tech N9ne"
ISRC USQY51441804
INDEX 01 00:00:00
FILE "05 Nobody Cares (The Remix) [feat. Krizz Kaliko, Stevie Stone, Wrekonize, Bernz, Ubiquitous & Godemis].wav" WAVE
TRACK 05 AUDIO
TITLE "Nobody Cares (The Remix) [feat. Krizz Kaliko, Stevie Stone, Wrekonize, Bernz,..."
PERFORMER "Tech N9ne"
ISRC USQY51441805
INDEX 01 00:00:00
FILE "06 Great Night (feat. Ces Cru).wav" WAVE
TRACK 06 AUDIO
TITLE "Great Night (feat. Ces Cru)"
PERFORMER "Tech N9ne"
ISRC USQY51441806
INDEX 01 00:00:00
FILE "07 Red Rags (feat. Big Scoob, Jay Rock & Kutt Calhoun).wav" WAVE
TRACK 07 AUDIO
TITLE "Red Rags (feat. Big Scoob, Jay Rock & Kutt Calhoun)"
PERFORMER "Tech N9ne"
ISRC USQY51441807
INDEX 01 00:00:00
FILE "08 Strangeulation II (feat. Stevie Stone, Murs, Brotha Lynch Hung & Godemis).wav" WAVE
TRACK 08 AUDIO
TITLE "Strangeulation II (feat. Stevie Stone, Murs, Brotha Lynch Hung & Godemis)"
PERFORMER "Tech N9ne"
ISRC USQY51441808
INDEX 01 00:00:00
FILE "09 Which One (feat. Murs & Godemis).wav" WAVE
TRACK 09 AUDIO
TITLE "Which One (feat. Murs & Godemis)"
PERFORMER "Tech N9ne"
ISRC USQY51441809
INDEX 01 00:00:00
FILE "10 American Horror Story (feat. Ces Cru).wav" WAVE
TRACK 10 AUDIO
TITLE "American Horror Story (feat. Ces Cru)"
PERFORMER "Tech N9ne"
ISRC USQY51441810
INDEX 01 00:00:00
FILE "11 Fear (feat. Mackenzie O'Guin).wav" WAVE
TRACK 11 AUDIO
TITLE "Fear (feat. Mackenzie O'Guin)"
PERFORMER "Tech N9ne"
ISRC USQY51441811
INDEX 01 00:00:00
FILE "12 Strangeulation III (feat. Bernz, Kutt Calhoun, Ubiquitous & Wrekonize).wav" WAVE
TRACK 12 AUDIO
TITLE "Strangeulation III (feat. Bernz, Kutt Calhoun, Ubiquitous & Wrekonize)"
PERFORMER "Tech N9ne"
ISRC USQY51441812
INDEX 01 00:00:00
FILE "13 Na Na (feat. Stevie Stone & Rittz).wav" WAVE
TRACK 13 AUDIO
TITLE "Na Na (feat. Stevie Stone & Rittz)"
PERFORMER "Tech N9ne"
ISRC USQY51441813
INDEX 01 00:00:00
FILE "14 Stink (feat. Krizz Kaliko, Stevie Stone & Kendall Morgan).wav" WAVE
TRACK 14 AUDIO
TITLE "Stink (feat. Krizz Kaliko, Stevie Stone & Kendall Morgan)"
PERFORMER "Tech N9ne"
ISRC USQY51441814
INDEX 01 00:00:00
FILE "15 The Calling (feat. Tyler Lyon).wav" WAVE
TRACK 15 AUDIO
TITLE "The Calling (feat. Tyler Lyon)"
PERFORMER "Tech N9ne"
ISRC USQY51441815
INDEX 01 00:00:00
FILE "16 Strangeulation IV (feat. Prozak, Big Scoob, Krizz Kaliko & Rittz).wav" WAVE
TRACK 16 AUDIO
TITLE "Strangeulation IV (feat. Prozak, Big Scoob, Krizz Kaliko & Rittz)"
PERFORMER "Tech N9ne"
ISRC USQY51441816
INDEX 01 00:00:00
FILE "17 We Are Free (feat. Bernz & Wrekonize).wav" WAVE
TRACK 17 AUDIO
TITLE "We Are Free (feat. Bernz & Wrekonize)"
PERFORMER "Tech N9ne"
ISRC USQY51441817
INDEX 01 00:00:00
FILE "18 Sut Mig (feat. Wrekonize) [Bonus Track].wav" WAVE
TRACK 18 AUDIO
TITLE "Sut Mig (feat. Wrekonize) [Bonus Track]"
PERFORMER "Tech N9ne"
ISRC USQY51441818
INDEX 01 00:00:00
FILE "19 SOTG Remix Intro (Bonus Track).wav" WAVE
TRACK 19 AUDIO
TITLE "SOTG Remix Intro (Bonus Track)"
PERFORMER "Tech N9ne"
ISRC USQY51441820
INDEX 01 00:00:00
FILE "20 Straight Out the Gate (The Scott Stevens Remix) [feat. John 5, Krizz Kaliko & Serj Tankian] [Bonus Track].wav" WAVE
TRACK 20 AUDIO
TITLE "Straight Out the Gate (The Scott Stevens Remix) [feat. John 5, Krizz Kaliko &..."
PERFORMER "Tech N9ne"
ISRC USQY51441821
INDEX 01 00:00:00
FILE "21 Withdrawal (feat. Krizz Kaliko) [Bonus Track].wav" WAVE
TRACK 21 AUDIO
TITLE "Withdrawal (feat. Krizz Kaliko) [Bonus Track]"
PERFORMER "Tech N9ne"
ISRC USQY51441821
INDEX 01 00:00:00
Download / Скачать

Хотите скачать бесплатно? Зарегистрируйтесь на сайте (ссылка на регистрацию). Pirat.ca - самый быстрый торрент трекер в рунете!

Как скачивать  ·   Что такое торрент  ·   Рейтинг и ограничения

Показать сообщения:    
Ответить на тему

Текущее время: Сегодня 13:47

Часовой пояс: GMT + 4



Вы не можете начинать темы
Вы не можете отвечать на сообщения
Вы не можете редактировать свои сообщения
Вы не можете удалять свои сообщения
Вы не можете голосовать в опросах
Вы не можете прикреплять файлы к сообщениям
Вы не можете скачивать файлы

Майнать ▼