(Hip-Hop) Schoolboy Q - Oxymoron [Target Deluxe Edition] - 2014 [FLAC, tracks+.cue, lossless]

Ответить на тему
 
Автор
Сообщение

Пост 14-Май-2014 18:11

[Q] 

-B1ack-



Schoolboy Q / Oxymoron [Target Deluxe Edition]


Год издания: 2014
Страна: USA
Жанр: Hip-Hop
Продолжительность: 01:17:57
Лейбл издания: Interscope/TDE
Источник (релизер): riku2k13 [what.cd]
Формат:

Битрейт аудио: lossless
Тип рипа: tracks+.cue
Наличие сканов в содержимом раздачи: да



01. Gangsta
02. Los Awesome (feat. Jay Rock)
03. Collard Greens (feat. Kendrick Lamar)
04. What They Want (feat. 2 Chainz)
05. Hoover Street
06. Studio (feat. BJ The Chicago Kid)
07. Prescription/Oxymoron
08. The Purge (feat. Tyler, The Creator & Kurupt)
09. Blind Threats (feat. Raekwon)
10. Hell of A Night
11. Break The Bank
12. Man Of The Year
13. His & Her Fiend (feat. SZA)
14. Grooveline Pt. 2 (feat. Suga Free)
15. Fuck LA
16. Pusha Man
17. Californication (feat. A$AP Rocky)

Exact Audio Copy V1.0 beta 3 from 29. August 2011
EAC extraction logfile from 26. February 2014, 16:52
ScHoolboy Q / Oxymoron (Target Deluxe Edition)
Used drive : ATAPI iHAS124 W Adapter: 0 ID: 0
Read mode : Secure
Utilize accurate stream : Yes
Defeat audio cache : Yes
Make use of C2 pointers : No
Read offset correction : 48
Overread into Lead-In and Lead-Out : No
Fill up missing offset samples with silence : Yes
Delete leading and trailing silent blocks : No
Null samples used in CRC calculations : Yes
Used interface : Native Win32 interface for Win NT & 2000
Gap handling : Appended to previous track
Used output format : User Defined Encoder
Selected bitrate : 896 kBit/s
Quality : High
Add ID3 tag : No
Command line compressor : C:\Program Files (x86)\Exact Audio Copy\Flac\flac.exe
Additional command line options : -8 -V -T "ARTIST=%artist%" -T "TITLE=%title%" -T "ALBUM=%albumtitle%" -T "DATE=%year%" -T "TRACKNUMBER=%tracknr%" -T "GENRE=%genre%" -T "PERFORMER=%albuminterpret%" -T "COMPOSER=%composer%" %haslyrics%--tag-from-file=LYRICS="%lyricsfile%"%haslyrics% -T "ALBUMARTIST=%albumartist%" -T "ALBUM ARTIST=%albumartist%" -T "DISCNUMBER=%cdnumber%" -T "TOTALDISCS=%totalcds%" -T "TOTALTRACKS=%numtracks%" -T "COMMENT=EAC V1.0 beta 2, Secure Mode, Test & Copy, AccurateRip, FLAC -8" %source% -o %dest%
TOC of the extracted CD
Track | Start | Length | Start sector | End sector
---------------------------------------------------------
1 | 0:00.00 | 3:51.58 | 0 | 17382
2 | 3:51.58 | 4:12.63 | 17383 | 36345
3 | 8:04.46 | 4:59.72 | 36346 | 58842
4 | 13:04.43 | 4:27.15 | 58843 | 78882
5 | 17:31.58 | 6:36.28 | 78883 | 108610
6 | 24:08.11 | 4:38.05 | 108611 | 129465
7 | 28:46.16 | 7:09.50 | 129466 | 161690
8 | 35:55.66 | 4:54.04 | 161691 | 183744
9 | 40:49.70 | 4:29.49 | 183745 | 203968
10 | 45:19.44 | 4:32.34 | 203969 | 224402
11 | 49:52.03 | 5:54.64 | 224403 | 251016
12 | 55:46.67 | 3:36.01 | 251017 | 267217
13 | 59:22.68 | 2:55.25 | 267218 | 280367
14 | 62:18.18 | 4:18.28 | 280368 | 299745
15 | 66:36.46 | 3:20.45 | 299746 | 314790
16 | 69:57.16 | 1:43.05 | 314791 | 322520
17 | 71:40.21 | 6:17.11 | 322521 | 350806
Track 1
Filename C:\Users\Ryan\Desktop\ScHoolboy Q - Oxymoron (Target Deluxe Edition)\ScHoolboy Q - Oxymoron (Target Deluxe Edition) (FLAC)\01 Gangsta.wav
Pre-gap length 0:00:02.00
Peak level 98.8 %
Extraction speed 4.9 X
Track quality 100.0 %
Test CRC 287B7AB0
Copy CRC 287B7AB0
Track not present in AccurateRip database
Copy OK
Track 2
Filename C:\Users\Ryan\Desktop\ScHoolboy Q - Oxymoron (Target Deluxe Edition)\ScHoolboy Q - Oxymoron (Target Deluxe Edition) (FLAC)\02 Los Awesome (feat. Jay Rock).wav
Peak level 98.8 %
Extraction speed 5.5 X
Track quality 100.0 %
Test CRC 3B9E1D18
Copy CRC 3B9E1D18
Track not present in AccurateRip database
Copy OK
Track 3
Filename C:\Users\Ryan\Desktop\ScHoolboy Q - Oxymoron (Target Deluxe Edition)\ScHoolboy Q - Oxymoron (Target Deluxe Edition) (FLAC)\03 Collard Greens (feat. Kendrick Lamar).wav
Peak level 98.8 %
Extraction speed 6.1 X
Track quality 100.0 %
Test CRC B80FA66E
Copy CRC B80FA66E
Track not present in AccurateRip database
Copy OK
Track 4
Filename C:\Users\Ryan\Desktop\ScHoolboy Q - Oxymoron (Target Deluxe Edition)\ScHoolboy Q - Oxymoron (Target Deluxe Edition) (FLAC)\04 What They Want (feat. 2 Chainz).wav
Peak level 98.8 %
Extraction speed 6.4 X
Track quality 100.0 %
Test CRC A0414B60
Copy CRC A0414B60
Track not present in AccurateRip database
Copy OK
Track 5
Filename C:\Users\Ryan\Desktop\ScHoolboy Q - Oxymoron (Target Deluxe Edition)\ScHoolboy Q - Oxymoron (Target Deluxe Edition) (FLAC)\05 Hoover Street.wav
Peak level 98.8 %
Extraction speed 5.7 X
Track quality 99.9 %
Test CRC 80944913
Copy CRC 80944913
Track not present in AccurateRip database
Copy OK
Track 6
Filename C:\Users\Ryan\Desktop\ScHoolboy Q - Oxymoron (Target Deluxe Edition)\ScHoolboy Q - Oxymoron (Target Deluxe Edition) (FLAC)\06 Studio (feat. BJ The Chicago Kid).wav
Peak level 98.8 %
Extraction speed 7.4 X
Track quality 100.0 %
Test CRC 4D99208E
Copy CRC 4D99208E
Track not present in AccurateRip database
Copy OK
Track 7
Filename C:\Users\Ryan\Desktop\ScHoolboy Q - Oxymoron (Target Deluxe Edition)\ScHoolboy Q - Oxymoron (Target Deluxe Edition) (FLAC)\07 Prescription,Oxymoron.wav
Peak level 98.8 %
Extraction speed 8.2 X
Track quality 100.0 %
Test CRC 72EBFB34
Copy CRC 72EBFB34
Track not present in AccurateRip database
Copy OK
Track 8
Filename C:\Users\Ryan\Desktop\ScHoolboy Q - Oxymoron (Target Deluxe Edition)\ScHoolboy Q - Oxymoron (Target Deluxe Edition) (FLAC)\08 The Purge (feat. Tyler, The Creator & Kurupt).wav
Peak level 98.8 %
Extraction speed 8.3 X
Track quality 100.0 %
Test CRC E8781B67
Copy CRC E8781B67
Track not present in AccurateRip database
Copy OK
Track 9
Filename C:\Users\Ryan\Desktop\ScHoolboy Q - Oxymoron (Target Deluxe Edition)\ScHoolboy Q - Oxymoron (Target Deluxe Edition) (FLAC)\09 Blind Threats (feat. Raekwon).wav
Peak level 98.8 %
Extraction speed 8.5 X
Track quality 100.0 %
Test CRC 34C2715F
Copy CRC 34C2715F
Track not present in AccurateRip database
Copy OK
Track 10
Filename C:\Users\Ryan\Desktop\ScHoolboy Q - Oxymoron (Target Deluxe Edition)\ScHoolboy Q - Oxymoron (Target Deluxe Edition) (FLAC)\10 Hell of a Night.wav
Peak level 98.8 %
Extraction speed 8.9 X
Track quality 100.0 %
Test CRC A43F363D
Copy CRC A43F363D
Track not present in AccurateRip database
Copy OK
Track 11
Filename C:\Users\Ryan\Desktop\ScHoolboy Q - Oxymoron (Target Deluxe Edition)\ScHoolboy Q - Oxymoron (Target Deluxe Edition) (FLAC)\11 Break the Bank.wav
Peak level 98.8 %
Extraction speed 9.4 X
Track quality 100.0 %
Test CRC A00ACD20
Copy CRC A00ACD20
Track not present in AccurateRip database
Copy OK
Track 12
Filename C:\Users\Ryan\Desktop\ScHoolboy Q - Oxymoron (Target Deluxe Edition)\ScHoolboy Q - Oxymoron (Target Deluxe Edition) (FLAC)\12 Man of the Year.wav
Peak level 98.8 %
Extraction speed 9.0 X
Track quality 100.0 %
Test CRC 0716F46A
Copy CRC 0716F46A
Track not present in AccurateRip database
Copy OK
Track 13
Filename C:\Users\Ryan\Desktop\ScHoolboy Q - Oxymoron (Target Deluxe Edition)\ScHoolboy Q - Oxymoron (Target Deluxe Edition) (FLAC)\13 His & Her Fiend (feat. SZA).wav
Peak level 98.5 %
Extraction speed 8.9 X
Track quality 100.0 %
Test CRC DC701A07
Copy CRC DC701A07
Track not present in AccurateRip database
Copy OK
Track 14
Filename C:\Users\Ryan\Desktop\ScHoolboy Q - Oxymoron (Target Deluxe Edition)\ScHoolboy Q - Oxymoron (Target Deluxe Edition) (FLAC)\14 Grooveline Pt. 2 (feat. Suga Free).wav
Peak level 98.8 %
Extraction speed 9.7 X
Track quality 100.0 %
Test CRC F8FEACE8
Copy CRC F8FEACE8
Track not present in AccurateRip database
Copy OK
Track 15
Filename C:\Users\Ryan\Desktop\ScHoolboy Q - Oxymoron (Target Deluxe Edition)\ScHoolboy Q - Oxymoron (Target Deluxe Edition) (FLAC)\15 Fuck LA.wav
Peak level 98.8 %
Extraction speed 9.5 X
Track quality 100.0 %
Test CRC 94F99EEC
Copy CRC 94F99EEC
Track not present in AccurateRip database
Copy OK
Track 16
Filename C:\Users\Ryan\Desktop\ScHoolboy Q - Oxymoron (Target Deluxe Edition)\ScHoolboy Q - Oxymoron (Target Deluxe Edition) (FLAC)\16 Pusha Man.wav
Peak level 98.8 %
Extraction speed 8.3 X
Track quality 100.0 %
Test CRC 3C4916D0
Copy CRC 3C4916D0
Track not present in AccurateRip database
Copy OK
Track 17
Filename C:\Users\Ryan\Desktop\ScHoolboy Q - Oxymoron (Target Deluxe Edition)\ScHoolboy Q - Oxymoron (Target Deluxe Edition) (FLAC)\17 Californication (feat. A$AP Rocky).wav
Peak level 98.8 %
Extraction speed 8.2 X
Track quality 99.9 %
Test CRC 92BA072E
Copy CRC 92BA072E
Track not present in AccurateRip database
Copy OK
None of the tracks are present in the AccurateRip database
No errors occurred
End of status report
---- CUETools DB Plugin V2.1.3
[CTDB TOCID: S4NdLOg75bOni.bIV0Oq6_1r_6Y-] found, Submit result: S4NdLOg75bOni.bIV0Oq6_1r_6Y- has been confirmed
[4f9eaab2] (4/4) Accurately ripped
==== Log checksum B6441E9B8424E6E570645F10616422FD8267551C4634721F42A5010D18AE99C6 ====
REM GENRE Hip-Hop
REM DATE 2014
REM DISCID 05124511
REM COMMENT "ExactAudioCopy v1.0b3"
CATALOG 0602537727674
PERFORMER "ScHoolboy Q"
TITLE "Oxymoron (Target Deluxe Edition)"
FILE "01. Gangsta.wav" WAVE
TRACK 01 AUDIO
TITLE "Gangsta"
PERFORMER "ScHoolboy Q"
ISRC USUM71400285
INDEX 01 00:00:00
FILE "02. Los Awesome (feat. Jay Rock).wav" WAVE
TRACK 02 AUDIO
TITLE "Los Awesome (feat. Jay Rock)"
PERFORMER "ScHoolboy Q"
ISRC USUM71400309
INDEX 01 00:00:00
FILE "03. Collard Greens (feat. Kendrick Lamar).wav" WAVE
TRACK 03 AUDIO
TITLE "Collard Greens (feat. Kendrick Lamar)"
PERFORMER "ScHoolboy Q"
ISRC USUM71307354
INDEX 01 00:00:00
FILE "04. What They Want (feat. 2 Chainz).wav" WAVE
TRACK 04 AUDIO
TITLE "What They Want (feat. 2 Chainz)"
PERFORMER "ScHoolboy Q"
ISRC USUM71400321
INDEX 01 00:00:00
FILE "05. Hoover Street.wav" WAVE
TRACK 05 AUDIO
TITLE "Hoover Street"
PERFORMER "ScHoolboy Q"
ISRC USUM71400322
INDEX 01 00:00:00
FILE "06. Studio (feat. BJ The Chicago Kid).wav" WAVE
TRACK 06 AUDIO
TITLE "Studio (feat. BJ The Chicago Kid)"
PERFORMER "ScHoolboy Q"
ISRC USUM71400323
INDEX 01 00:00:00
FILE "07. Prescription,Oxymoron.wav" WAVE
TRACK 07 AUDIO
TITLE "Prescription/Oxymoron"
PERFORMER "ScHoolboy Q"
ISRC USUM71400324
INDEX 01 00:00:00
FILE "08. The Purge (feat. Tyler, The Creator & Kurupt).wav" WAVE
TRACK 08 AUDIO
TITLE "The Purge (feat. Tyler, The Creator & Kurupt)"
PERFORMER "ScHoolboy Q"
ISRC USUM71400327
INDEX 01 00:00:00
FILE "09. Blind Threats (feat. Raekwon).wav" WAVE
TRACK 09 AUDIO
TITLE "Blind Threats (feat. Raekwon)"
PERFORMER "ScHoolboy Q"
ISRC USUM71400311
INDEX 01 00:00:00
FILE "10. Hell of a Night.wav" WAVE
TRACK 10 AUDIO
TITLE "Hell of a Night"
PERFORMER "ScHoolboy Q"
ISRC USUM71400313
INDEX 01 00:00:00
FILE "11. Break the Bank.wav" WAVE
TRACK 11 AUDIO
TITLE "Break the Bank"
PERFORMER "ScHoolboy Q"
ISRC USUM71400315
INDEX 01 00:00:00
FILE "12. Man of the Year.wav" WAVE
TRACK 12 AUDIO
TITLE "Man of the Year"
PERFORMER "ScHoolboy Q"
ISRC USUM71314029
INDEX 01 00:00:00
FILE "13. His & Her Fiend (feat. SZA).wav" WAVE
TRACK 13 AUDIO
TITLE "His & Her Fiend (feat. SZA)"
PERFORMER "ScHoolboy Q"
ISRC USUM71400316
INDEX 01 00:00:00
FILE "14. Grooveline Pt. 2 (feat. Suga Free).wav" WAVE
TRACK 14 AUDIO
TITLE "Grooveline Pt. 2 (feat. Suga Free)"
PERFORMER "ScHoolboy Q"
ISRC USUM71400318
INDEX 01 00:00:00
FILE "15. Fuck LA.wav" WAVE
TRACK 15 AUDIO
TITLE "Fuck LA"
PERFORMER "ScHoolboy Q"
ISRC USUM71400320
INDEX 01 00:00:00
FILE "16. Pusha Man.wav" WAVE
TRACK 16 AUDIO
TITLE "Pusha Man"
PERFORMER "ScHoolboy Q"
ISRC USUM71401300
INDEX 01 00:00:00
FILE "17. Californication (feat. A$AP Rocky).wav" WAVE
TRACK 17 AUDIO
TITLE "Californication (feat. A$AP Rocky)"
PERFORMER "ScHoolboy Q"
ISRC USUM71401302
INDEX 01 00:00:00
Download / Скачать

Хотите скачать бесплатно? Зарегистрируйтесь на сайте (ссылка на регистрацию). Pirat.ca - самый быстрый торрент трекер в рунете!

Как скачивать  ·   Что такое торрент  ·   Рейтинг и ограничения



Последний раз редактировалось: -B1ack- (2014-05-14 21:16), всего редактировалось 2 раз(а)

Tosha

Флибустьер

111

Пост 14-Май-2014 20:36 (спустя 2 часа 25 минут)

[Q] 

Очень красиво оформил Лови бочку

_________________
Выполняем ремонт любой сложности!
Бытовая техника, мясорубки, кофе-машины, парогенераторы, РЕМОНТ КОМПЬЮТЕРОВ И НОУТБУКОВ
ООО "Гарант" http://GARANTREM.RU ключ на XPsp3
RH
GJC-9CPJC-8M8F6-KYXCP-FRGC6
[Профиль]  [ЛС] 

-B1ack- ®

1906

Пост 14-Май-2014 20:38 (спустя 2 минуты)

[Q] 

534860Очень красиво оформил Лови бочку
рад что понравилось ... спасибо за ром и приятного прослушивания 28

_________________
[Профиль]  [ЛС] 

Ворон

16897

Пост 14-Май-2014 20:43 (спустя 4 минуты)

[Q] 

Блеки, он такой, всегда красочно и от души)))) Ня! Лови бочку

_________________
Временно меня не будет на раздаче в связи с переездом на новое место. Заранее извиняюсь. Если уж кому надо будет скачать, пишите в ЛС, что нибудь придумаю. Раздача с 1:00-7:00
[Профиль]  [ЛС] 

-B1ack- ®

1906

Пост 14-Май-2014 20:46 (спустя 3 минуты)

[Q] 

534868Блеки, он такой, всегда красочно и от души))))
эээ ... спасибо за отзыв 32 стараемся понемножку az

_________________
[Профиль]  [ЛС] 
Показать сообщения:    
Ответить на тему

Текущее время: Сегодня 13:20

Часовой пояс: GMT + 4



Вы не можете начинать темы
Вы не можете отвечать на сообщения
Вы не можете редактировать свои сообщения
Вы не можете удалять свои сообщения
Вы не можете голосовать в опросах
Вы не можете прикреплять файлы к сообщениям
Вы не можете скачивать файлы

Майнать ▼