(R'n'B, Soul, hip hop) Iyeoka - Say Yes - 2010 [FLAC, tracks+.cue, lossless]

Ответить на тему
 
Автор
Сообщение

Пост 19-Май-2014 01:16

[Q] 

Koralina

Iyeoka / Say Yes Год издания: 2010
Страна: USA
Жанр: R'n'B, Soul, hip hop
Продолжительность: 00:39:05
Страна-выпуска диска: USA
Источник (релизер): Koralina
Формат: FLAC
Битрейт аудио: lossless
Тип рипа: tracks+.cue
Наличие сканов в содержимом раздачи: нет
01. The Yellow Brick Road Song (3:40)
02. Say Yes (3:24)
03. This Time Around (3:28)
04. Breakdown Mode (3:03)
05. Millionaire (4:01)
06. Simply Falling (3:58)
07. Testify (3:40)
08. I Travel Home (3:36)
09. Happily Ever After (3:42)
10. I Am Descending (4:03)
11. My Current Anthem (2:26)
Код:
X Lossless Decoder version 20110515 (133.1)
XLD extraction logfile from 2011-05-27 13:27:16 -0700
Iyeoka / Say Yes
Used drive : OPTIARC DVD RW AD-5680H (revision 3AHB)
Ripper mode             : CDParanoia III 10.2
Disable audio cache     : OK for the drive with a cache less than 2750KiB
Make use of C2 pointers : NO
Read offset correction  : 48
Max retry count         : 100
Gap status              : Analyzed, Appended
TOC of the extracted CD
     Track |   Start  |  Length  | Start sector | End sector
    ---------------------------------------------------------
        1  | 00:00:00 | 03:40:29 |         0    |    16528
        2  | 03:40:29 | 03:24:35 |     16529    |    31863
        3  | 07:04:64 | 03:28:37 |     31864    |    47500
        4  | 10:33:26 | 03:03:06 |     47501    |    61231
        5  | 13:36:32 | 04:01:16 |     61232    |    79322
        6  | 17:37:48 | 03:58:54 |     79323    |    97226
        7  | 21:36:27 | 03:40:12 |     97227    |   113738
        8  | 25:16:39 | 03:36:62 |    113739    |   130000
        9  | 28:53:26 | 03:42:16 |    130001    |   146666
       10  | 32:35:42 | 04:03:31 |    146667    |   164922
       11  | 36:38:73 | 02:26:54 |    164923    |   175926
AccurateRip Summary
    Disc not found in AccurateRip DB.
All Tracks
    Album gain             : -8.89 dB
    Peak                   : 1.000000
    Statistics
        Read error                           : 0
        Skipped (treated as error)           : 0
        Edge jitter error (maybe fixed)      : 0
        Atom jitter error (maybe fixed)      : 1
        Drift error (maybe fixed)            : 0
        Dropped bytes error (maybe fixed)    : 0
        Duplicated bytes error (maybe fixed) : 0
Track 01
    Filename : /Users/sethmason/Desktop/Iyeoka - Say Yes (2010) [FLAC]/01 The Yellow Brick Road Song.flac
    Pre-gap length : 00:02:00
    Track gain             : -9.58 dB
    Peak                   : 1.000000
    CRC32 hash (test run)  : 1FBDE0E7
    CRC32 hash             : 1FBDE0E7
    CRC32 hash (skip zero) : 904620E9
    AccurateRip signature  : F8490E30
        ->Track not present in AccurateRip database.
    Statistics
        Read error                           : 0
        Skipped (treated as error)           : 0
        Edge jitter error (maybe fixed)      : 0
        Atom jitter error (maybe fixed)      : 0
        Drift error (maybe fixed)            : 0
        Dropped bytes error (maybe fixed)    : 0
        Duplicated bytes error (maybe fixed) : 0
        Inconsistency in error sectors       : 0
Track 02
    Filename : /Users/sethmason/Desktop/Iyeoka - Say Yes (2010) [FLAC]/02 Say Yes.flac
    Track gain             : -8.54 dB
    Peak                   : 1.000000
    CRC32 hash (test run)  : 8F766833
    CRC32 hash             : 8F766833
    CRC32 hash (skip zero) : 1302A77F
    AccurateRip signature  : ADE46D6E
        ->Track not present in AccurateRip database.
    Statistics
        Read error                           : 0
        Skipped (treated as error)           : 0
        Edge jitter error (maybe fixed)      : 0
        Atom jitter error (maybe fixed)      : 0
        Drift error (maybe fixed)            : 0
        Dropped bytes error (maybe fixed)    : 0
        Duplicated bytes error (maybe fixed) : 0
        Inconsistency in error sectors       : 0
Track 03
    Filename : /Users/sethmason/Desktop/Iyeoka - Say Yes (2010) [FLAC]/03 This Time Around.flac
    Pre-gap length : 00:01:32
    Track gain             : -9.19 dB
    Peak                   : 1.000000
    CRC32 hash (test run)  : CD1B2760
    CRC32 hash             : CD1B2760
    CRC32 hash (skip zero) : 26F0205D
    AccurateRip signature  : C2879A1A
        ->Track not present in AccurateRip database.
    Statistics
        Read error                           : 0
        Skipped (treated as error)           : 0
        Edge jitter error (maybe fixed)      : 0
        Atom jitter error (maybe fixed)      : 0
        Drift error (maybe fixed)            : 0
        Dropped bytes error (maybe fixed)    : 0
        Duplicated bytes error (maybe fixed) : 0
        Inconsistency in error sectors       : 0
Track 04
    Filename : /Users/sethmason/Desktop/Iyeoka - Say Yes (2010) [FLAC]/04 Breakdown Mode.flac
    Pre-gap length : 00:01:07
    Track gain             : -9.89 dB
    Peak                   : 0.954987
    CRC32 hash (test run)  : 35D49E36
    CRC32 hash             : 35D49E36
    CRC32 hash (skip zero) : B890F0BE
    AccurateRip signature  : 3F576AAD
        ->Track not present in AccurateRip database.
    Statistics
        Read error                           : 0
        Skipped (treated as error)           : 0
        Edge jitter error (maybe fixed)      : 0
        Atom jitter error (maybe fixed)      : 0
        Drift error (maybe fixed)            : 0
        Dropped bytes error (maybe fixed)    : 0
        Duplicated bytes error (maybe fixed) : 0
        Inconsistency in error sectors       : 0
Track 05
    Filename : /Users/sethmason/Desktop/Iyeoka - Say Yes (2010) [FLAC]/05 Millionaire.flac
    Pre-gap length : 00:01:19
    Track gain             : -8.99 dB
    Peak                   : 1.000000
    CRC32 hash (test run)  : B1EDA2D3
    CRC32 hash             : B1EDA2D3
    CRC32 hash (skip zero) : 1A9F300B
    AccurateRip signature  : F5B9C352
        ->Track not present in AccurateRip database.
    Statistics
        Read error                           : 0
        Skipped (treated as error)           : 0
        Edge jitter error (maybe fixed)      : 0
        Atom jitter error (maybe fixed)      : 0
        Drift error (maybe fixed)            : 0
        Dropped bytes error (maybe fixed)    : 0
        Duplicated bytes error (maybe fixed) : 0
        Inconsistency in error sectors       : 0
Track 06
    Filename : /Users/sethmason/Desktop/Iyeoka - Say Yes (2010) [FLAC]/06 Simply Falling.flac
    Track gain             : -7.90 dB
    Peak                   : 0.999908
    CRC32 hash (test run)  : 92685F1B
    CRC32 hash             : 92685F1B
    CRC32 hash (skip zero) : 2AF9EEEA
    AccurateRip signature  : E2E1A78B
        ->Track not present in AccurateRip database.
    Statistics
        Read error                           : 0
        Skipped (treated as error)           : 0
        Edge jitter error (maybe fixed)      : 0
        Atom jitter error (maybe fixed)      : 0
        Drift error (maybe fixed)            : 0
        Dropped bytes error (maybe fixed)    : 0
        Duplicated bytes error (maybe fixed) : 0
        Inconsistency in error sectors       : 0
Track 07
    Filename : /Users/sethmason/Desktop/Iyeoka - Say Yes (2010) [FLAC]/07 Testify.flac
    Track gain             : -7.78 dB
    Peak                   : 1.000000
    CRC32 hash (test run)  : D3F3127E
    CRC32 hash             : D3F3127E
    CRC32 hash (skip zero) : 1A687E0A
    AccurateRip signature  : D211DBE1
        ->Track not present in AccurateRip database.
    Statistics
        Read error                           : 0
        Skipped (treated as error)           : 0
        Edge jitter error (maybe fixed)      : 0
        Atom jitter error (maybe fixed)      : 0
        Drift error (maybe fixed)            : 0
        Dropped bytes error (maybe fixed)    : 0
        Duplicated bytes error (maybe fixed) : 0
        Inconsistency in error sectors       : 0
Track 08
    Filename : /Users/sethmason/Desktop/Iyeoka - Say Yes (2010) [FLAC]/08 I Travel Home.flac
    Track gain             : -4.37 dB
    Peak                   : 0.934052
    CRC32 hash (test run)  : 3314E35E
    CRC32 hash             : 3314E35E
    CRC32 hash (skip zero) : 6AD8DB93
    AccurateRip signature  : 7E6F3FB0
        ->Track not present in AccurateRip database.
    Statistics
        Read error                           : 0
        Skipped (treated as error)           : 0
        Edge jitter error (maybe fixed)      : 0
        Atom jitter error (maybe fixed)      : 0
        Drift error (maybe fixed)            : 0
        Dropped bytes error (maybe fixed)    : 0
        Duplicated bytes error (maybe fixed) : 0
        Inconsistency in error sectors       : 0
Track 09
    Filename : /Users/sethmason/Desktop/Iyeoka - Say Yes (2010) [FLAC]/09 Happily Ever After.flac
    Pre-gap length : 00:01:66
    Track gain             : -7.83 dB
    Peak                   : 0.999939
    CRC32 hash (test run)  : 8325D108
    CRC32 hash             : 8325D108
    CRC32 hash (skip zero) : 0E7AE938
    AccurateRip signature  : 60D01688
        ->Track not present in AccurateRip database.
    Statistics
        Read error                           : 0
        Skipped (treated as error)           : 0
        Edge jitter error (maybe fixed)      : 0
        Atom jitter error (maybe fixed)      : 0
        Drift error (maybe fixed)            : 0
        Dropped bytes error (maybe fixed)    : 0
        Duplicated bytes error (maybe fixed) : 0
        Inconsistency in error sectors       : 0
Track 10
    Filename : /Users/sethmason/Desktop/Iyeoka - Say Yes (2010) [FLAC]/10 I Am Descending.flac
    Track gain             : -7.21 dB
    Peak                   : 0.994995
    CRC32 hash (test run)  : AA45F79B
    CRC32 hash             : AA45F79B
    CRC32 hash (skip zero) : DE0E8FDB
    AccurateRip signature  : 45148E05
        ->Track not present in AccurateRip database.
    Statistics
        Read error                           : 0
        Skipped (treated as error)           : 0
        Edge jitter error (maybe fixed)      : 0
        Atom jitter error (maybe fixed)      : 0
        Drift error (maybe fixed)            : 0
        Dropped bytes error (maybe fixed)    : 0
        Duplicated bytes error (maybe fixed) : 0
        Inconsistency in error sectors       : 0
Track 11
    Filename : /Users/sethmason/Desktop/Iyeoka - Say Yes (2010) [FLAC]/11 My Current Anthem.flac
    Track gain             : -4.97 dB
    Peak                   : 0.934998
    CRC32 hash (test run)  : 8F2A079A
    CRC32 hash             : 8F2A079A
    CRC32 hash (skip zero) : EE56150A
    AccurateRip signature  : A3C32311
        ->Track not present in AccurateRip database.
    Statistics
        Read error                           : 0
        Skipped (treated as error)           : 0
        Edge jitter error (maybe fixed)      : 0
        Atom jitter error (maybe fixed)      : 1
        Drift error (maybe fixed)            : 0
        Dropped bytes error (maybe fixed)    : 0
        Duplicated bytes error (maybe fixed) : 0
        Inconsistency in error sectors       : 0
No errors occurred
End of status report
Код:
TITLE "Say Yes"
PERFORMER "Iyeoka"
REM GENRE "Pop"
REM DATE "2010"
REM DISCID 8F09290B
REM REPLAYGAIN_ALBUM_GAIN -8.89 dB
REM REPLAYGAIN_ALBUM_PEAK 1.000000
FILE "01 The Yellow Brick Road Song.wav" WAVE
  TRACK 01 AUDIO
    TITLE "The Yellow Brick Road Song"
    SONGWRITER "Iyeoka, David Franz"
    ISRC USVZF1000001
    REM REPLAYGAIN_TRACK_GAIN -9.58 dB
    REM REPLAYGAIN_TRACK_PEAK 1.000000
    INDEX 01 00:00:00
FILE "02 Say Yes.wav" WAVE
  TRACK 02 AUDIO
    TITLE "Say Yes"
    SONGWRITER "Iyeoka, David Franz"
    ISRC USVZF1000002
    REM REPLAYGAIN_TRACK_GAIN -8.54 dB
    REM REPLAYGAIN_TRACK_PEAK 1.000000
    INDEX 01 00:00:00
  TRACK 03 AUDIO
    TITLE "This Time Around"
    SONGWRITER "Iyeoka, David Franz, Francis Phan"
    ISRC USVZF1000003
    REM REPLAYGAIN_TRACK_GAIN -9.19 dB
    REM REPLAYGAIN_TRACK_PEAK 1.000000
    INDEX 00 03:23:03
FILE "03 This Time Around.wav" WAVE
    INDEX 01 00:00:00
  TRACK 04 AUDIO
    TITLE "Breakdown Mode"
    SONGWRITER "Iyeoka, David Franz"
    ISRC USVZF1000004
    REM REPLAYGAIN_TRACK_GAIN -9.89 dB
    REM REPLAYGAIN_TRACK_PEAK 0.954987
    INDEX 00 03:27:30
FILE "04 Breakdown Mode.wav" WAVE
    INDEX 01 00:00:00
  TRACK 05 AUDIO
    TITLE "Millionaire"
    SONGWRITER "Iyeoka, David Franz"
    ISRC USVZF1000005
    REM REPLAYGAIN_TRACK_GAIN -8.99 dB
    REM REPLAYGAIN_TRACK_PEAK 1.000000
    INDEX 00 03:01:62
FILE "05 Millionaire.wav" WAVE
    INDEX 01 00:00:00
FILE "06 Simply Falling.wav" WAVE
  TRACK 06 AUDIO
    TITLE "Simply Falling"
    SONGWRITER "Iyeoka, David Franz"
    ISRC USVZF1000006
    REM REPLAYGAIN_TRACK_GAIN -7.90 dB
    REM REPLAYGAIN_TRACK_PEAK 0.999908
    INDEX 01 00:00:00
FILE "07 Testify.wav" WAVE
  TRACK 07 AUDIO
    TITLE "Testify"
    SONGWRITER "Iyeoka, David Franz"
    ISRC USVZF1000007
    REM REPLAYGAIN_TRACK_GAIN -7.78 dB
    REM REPLAYGAIN_TRACK_PEAK 1.000000
    INDEX 01 00:00:00
FILE "08 I Travel Home.wav" WAVE
  TRACK 08 AUDIO
    TITLE "I Travel Home"
    SONGWRITER "Iyeoka, David Franz, Francis Phan"
    ISRC USVZF1000008
    REM REPLAYGAIN_TRACK_GAIN -4.37 dB
    REM REPLAYGAIN_TRACK_PEAK 0.934052
    INDEX 01 00:00:00
  TRACK 09 AUDIO
    TITLE "Happily Ever After"
    SONGWRITER "Iyeoka, David Franz"
    ISRC USVZF1000009
    REM REPLAYGAIN_TRACK_GAIN -7.83 dB
    REM REPLAYGAIN_TRACK_PEAK 0.999939
    INDEX 00 03:34:71
FILE "09 Happily Ever After.wav" WAVE
    INDEX 01 00:00:00
FILE "10 I Am Descending.wav" WAVE
  TRACK 10 AUDIO
    TITLE "I Am Descending"
    SONGWRITER "Iyeoka, David Franz, Francis Phan"
    ISRC USVZF1000010
    REM REPLAYGAIN_TRACK_GAIN -7.21 dB
    REM REPLAYGAIN_TRACK_PEAK 0.994995
    INDEX 01 00:00:00
FILE "11 My Current Anthem.wav" WAVE
  TRACK 11 AUDIO
    TITLE "My Current Anthem"
    SONGWRITER "Iyeoka, David Franz"
    ISRC USVZF1000011
    REM REPLAYGAIN_TRACK_GAIN -4.97 dB
    REM REPLAYGAIN_TRACK_PEAK 0.934998
    INDEX 01 00:00:00
Ииока Иви Окоаво (Iyeoka Ivie Okoawo) - американская поэтесса, певица, музыкант, фармацевт
и действующая активистка фонда TED Global. Ииока Окоаво - дочь нигерийских иммигрантов
(оба родителя - доктора наук, преподаватели Бостонского университета). Начала свою музыкальную
карьеру, основав группу "The Rock by Funk Tribe", что позволило ей переплетать свои стихи с музыкой
в стиле Jazz, Blues, Funk и Gospel. Свой первый сольный альбом из стихотворений и песен под названием
"Black and Blues" Ииока выпустила в 2004 году на лейбле Phanai Records. В 2007 году певица записала
свой второй альбом в стиле фьюжн-поэзия - "Hum Bass Line". В 2008 году вышел её концертный альбом,
записанный в Гонолулу (на Гавайях). В ноябре 2010 года Ииока Окоаво выпустила свой третий альбом -
"Say Yes", состоящий из девяти песен и двух стихотворений. "Say Yes" стал более попсовым и более
музыкальным диском, нежели предыдущие. Новое звучание представляет из себя смесь стилей R&B,
Hip hop, Dance и Electronic Soul.
Певица, поэтесса, и просто красавица - Ииока Окоаво.
Download / Скачать

Хотите скачать бесплатно? Зарегистрируйтесь на сайте (ссылка на регистрацию). Pirat.ca - самый быстрый торрент трекер в рунете!

Как скачивать  ·   Что такое торрент  ·   Рейтинг и ограничения

Показать сообщения:    
Ответить на тему

Текущее время: Сегодня 13:33

Часовой пояс: GMT + 4



Вы не можете начинать темы
Вы не можете отвечать на сообщения
Вы не можете редактировать свои сообщения
Вы не можете удалять свои сообщения
Вы не можете голосовать в опросах
Вы не можете прикреплять файлы к сообщениям
Вы не можете скачивать файлы

Майнать ▼