(Chanson, Ballad) Петлюра (Юрий Барабаш) - Полное собрание сочинений (4 CD) - 2001 [FLAC, image+.cue, lossless]

Ответить на тему
 
Автор
Сообщение

Пост 23-Июн-2014 17:15

[Q] 

шарик-off

-Петлюра (Юрий Барабаш) - Полное собрание сочинений-- Год издания: 2001
Страна: Россия
Жанр: Chanson, Ballad
Продолжительность: 03:10:44-Лейбл издания: Master Sound Records Ltd.
Тип альбома: 4хCD Album, Compilation
Страна-выпуска диска: Россия
Номер по каталогу: MS CD 324,325,326,327/01
Источник (релизер): ale2187-Формат: FLAC
Битрейт аудио: lossless
Тип рипа: image+.cue
Наличие сканов в содержимом раздачи: да-
Продолжительность: 00:48:07
Трэклист:
01. Малолетка (3:43)
02. Платье белое (4:07)
03. Гитара семиструнная (3:00)
04. Тёмная вода (3:46)
05. Дождь (3:59)
06. Курочка (2:04)
07. Одинокий трамвай (4:06)
08. Не судьба (2:37)
09. Споём, жиган (3:21)
10. Стена (3:46)
11. Алёшка (4:12)
12. Не хотел умирать (2:23)
13. Бродяга (2:45)
bonus track:
14. Ты одна стоишь у клёна (remix) (4:17)
Код:
Exact Audio Copy V0.99 prebeta 4 from 23. January 2008
Отчёт EAC об извлечении, выполненном 27. декабря 2012, 16:08
Петлюра / Малолетка (том-I)
Дисковод: ASUS    DRW-1814BLT   Adapter: 5  ID: 0
Режим чтения                 : Достоверность
Использование точного потока : Да
Отключение кэша аудио        : Да
Использование указателей C2  : Нет
Коррекция смещения при чтении                     : 6
Способность читать области Lead-in и Lead-out     : Нет
Заполнение пропущенных сэмплов тишиной            : Да
Удаление блоков с тишиной в начале и конце        : Нет
При вычислениях CRC использовались нулевые сэмплы : Да
Интерфейс                                         : Установленный внешний ASPI-интерфейс
Выходной формат : Внутренние WAV-операции
Формат сэмплов  : 44.100 Гц; 16 бит; стерео
TOC извлечённого CD
     Трек |   Старт  | Длительность | Начальный сектор | Конечный сектор
    ---------------------------------------------------------------------
       1  |  0:00.00 |    3:43.23   |           0      |      16747
       2  |  3:43.23 |    4:07.06   |       16748      |      35278
       3  |  7:50.29 |    3:00.33   |       35279      |      48811
       4  | 10:50.62 |    3:46.06   |       48812      |      65767
       5  | 14:36.68 |    3:59.03   |       65768      |      83695
       6  | 18:35.71 |    2:04.21   |       83696      |      93016
       7  | 20:40.17 |    4:06.28   |       93017      |     111494
       8  | 24:46.45 |    2:37.01   |      111495      |     123270
       9  | 27:23.46 |    3:21.09   |      123271      |     138354
      10  | 30:44.55 |    3:45.46   |      138355      |     155275
      11  | 34:30.26 |    4:12.06   |      155276      |     174181
      12  | 38:42.32 |    2:23.05   |      174182      |     184911
      13  | 41:05.37 |    2:44.58   |      184912      |     197269
      14  | 43:50.20 |    4:17.01   |      197270      |     216545
Характеристики диапазона извлечения и сообщения об ошибках
Выбранный диапазон
     Имя файла D:\ale2187\Петлюра - Малолетка (том-I).wav
     Пиковый уровень 97.7 %
     Качество диапазона 100.0 %
     CRC теста 3738573F
     CRC копии 3738573F
     Копирование... OK
Ошибок не произошло
Код:
REM GENRE Chanson
REM DATE 2001
REM DISCID BD0B470E
REM COMMENT "ExactAudioCopy v0.99pb4"
PERFORMER "Петлюра"
TITLE "Малолетка (том-I)"
FILE "Петлюра - Малолетка (том-I).flac" WAVE
  TRACK 01 AUDIO
    TITLE "Малолетка"
    PERFORMER "Петлюра"
    INDEX 01 00:00:00
  TRACK 02 AUDIO
    TITLE "Платье белое"
    PERFORMER "Петлюра"
    INDEX 00 03:41:23
    INDEX 01 03:43:23
  TRACK 03 AUDIO
    TITLE "Гитара семиструнная"
    PERFORMER "Петлюра"
    INDEX 00 07:48:29
    INDEX 01 07:50:29
  TRACK 04 AUDIO
    TITLE "Тёмная вода"
    PERFORMER "Петлюра"
    INDEX 00 10:48:62
    INDEX 01 10:50:62
  TRACK 05 AUDIO
    TITLE "Дождь"
    PERFORMER "Петлюра"
    INDEX 00 14:34:68
    INDEX 01 14:36:68
  TRACK 06 AUDIO
    TITLE "Курочка"
    PERFORMER "Петлюра"
    INDEX 00 18:33:71
    INDEX 01 18:35:71
  TRACK 07 AUDIO
    TITLE "Одинокий трамвай"
    PERFORMER "Петлюра"
    INDEX 00 20:38:17
    INDEX 01 20:40:17
  TRACK 08 AUDIO
    TITLE "Не судьба"
    PERFORMER "Петлюра"
    INDEX 00 24:44:45
    INDEX 01 24:46:45
  TRACK 09 AUDIO
    TITLE "Споём жиган"
    PERFORMER "Петлюра"
    INDEX 00 27:21:46
    INDEX 01 27:23:46
  TRACK 10 AUDIO
    TITLE "Стена"
    PERFORMER "Петлюра"
    INDEX 00 30:42:55
    INDEX 01 30:44:55
  TRACK 11 AUDIO
    TITLE "Алёшка"
    PERFORMER "Петлюра"
    INDEX 00 34:28:26
    INDEX 01 34:30:26
  TRACK 12 AUDIO
    TITLE "Не хотел умирать"
    PERFORMER "Петлюра"
    INDEX 00 38:40:32
    INDEX 01 38:42:32
  TRACK 13 AUDIO
    TITLE "Бродяга"
    PERFORMER "Петлюра"
    INDEX 00 41:03:37
    INDEX 01 41:05:37
  TRACK 14 AUDIO
    TITLE "Ты одна стоишь у клена (remix)"
    PERFORMER "Петлюра"
    INDEX 00 43:48:20
    INDEX 01 43:50:20
Продолжительность: 00:52:57
Трэклист:
01. Скорый поезд (3:21)
02. В старой церквушке (3:44)
03. Блудница (3:35)
04. Облака (3:14)
05. Как служил солдат (3:57)
06. Наташка (3:43)
07. Долгая разлука (3:07)
08. Люди помогите (3:49)
09. Люблю тебя (3:41)
10. Я опускаюсь на колени (4:34)
11. Дочь прокурора (4:18)
12. Не надо (3:12)
13. Воровская (3:59)
bonus track:
14. Конопля (remix) (4:45)
Код:
Exact Audio Copy V0.99 prebeta 4 from 23. January 2008
Отчёт EAC об извлечении, выполненном 27. декабря 2012, 16:40
Петлюра / Скорый поезд (том-II)
Дисковод: ASUS    DRW-1814BLT   Adapter: 5  ID: 0
Режим чтения                 : Достоверность
Использование точного потока : Да
Отключение кэша аудио        : Да
Использование указателей C2  : Нет
Коррекция смещения при чтении                     : 6
Способность читать области Lead-in и Lead-out     : Нет
Заполнение пропущенных сэмплов тишиной            : Да
Удаление блоков с тишиной в начале и конце        : Нет
При вычислениях CRC использовались нулевые сэмплы : Да
Интерфейс                                         : Установленный внешний ASPI-интерфейс
Выходной формат : Внутренние WAV-операции
Формат сэмплов  : 44.100 Гц; 16 бит; стерео
TOC извлечённого CD
     Трек |   Старт  | Длительность | Начальный сектор | Конечный сектор
    ---------------------------------------------------------------------
       1  |  0:00.00 |    3:21.35   |           0      |      15109
       2  |  3:21.35 |    3:43.42   |       15110      |      31876
       3  |  7:05.02 |    3:34.40   |       31877      |      47966
       4  | 10:39.42 |    3:14.03   |       47967      |      62519
       5  | 13:53.45 |    3:57.07   |       62520      |      80301
       6  | 17:50.52 |    3:42.48   |       80302      |      96999
       7  | 21:33.25 |    3:06.60   |       97000      |     111009
       8  | 24:40.10 |    3:49.00   |      111010      |     128184
       9  | 28:29.10 |    3:40.50   |      128185      |     144734
      10  | 32:09.60 |    4:34.07   |      144735      |     165291
      11  | 36:43.67 |    4:18.35   |      165292      |     184676
      12  | 41:02.27 |    3:11.70   |      184677      |     199071
      13  | 44:14.22 |    3:58.40   |      199072      |     216961
      14  | 48:12.62 |    4:44.42   |      216962      |     238303
Характеристики диапазона извлечения и сообщения об ошибках
Выбранный диапазон
     Имя файла D:\ale2187\Петлюра - Скорый поезд (том-II).wav
     Пиковый уровень 99.7 %
     Качество диапазона 100.0 %
     CRC теста 70E5F149
     CRC копии 70E5F149
     Копирование... OK
Ошибок не произошло
Код:
REM GENRE Chanson
REM DATE 2001
REM DISCID B40C690E
REM COMMENT "ExactAudioCopy v0.99pb4"
PERFORMER "Петлюра"
TITLE "Скорый поезд (том-II)"
FILE "Петлюра - Скорый поезд (том-II).flac" WAVE
  TRACK 01 AUDIO
    TITLE "Скорый поезд"
    PERFORMER "Петлюра"
    INDEX 01 00:00:00
  TRACK 02 AUDIO
    TITLE "В старой церквушке"
    PERFORMER "Петлюра"
    INDEX 01 03:21:35
  TRACK 03 AUDIO
    TITLE "Блудница"
    PERFORMER "Петлюра"
    INDEX 01 07:05:02
  TRACK 04 AUDIO
    TITLE "Облака"
    PERFORMER "Петлюра"
    INDEX 01 10:39:42
  TRACK 05 AUDIO
    TITLE "Как служил солдат"
    PERFORMER "Петлюра"
    INDEX 01 13:53:45
  TRACK 06 AUDIO
    TITLE "Наташка"
    PERFORMER "Петлюра"
    INDEX 01 17:50:52
  TRACK 07 AUDIO
    TITLE "Долгая разлука"
    PERFORMER "Петлюра"
    INDEX 01 21:33:25
  TRACK 08 AUDIO
    TITLE "Люди помогите"
    PERFORMER "Петлюра"
    INDEX 01 24:40:10
  TRACK 09 AUDIO
    TITLE "Люблю тебя"
    PERFORMER "Петлюра"
    INDEX 01 28:29:10
  TRACK 10 AUDIO
    TITLE "Я опускаюсь на колени"
    PERFORMER "Петлюра"
    INDEX 01 32:09:60
  TRACK 11 AUDIO
    TITLE "Дочь прокурора"
    PERFORMER "Петлюра"
    INDEX 01 36:43:67
  TRACK 12 AUDIO
    TITLE "Не надо"
    PERFORMER "Петлюра"
    INDEX 01 41:02:27
  TRACK 13 AUDIO
    TITLE "Воровская"
    PERFORMER "Петлюра"
    INDEX 01 44:14:22
  TRACK 14 AUDIO
    TITLE "Конопля (remix)"
    PERFORMER "Петлюра"
    INDEX 01 48:12:62
Продолжительность: 00:42:48
Трэклист:
01. Печальный парень (3:29)
02. Хочешь, я прибегу (3:53)
03. Про любовь (3:57)
04. Я иду осторожно (4:23)
05. Мокрый асфальт (3:27)
06. В тихом ресторане (4:42)
07. Их не зовут (3:27)
08. Ставрополье (3:36)
09. Конопля (4:18)
10. Наш путь (3:58)
bonus track:
11. Моя любимая (remix) (3:38)
Код:
Exact Audio Copy V0.99 prebeta 4 from 23. January 2008
Отчёт EAC об извлечении, выполненном 27. декабря 2012, 17:45
Петлюра / Печальный парень (том-III)
Дисковод: ASUS    DRW-1814BLT   Adapter: 5  ID: 0
Режим чтения                 : Достоверность
Использование точного потока : Да
Отключение кэша аудио        : Да
Использование указателей C2  : Нет
Коррекция смещения при чтении                     : 6
Способность читать области Lead-in и Lead-out     : Нет
Заполнение пропущенных сэмплов тишиной            : Да
Удаление блоков с тишиной в начале и конце        : Нет
При вычислениях CRC использовались нулевые сэмплы : Да
Интерфейс                                         : Установленный внешний ASPI-интерфейс
Выходной формат : Внутренние WAV-операции
Формат сэмплов  : 44.100 Гц; 16 бит; стерео
TOC извлечённого CD
     Трек |   Старт  | Длительность | Начальный сектор | Конечный сектор
    ---------------------------------------------------------------------
       1  |  0:00.00 |    3:28.53   |           0      |      15652
       2  |  3:28.53 |    3:52.48   |       15653      |      33100
       3  |  7:21.26 |    3:57.10   |       33101      |      50885
       4  | 11:18.36 |    4:23.07   |       50886      |      70617
       5  | 15:41.43 |    3:26.41   |       70618      |      86108
       6  | 19:08.09 |    4:42.36   |       86109      |     107294
       7  | 23:50.45 |    3:26.59   |      107295      |     122803
       8  | 27:17.29 |    3:36.01   |      122804      |     139004
       9  | 30:53.30 |    4:18.27   |      139005      |     158381
      10  | 35:11.57 |    3:58.11   |      158382      |     176242
      11  | 39:09.68 |    3:37.55   |      176243      |     192572
Характеристики диапазона извлечения и сообщения об ошибках
Выбранный диапазон
     Имя файла D:\ale2187\Петлюра - Печальный парень (том-III).wav
     Пиковый уровень 100.0 %
     Качество диапазона 100.0 %
     CRC теста B7E7A432
     CRC копии B7E7A432
     Копирование... OK
Ошибок не произошло
Код:
REM GENRE Chanson
REM DATE 2001
REM DISCID 770A070B
REM COMMENT "ExactAudioCopy v0.99pb4"
PERFORMER "Петлюра"
TITLE "Печальный парень (том-III)"
FILE "Петлюра - Печальный парень (том-III).flac" WAVE
  TRACK 01 AUDIO
    TITLE "Печальный парень"
    PERFORMER "Петлюра"
    INDEX 01 00:00:00
  TRACK 02 AUDIO
    TITLE "Хочешь, я прибегу"
    PERFORMER "Петлюра"
    INDEX 00 03:26:53
    INDEX 01 03:28:53
  TRACK 03 AUDIO
    TITLE "Про любовь"
    PERFORMER "Петлюра"
    INDEX 00 07:19:26
    INDEX 01 07:21:26
  TRACK 04 AUDIO
    TITLE "Я иду осторожно"
    PERFORMER "Петлюра"
    INDEX 00 11:16:36
    INDEX 01 11:18:36
  TRACK 05 AUDIO
    TITLE "Мокрый асфальт"
    PERFORMER "Петлюра"
    INDEX 00 15:39:43
    INDEX 01 15:41:43
  TRACK 06 AUDIO
    TITLE "В тихом ресторане"
    PERFORMER "Петлюра"
    INDEX 00 19:06:09
    INDEX 01 19:08:09
  TRACK 07 AUDIO
    TITLE "Их не зовут"
    PERFORMER "Петлюра"
    INDEX 00 23:48:45
    INDEX 01 23:50:45
  TRACK 08 AUDIO
    TITLE "Ставрополье"
    PERFORMER "Петлюра"
    INDEX 00 27:15:29
    INDEX 01 27:17:29
  TRACK 09 AUDIO
    TITLE "Конопля"
    PERFORMER "Петлюра"
    INDEX 00 30:51:30
    INDEX 01 30:53:30
  TRACK 10 AUDIO
    TITLE "Наш путь"
    PERFORMER "Петлюра"
    INDEX 00 35:09:57
    INDEX 01 35:11:57
  TRACK 11 AUDIO
    TITLE "Моя любимая (remix)"
    PERFORMER "Петлюра"
    INDEX 00 39:07:68
    INDEX 01 39:09:68
Продолжительность: 00:46:52
Трэклист:
01. Ты одна стоишь у клёна (4:33)
02. Дом один на всех (3:28)
03. Бродяга-странник (5:15)
04. Беглец (3:11)
05. Моя любимая (3:48)
06. Русалка (4:25)
07. Романс (2:19)
08. Пацаны (3:27)
09. Непонятная песня (3:58)
10. Неужели так бывает (4:57)
11. Исповедь вора (3:32)
bonus track:
12. Хочешь я прибегу (remix) (3:58)
Код:
Exact Audio Copy V0.99 prebeta 4 from 23. January 2008
Отчёт EAC об извлечении, выполненном 27. декабря 2012, 18:35
Петлюра / Прощальный альбом (том-IV)
Дисковод: ASUS    DRW-1814BLT   Adapter: 5  ID: 0
Режим чтения                 : Достоверность
Использование точного потока : Да
Отключение кэша аудио        : Да
Использование указателей C2  : Нет
Коррекция смещения при чтении                     : 6
Способность читать области Lead-in и Lead-out     : Нет
Заполнение пропущенных сэмплов тишиной            : Да
Удаление блоков с тишиной в начале и конце        : Нет
При вычислениях CRC использовались нулевые сэмплы : Да
Интерфейс                                         : Установленный внешний ASPI-интерфейс
Выходной формат : Внутренние WAV-операции
Формат сэмплов  : 44.100 Гц; 16 бит; стерео
TOC извлечённого CD
     Трек |   Старт  | Длительность | Начальный сектор | Конечный сектор
    ---------------------------------------------------------------------
       1  |  0:00.00 |    4:33.00   |           0      |      20474
       2  |  4:33.00 |    3:28.32   |       20475      |      36106
       3  |  8:01.32 |    5:15.33   |       36107      |      59764
       4  | 13:16.65 |    3:10.55   |       59765      |      74069
       5  | 16:27.45 |    3:48.02   |       74070      |      91171
       6  | 20:15.47 |    4:25.03   |       91172      |     111049
       7  | 24:40.50 |    2:19.27   |      111050      |     121501
       8  | 27:00.02 |    3:27.03   |      121502      |     137029
       9  | 30:27.05 |    3:58.30   |      137030      |     154909
      10  | 34:25.35 |    4:56.42   |      154910      |     177151
      11  | 39:22.02 |    3:32.25   |      177152      |     193076
      12  | 42:54.27 |    3:58.07   |      193077      |     210933
Характеристики диапазона извлечения и сообщения об ошибках
Выбранный диапазон
     Имя файла D:\ale2187\Петлюра - Прощальный альбом (том-IV).wav
     Пиковый уровень 100.0 %
     Качество диапазона 100.0 %
     CRC теста 3DD0235E
     CRC копии 3DD0235E
     Копирование... OK
Ошибок не произошло
Код:
REM GENRE Chanson
REM DATE 2001
REM DISCID BC0AFC0C
REM COMMENT "ExactAudioCopy v0.99pb4"
PERFORMER "Петлюра"
TITLE "Прощальный альбом (том-IV)"
FILE "Петлюра - Прощальный альбом (том-IV).flac" WAVE
  TRACK 01 AUDIO
    TITLE "Ты одна стоишь у клена"
    PERFORMER "Петлюра"
    INDEX 01 00:00:00
  TRACK 02 AUDIO
    TITLE "Дом один на всех"
    PERFORMER "Петлюра"
    INDEX 01 04:33:00
  TRACK 03 AUDIO
    TITLE "Бродяга-странник"
    PERFORMER "Петлюра"
    INDEX 01 08:01:32
  TRACK 04 AUDIO
    TITLE "Беглец"
    PERFORMER "Петлюра"
    INDEX 01 13:16:65
  TRACK 05 AUDIO
    TITLE "Моя любимая"
    PERFORMER "Петлюра"
    INDEX 01 16:27:45
  TRACK 06 AUDIO
    TITLE "Русалка"
    PERFORMER "Петлюра"
    INDEX 01 20:15:47
  TRACK 07 AUDIO
    TITLE "Романс"
    PERFORMER "Петлюра"
    INDEX 01 24:40:50
  TRACK 08 AUDIO
    TITLE "Пацаны"
    PERFORMER "Петлюра"
    INDEX 01 27:00:02
  TRACK 09 AUDIO
    TITLE "Непонятная песня"
    PERFORMER "Петлюра"
    INDEX 01 30:27:05
  TRACK 10 AUDIO
    TITLE "Неужели так бывает"
    PERFORMER "Петлюра"
    INDEX 01 34:25:35
  TRACK 11 AUDIO
    TITLE "Исповедь вора"
    PERFORMER "Петлюра"
    INDEX 01 39:22:02
  TRACK 12 AUDIO
    TITLE "Хочешь я прибегу (remix)"
    PERFORMER "Петлюра"
    INDEX 01 42:54:27
Страна знала его как Петлюру. Грустные глаза с кассетной обложки. Необычный приятный голос. Песни, полные тоски. Проникающие прямо в душу и выворачивающие ее... И все! Дальше оставались лишь догадки. Да кто он вообще такой? Может сидел? Или сейчас сидит? И почему, собственно говоря, Петлюра? Даже теперь, когда после его смерти прошло несколько лет, вопросов остается больше чем ответов. Юра не был тщеславным человеком, нигде не афишировал свое имя, не светился на шумных тусовках, не мелькал на экранах телевизоров. Он просто делал свое дело. Он пел. Он очень хорошо пел. Но обо всем по порядку. Ставрополь, город в котором прошло Юркино детство ничем не отличался от сотен других советских городов. Заводы, фабрики, пять вузов, два театра, три музея... Но, все-таки, что-то особенное было в этом городе, выжженном солнцем. Уже потом, через много лет Слава Черный напишет ему песню. Про Родину. Про Ставрополье. И песня эта не будет надуманной, ни на грамм не будет. Душевная, прочувствованная. И ладно спетая.
Помните?
Ах, мой Северо-Западный район,
Я с детства был в тебя всегда влюблен.
И по тебе в Москве я заскучал.
Ты для меня, как кораблю причал.
Там первая любовь моя жила,
И первый поцелуй познал там я.
Я город буду свой любить всегда.
И не забуду город никогда...

Как приятно возвращаться туда, где прошло твое детство. Где было весело и не очень, где тебя знает каждая собака, где не надо уже ничего никому доказывать. Возвращаться в прошлое... Поколение, которому сейчас чуть больше двадцати, Юрино поколение, жило в необычное, странное время. Впрочем, о каком поколении в этой стране нельзя сказать того же? Но все-таки, судьба показала им и социализм, и перестройку, и даже новые времена, названия которым еще пока не придумали... Брежневский застой, стремительная смена Андропова с Черненко, приход Горбачева - Юркиного земляка, и, наконец, Ельцин... А, самое главное, сознание этих пацанов не успело закостенеть, они легко принимали смену времен. Но, впрочем, Петлюре было не до политки. Он же - певец. Петлюра... Юра - Петлюра... Вот вам и рифма. В песне, ведь, слова должны быть складными... Кстати, песен он почти не писал, ну разве что "Люди добрые, прошу вас помогите... " и еще две-три... Но, что касается исполнения, тут ему равных не было. Он пел о неволе, о человеческих чувствах и переживаниях, он рассказывал истории из нашей жизни. Грустно, невыносимо тоскливо, а иногда, наоборот, радостно... И всегда правдиво и искренне. Только у него получалось так петь. Первый его альбом - "Налетчик Беня" - записывался в домашней студии. Тогда было модно между песнями что-либо комментировать компьютерными голосами. "Это не Шатунов - это Петлюра", - говорит кто-то на этом альбоме, чтобы не произошло путаницы, наверное... Действительно, не разбирающийся человек мог спутать двух Юр. Голоса чем-то неуловимо похожи. Но это было только начало. У нашего Юры сразу же появилось свое лицо, свой стиль (как сейчас принято говорить). А еще в проигрыше песни "Постой, паровоз" какой-то дядька рассказал нам, что он - "продюсер этого альбома благодарит за помощь свою жену и лучших друзей - Виталика и Алеху"... Виталик и Леха, наверное, остались довольны. Аудиопираты тоже. С их помощью разлетелся альбом по просторам нашей страны. Так тогда было принято. Все только-только начиналось. Когда появилась возможность записать песни на более профессиональном оборудовании, решили, что Петлюра должен перепеть некоторые песни с "Налетчика... ". Так и сделали. Кроме того, подобрали и записали еще несколько композиций. Так родился альбом "Малолетка". Он снова вышел на аудиокассетах, а затем и на компактах. И снова понравился людям. Песню "Дождь" тогда стали включать на дискотеках в качестве медляка. Сельские клубы и пионерские лагеря были потрясены такой откровенностью. Молодежь слушала, молодежь задумывалась, и не только молодежь... Люди хотели знать, что еще поет этот паренек? А он пел, про то, как нелегко в тюрьме, как одиноко в армии, особенно, когда тебе изменила любимая. Про трамвай и про птиц, которые, в отличие от людей, живут парами. Про темную воду и про стену. Про Алешку и про то, что так не хочется умирать... В 1995 году в жизни Юрия Барабаша появилась фирма "Мастер Саунд" и Юрий Севостьянов, который не боялся вкладывать деньги в "Русский шансон". Да, время родило на свет это странное словосочетание. Смесь блатной лирики и дворовых песен, музыка ресторанов, кухонь и подъездов, песни зоны. С "Мастер саунд" стало работать проще. Сразу же предложили заключить контракт на несколько лет вперед. Начали писать альбомы, сняли клип. Все было по-взрослому... Первым на очереди был "Скорый поезд". Пожалуй, самая известная Юрина работа. Этот альбом вышел как на кассетах, так и на компакт-дисках. Петлюрины песни тогда можно было слышать даже на новом "Русском радио"... Мог ли он мечтать об этом несколько лет назад. Хотя, как знать... Пути господни неисповедимы. Москва. Он жил уже здесь. И работал, работал... С упоением пел, записывался... Искал новые грани в своем творчестве. Пытался петь то чистую лирику, то снова возвращался к жиганским песням. Вслед за "Скорым поездом" готовился к выпуску альбом "Печальный парень". Его уже рекламировали по телевидению. "О чем грустит он догадайтесь сами, а я гадать об этом даже не берусь"... Может быть у кого-то голова закружилась бы от такого... Но только не у него... И вдруг смерть... Автокатострофа в ночь с 27 на 28 сентября 1996 года на Севастопольском проспекте... Он чуть ли не в первый раз сидел за рулем и, видимо, не справился с управлением. Все отделались травмами, кроме него... Говорят, что сначала его не могли опознать. И только люди, смотревшие "Дорожный патруль" по Российскому ТВ узнали Юру. Юрий Барабаш похоронен на Хованском кладбище в городе Москве. А страна по-прежнему слушает песни Петлюры.
Памяти Петлюры, трагически погибшего 28 сентября 1996 года, посвящается...
Download / Скачать

Хотите скачать бесплатно? Зарегистрируйтесь на сайте (ссылка на регистрацию). Pirat.ca - самый быстрый торрент трекер в рунете!

Как скачивать  ·   Что такое торрент  ·   Рейтинг и ограничения



Последний раз редактировалось: шарик-off (2014-06-25 14:05), всего редактировалось 1 раз
Показать сообщения:    
Ответить на тему

Текущее время: Сегодня 12:38

Часовой пояс: GMT + 4



Вы не можете начинать темы
Вы не можете отвечать на сообщения
Вы не можете редактировать свои сообщения
Вы не можете удалять свои сообщения
Вы не можете голосовать в опросах
Вы не можете прикреплять файлы к сообщениям
Вы не можете скачивать файлы

Майнать ▼