Джон Петруччи - Игра на гитаре / Warner Bros. Classics. John Petrucci - Rock Discipline [1996, Игра на электрогитаре, DVDRip] VO

Ответить на тему
 
Автор
Сообщение

Пост 19-Май-2013 18:03

[Q] 

IceZver

Морской Волк

-Джон Петруччи - Игра на гитаре / Warner Bros. Classics. John Petrucci - Rock Discipline-- Страна: США
Тематика: Игра на электрогитаре
Тип раздаваемого материала: Видеоурок
Продолжительность: 01:57:43
Год выпуска: 1996
Перевод: Любительский (одноголосый, закадровый)
Описание: Знаменитая видеошкола Джона Петруччи. Маэстро рассматривает большинство аспектов игры на электрогитаре в одном видео (от разминки вплоть до музыкального мышления). Здесь описывается собственная система тренировок Джона, которая будет полезна как новичкам так и более продвинутым музыкантам.
Дополнительная информация:
Прилагаются табулатуры и ноты видеошколы в формате guitar pro и два варианта буклета.
Качество видео: DVDRip
Видео кодек: DivX
Аудио кодек: AC3
Видео: DivX 3 720x480 29.97fps 919 Кбит/сек
Аудио: Dolby AC3 48000Hz stereo 256Kbps
Общее
Полное имя : E:\John Petrucci Rock_Discipline\JOHN PETRUCCI1 (Rock Discipline DVDRip).avi
Формат : AVI
Формат/Информация : Audio Video Interleave
Профиль формата : OpenDML
Размер файла : 1,04 Гбайт
Продолжительность : 1 ч. 57 м.
Общий поток : 1263 Кбит/сек
Видео
Идентификатор : 0
Формат : MPEG-4 Visual
Идентификатор кодека : DIV3
Идентификатор кодека/Подсказка : DivX 3 Low
Продолжительность : 1 ч. 57 м.
Битрейт : 919 Кбит/сек
Ширина : 720 пикселей
Высота : 480 пикселей
Соотношение сторон : 3:2
Частота кадров : 29,970 кадров/сек
Стандарт вещания : NTSC
Цветовое пространство : YUV
Субдискретизация насыщенности : 4:2:0
Битовая глубина : 8 бит
Метод сжатия : С потерями
Бит/(Пиксели*Кадры) : 0.089
Размер потока : 774 Мбайт (73%)
Аудио
Идентификатор : 1
Формат : AC-3
Формат/Информация : Audio Coding 3
Расширение режима : CM (complete main)
Параметр Endianness формата : Big
Идентификатор кодека : 2000
Продолжительность : 1 ч. 57 м.
Вид битрейта : Постоянный
Битрейт : 256 Кбит/сек
Каналы : 2 канала
Расположение каналов : Front: L R
Частота : 48,0 КГц
Битовая глубина : 16 бит
Метод сжатия : С потерями
Размер потока : 216 Мбайт (20%)
Выравнивание : Разделение по промежуткам
Продолжительность промежутка : 250 мс. (7,49 видеокадров)
Время предзагрузки промежутка : 224 мс.
Кроме рекомендую Сергей Болотников - Уроки игры на гитаре - Импровизация / Сергей Болотников - Уроки игры на гитаре - Импровизация [Неизвестно, Игра на электрогитаре, RUS] (пост).
Download / Скачать

Хотите скачать бесплатно? Зарегистрируйтесь на сайте (ссылка на регистрацию). Pirat.ca - самый быстрый торрент трекер в рунете!

Как скачивать  ·   Что такое торрент  ·   Рейтинг и ограничения



Последний раз редактировалось: IceZver (2013-05-20 08:10), всего редактировалось 2 раз(а)

Пост 20-Май-2013 17:43 (спустя 23 часа)

Топик был перенесен из форума Видеоуроки (Трюм) в форум Игра на гитаре

erchine
 

a1a1a1

Корсар

Пост 04-Июл-2014 18:22 (спустя 1 год 1 месяц)

[Q] 

Одобрямс!

_________________
[Профиль]  [ЛС] 

tubuc

Корсар

108

Пост 08-Ноя-2015 11:49 (спустя 1 год 4 месяца)

[Q] 

Спасибо! Интересная школа! !COOL!
[Профиль]  [ЛС] 
Показать сообщения:    
Ответить на тему

Текущее время: Сегодня 21:51

Часовой пояс: GMT + 4



Вы не можете начинать темы
Вы не можете отвечать на сообщения
Вы не можете редактировать свои сообщения
Вы не можете удалять свои сообщения
Вы не можете голосовать в опросах
Вы не можете прикреплять файлы к сообщениям
Вы не можете скачивать файлы

Майнать ▼