(Jazz Fusion, Latin Jazz) Al Di Meola & Leonid Agutin - Cosmopolitan Life - 2005 [APE, image+.cue, lossless]

Ответить на тему
 
Автор
Сообщение

Пост 10-Июл-2014 12:28

[Q] 

шарик-off

-Al Di Meola & Leonid Agutin / Cosmopolitan Life-- Год издания: 2005
Страна: США & Россия
Жанр: Jazz Fusion, Latin Jazz
Продолжительность: 00:46:59-Лейбл издания: Ole Records
Тип альбома: CD, Album, Enhanced
Страна-выпуска диска: Германия
Номер по каталогу: CD-E 087-25652
Источник (релизер): найдено в сети-Формат: APE
Битрейт аудио: lossless
Тип рипа: image+.cue
Наличие сканов в содержимом раздачи: нет-
01. Cuba Africa 05:34
02. Cosmopolitan Life 04:09
03. Nobody 04:47
04. Price to Learn 05:27
05. Tango 03:54
06. Smile 04:19
07. Portofino 03:37
08. If I'll Get a Chance... 04:07
09. Blue River 04:44
10. Shade of Your World 06:16
Код:
Отчёт EAC об извлечении, выполненном 25. октября 2007, 9:58 для диска:
Al Di Meola & Agutin, Leonid / Cosmopolitan Life
Дисковод: TSSTcorpCD/DVDW TS-H552B   Adapter: 1  ID: 0
Режим чтения: Достоверный (C2: нет, Точный поток: да, Отключение кэша: да)
Коррекция смещения при чтении: 6
Способность читать области Lead-in и Lead-out : Нет
Выходной формат: Внутренние WAV-операции
                     44.100 Гц; 16 бит; стерео
Другие параметры:
    Заполнение пропущенных сэмплов тишиной : Да
    Удаление блоков с тишиной в начале и конце : Нет
    Встроенный Win32-интерфейс для Win NT/2000
Характеристики диапазона извлечения и сообщения об ошибках
Выбранный диапазон
     Имя файла H:\Download\Al Di Meola & Agutin, Leonid - Cosmopolitan Life\Al Di Meola & Agutin, Leonid - Cosmopolitan Life.wav
     Пиковый уровень 99.9 %
     Качество диапазона 100.0 %
     CRC 02BD6533
     Копирование... OK
Ошибок не произошло
Конец отчёта
Код:
REM GENRE Jazz
REM DATE 2005
REM DISCID 7D0B030A
REM COMMENT "ExactAudioCopy v0.95b4"
PERFORMER " Al Di Meola & Agutin, Leonid"
TITLE "Cosmopolitan Life"
FILE "Al Di Meola & Agutin, Leonid - Cosmopolitan Life.wav" WAVE
  TRACK 01 AUDIO
    TITLE "Cuba Africa"
    PERFORMER " Al Di Meola & Agutin, Leonid"
    INDEX 01 00:00:00
  TRACK 02 AUDIO
    TITLE "Cosmopolitan Life"
    PERFORMER " Al Di Meola & Agutin, Leonid"
    INDEX 01 05:34:47
  TRACK 03 AUDIO
    TITLE "Nobody"
    PERFORMER " Al Di Meola & Agutin, Leonid"
    INDEX 01 09:44:05
  TRACK 04 AUDIO
    TITLE "Price to Learn"
    PERFORMER " Al Di Meola & Agutin, Leonid"
    INDEX 01 14:31:25
  TRACK 05 AUDIO
    TITLE "Tango"
    PERFORMER " Al Di Meola & Agutin, Leonid"
    INDEX 01 19:59:20
  TRACK 06 AUDIO
    TITLE "Smile"
    PERFORMER " Al Di Meola & Agutin, Leonid"
    INDEX 01 23:53:70
  TRACK 07 AUDIO
    TITLE "Portofino"
    PERFORMER " Al Di Meola & Agutin, Leonid"
    INDEX 01 28:13:62
  TRACK 08 AUDIO
    TITLE "If I'll Get a Chance..."
    PERFORMER " Al Di Meola & Agutin, Leonid"
    INDEX 01 31:50:62
  TRACK 09 AUDIO
    TITLE "Blue River"
    PERFORMER " Al Di Meola & Agutin, Leonid"
    INDEX 01 35:58:27
  TRACK 10 AUDIO
    TITLE "Shade of Your World"
    PERFORMER " Al Di Meola & Agutin, Leonid"
    INDEX 01 40:42:47
Ал Ди Меола - легендарный американский джазовый гитарист, лауреат множества музыкальных наград, в том числе и «Грэмми». Леонид Агутин также любим критиками и в представлении не нуждается. Альбом «Cosmopolitan Life», записанный в 2005 году, уверенно держался несколько месяцев в «горячих джазовых десятках» Европы и Америки и был назван «музыкальным мостом между культурами»...
Ди Меола выступает здесь в качестве аранжировщика и соло-гитариста, Агутин - в роли автора песен. Стиль - элегантный фьюжн с легко выделяемой латино-составляющей. Какие-то неожиданные отступления от уютной и стильной накатанной колеи демонстрирует лишь финальная "Shadow Of Your World" с диагональными пробежками по органной клавиатуре и грозными гитарными проигрышами между куплетами. Акустическая ритм-гитара Леонида чиста и безукоризненна, соло Эла - вообще верх совершенства и сдержанности. Все песни спеты по-английски, лишь в задумчивой "If I'll Get A Chance...", зажигательной "Tango" и уже упомнавшейся "Blue River" проскакивают две-три русские фразы.
Download / Скачать

Хотите скачать бесплатно? Зарегистрируйтесь на сайте (ссылка на регистрацию). Pirat.ca - самый быстрый торрент трекер в рунете!

Как скачивать  ·   Что такое торрент  ·   Рейтинг и ограничения

Показать сообщения:    
Ответить на тему

Текущее время: Сегодня 15:49

Часовой пояс: GMT + 4



Вы не можете начинать темы
Вы не можете отвечать на сообщения
Вы не можете редактировать свои сообщения
Вы не можете удалять свои сообщения
Вы не можете голосовать в опросах
Вы не можете прикреплять файлы к сообщениям
Вы не можете скачивать файлы

Майнать ▼