(Chanson) Жека (Евгений Григорьев) - Лучшее (2CD) - 2013 [FLAC, image+.cue, lossless]

Ответить на тему
 
Автор
Сообщение

Пост 21-Июл-2014 22:05

[Q] 

шарик-off

-Жека (Евгений Григорьев) / Лучшее (2CD)-- Год издания: 2013
Страна: Россия
Жанр: Chanson
Продолжительность: 02:39:13-Лейбл издания: Топ Саунд
Тип альбома: 2хCD
Страна-выпуска диска: Россия
Номер по каталогу: 32267-1/2
Источник (релизер): NikSerGei (собственный рип)-Формат: FLAC
Битрейт аудио: lossless
Тип рипа: image+.cue
Наличие сканов в содержимом раздачи: да-
01. П.М.Ж.
02. Дорога в никуда
03. Вдыхая друг друга
04. Баллада о первом встречном
05. Остывший чай (Про нас)
06. Когда не нужно лишних слов
07. Кукушка
08. Между небом и землёй
09. Играет Дассен
10. Рюмка водки на столе
11. Плавно падает снег
12. Журавли
13. Я, как осенний лист
14. Журавли
15. Бедная душа
16. Жребий
17. Лена
18. Веснушки
19. Байкал
Код:
Exact Audio Copy V1.0 beta 3 from 29. August 2011
Отчёт EAC об извлечении, выполненном 16. ноября 2013, 18:21
Жека / Лучшее. CD 1
Дисковод: PIONEER BD-RW   BDR-207   Adapter: 3  ID: 0
Режим чтения                 : Достоверность
Использование точного потока : Да
Отключение кэша аудио        : Да
Использование указателей C2  : Нет
Коррекция смещения при чтении                     : 667
Способность читать области Lead-in и Lead-out     : Нет
Заполнение пропущенных сэмплов тишиной            : Да
Удаление блоков с тишиной в начале и конце        : Нет
При вычислениях CRC использовались нулевые сэмплы : Да
Интерфейс                                         : Установленный внешний ASPI-интерфейс
Выходной формат          : Пользовательский кодировщик
Выбранный битрейт        : 896 kBit/s
Качество                 : Высокий
Добавление ID3-тега      : Нет
Утилита сжатия           : C:\Program Files (x86)\Exact Audio Copy\Flac\flac.exe
Дополнительные параметры : -V -8 -T "Date=%year%" -T "Genre=%genre%" %source%
TOC извлечённого CD
     Трек |   Старт  | Длительность | Начальный сектор | Конечный сектор
    ---------------------------------------------------------------------
       1  |  0:00.00 |    4:30.70   |           0      |      20319
       2  |  4:30.70 |    4:05.13   |       20320      |      38707
       3  |  8:36.08 |    3:42.34   |       38708      |      55391
       4  | 12:18.42 |    4:35.11   |       55392      |      76027
       5  | 16:53.53 |    4:43.74   |       76028      |      97326
       6  | 21:37.52 |    3:59.74   |       97327      |     115325
       7  | 25:37.51 |    4:52.68   |      115326      |     137293
       8  | 30:30.44 |    3:51.72   |      137294      |     154690
       9  | 34:22.41 |    4:15.00   |      154691      |     173815
      10  | 38:37.41 |    4:27.70   |      173816      |     193910
      11  | 43:05.36 |    4:12.72   |      193911      |     212882
      12  | 47:18.33 |    4:43.06   |      212883      |     234113
      13  | 52:01.39 |    4:36.10   |      234114      |     254823
      14  | 56:37.49 |    4:18.43   |      254824      |     274216
      15  | 60:56.17 |    4:22.00   |      274217      |     293866
      16  | 65:18.17 |    4:15.65   |      293867      |     313056
      17  | 69:34.07 |    3:50.05   |      313057      |     330311
      18  | 73:24.12 |    3:06.09   |      330312      |     344270
      19  | 76:30.21 |    3:26.02   |      344271      |     359722
Характеристики диапазона извлечения и сообщения об ошибках
Выбранный диапазон
     Имя файла G:\lossless\Жека\Жека - Лучшее - 2 CD - 2013\CD 1\Жека - Лучшее. CD 1.wav
     Пиковый уровень 100.0 %
     Скорость извлечения 8.1 X
     Качество диапазона 100.0 %
     CRC теста 4C75F146
     CRC копии 4C75F146
     Копирование... OK
Ошибок не произошло
AccurateRip: сводка
Трек  1  отсутствует в базе данных
Трек  2  отсутствует в базе данных
Трек  3  отсутствует в базе данных
Трек  4  отсутствует в базе данных
Трек  5  отсутствует в базе данных
Трек  6  отсутствует в базе данных
Трек  7  отсутствует в базе данных
Трек  8  отсутствует в базе данных
Трек  9  отсутствует в базе данных
Трек 10  отсутствует в базе данных
Трек 11  отсутствует в базе данных
Трек 12  отсутствует в базе данных
Трек 13  отсутствует в базе данных
Трек 14  отсутствует в базе данных
Трек 15  отсутствует в базе данных
Трек 16  отсутствует в базе данных
Трек 17  отсутствует в базе данных
Трек 18  отсутствует в базе данных
Трек 19  отсутствует в базе данных
Ни одного трека нет в базе AccurateRip
Конец отчёта
==== Контрольная сумма отчёта FD3F3C4411CF653123C9CF9362D9F54157656A988096C6886C41E517F4CD79AB ====
Код:
REM GENRE Chanson
REM DATE 2013
REM DISCID 1B12BC13
REM COMMENT "ExactAudioCopy v1.0b3"
PERFORMER "Жека"
TITLE "Лучшее. CD 1"
FILE "Жека - Лучшее. CD 1.flac" WAVE
  TRACK 01 AUDIO
    TITLE "П.М.Ж."
    PERFORMER "Жека"
    FLAGS DCP
    INDEX 01 00:00:00
  TRACK 02 AUDIO
    TITLE "Дорога в никуда"
    PERFORMER "Жека"
    FLAGS DCP
    INDEX 01 04:30:70
  TRACK 03 AUDIO
    TITLE "Вдыхая друг друга"
    PERFORMER "Жека"
    FLAGS DCP
    INDEX 01 08:36:08
  TRACK 04 AUDIO
    TITLE "Баллада о первом встречном"
    PERFORMER "Жека"
    FLAGS DCP
    INDEX 01 12:18:42
  TRACK 05 AUDIO
    TITLE "Остывший чай (Про нас)"
    PERFORMER "Жека"
    FLAGS DCP
    INDEX 01 16:53:53
  TRACK 06 AUDIO
    TITLE "Когда не нужно лишних слов"
    PERFORMER "Жека"
    FLAGS DCP
    INDEX 01 21:37:52
  TRACK 07 AUDIO
    TITLE "Кукушка"
    PERFORMER "Жека"
    FLAGS DCP
    INDEX 01 25:37:51
  TRACK 08 AUDIO
    TITLE "Между небом и землёй"
    PERFORMER "Жека"
    FLAGS DCP
    INDEX 01 30:30:44
  TRACK 09 AUDIO
    TITLE "Играет Дассен"
    PERFORMER "Жека"
    FLAGS DCP
    INDEX 01 34:22:41
  TRACK 10 AUDIO
    TITLE "Рюмка водки на столе"
    PERFORMER "Жека"
    FLAGS DCP
    INDEX 01 38:37:41
  TRACK 11 AUDIO
    TITLE "Плавно падает снег"
    PERFORMER "Жека"
    FLAGS DCP
    INDEX 01 43:05:36
  TRACK 12 AUDIO
    TITLE "Журавли"
    PERFORMER "Жека"
    FLAGS DCP
    INDEX 01 47:18:33
  TRACK 13 AUDIO
    TITLE "Я, как осенний лист"
    PERFORMER "Жека"
    FLAGS DCP
    INDEX 01 52:01:39
  TRACK 14 AUDIO
    TITLE "Одинаковые сны"
    PERFORMER "Жека"
    FLAGS DCP
    INDEX 01 56:37:49
  TRACK 15 AUDIO
    TITLE "Бедная душа"
    PERFORMER "Жека"
    FLAGS DCP
    INDEX 01 60:56:17
  TRACK 16 AUDIO
    TITLE "Жребий"
    PERFORMER "Жека"
    FLAGS DCP
    INDEX 01 65:18:17
  TRACK 17 AUDIO
    TITLE "Лена"
    PERFORMER "Жека"
    FLAGS DCP
    INDEX 01 69:34:07
  TRACK 18 AUDIO
    TITLE "Веснушки"
    PERFORMER "Жека"
    FLAGS DCP
    INDEX 01 73:24:12
  TRACK 19 AUDIO
    TITLE "Байкал"
    PERFORMER "Жека"
    FLAGS DCP
    INDEX 01 76:30:21
Код:
AUDIOCHECKER v2.0 beta (build 457) - by Dester - [email protected]
~~~~~~~~~~~~~~~~~~~~~~~~~~~~~~~~~~
-=== НЕ РЕДАКТИРУЙТЕ ЭТОТ ФАЙЛ! ===-
Путь: ...\CD 1
1 -=- Жека - Лучшее. CD 1.flac -=- CDDA (100%)
93705636
-
01. Просто
02. Без любви
03. Растревоженная птица
04. Глаза бедовые
05. Молитва
06. Ля-минор
07. Лебеда
08. Синева
09. Таксист
10. Гололёд
11. Золотко
12. По нулям
13. Купола
14. Скоро, скоро
15. Все как люди
16. Курган
17. Капитал
18. Сосны-кедры
19. Прости
Код:
Exact Audio Copy V1.0 beta 3 from 29. August 2011
Отчёт EAC об извлечении, выполненном 16. ноября 2013, 19:52
Жека / Лучшее. CD 2
Дисковод: PIONEER BD-RW   BDR-207   Adapter: 3  ID: 0
Режим чтения                 : Достоверность
Использование точного потока : Да
Отключение кэша аудио        : Да
Использование указателей C2  : Нет
Коррекция смещения при чтении                     : 667
Способность читать области Lead-in и Lead-out     : Нет
Заполнение пропущенных сэмплов тишиной            : Да
Удаление блоков с тишиной в начале и конце        : Нет
При вычислениях CRC использовались нулевые сэмплы : Да
Интерфейс                                         : Установленный внешний ASPI-интерфейс
Выходной формат          : Пользовательский кодировщик
Выбранный битрейт        : 896 kBit/s
Качество                 : Высокий
Добавление ID3-тега      : Нет
Утилита сжатия           : C:\Program Files (x86)\Exact Audio Copy\Flac\flac.exe
Дополнительные параметры : -V -8 -T "Date=%year%" -T "Genre=%genre%" %source%
TOC извлечённого CD
     Трек |   Старт  | Длительность | Начальный сектор | Конечный сектор
    ---------------------------------------------------------------------
       1  |  0:00.00 |    4:28.29   |           0      |      20128
       2  |  4:28.29 |    4:44.35   |       20129      |      41463
       3  |  9:12.64 |    4:42.31   |       41464      |      62644
       4  | 13:55.20 |    4:21.25   |       62645      |      82244
       5  | 18:16.45 |    4:20.17   |       82245      |     101761
       6  | 22:36.62 |    4:15.38   |      101762      |     120924
       7  | 26:52.25 |    4:19.74   |      120925      |     140423
       8  | 31:12.24 |    3:23.06   |      140424      |     155654
       9  | 34:35.30 |    3:41.05   |      155655      |     172234
      10  | 38:16.35 |    3:52.00   |      172235      |     189634
      11  | 42:08.35 |    4:46.44   |      189635      |     211128
      12  | 46:55.04 |    4:50.43   |      211129      |     232921
      13  | 51:45.47 |    4:19.00   |      232922      |     252346
      14  | 56:04.47 |    2:56.57   |      252347      |     265603
      15  | 59:01.29 |    3:43.02   |      265604      |     282330
      16  | 62:44.31 |    3:34.00   |      282331      |     298380
      17  | 66:18.31 |    3:42.37   |      298381      |     315067
      18  | 70:00.68 |    4:21.00   |      315068      |     334642
      19  | 74:21.68 |    4:54.64   |      334643      |     356756
Характеристики диапазона извлечения и сообщения об ошибках
Выбранный диапазон
     Имя файла G:\lossless\Жека\Жека - Лучшее - 2 CD - 2013\CD 2\Жека - Лучшее. CD 2.wav
     Пиковый уровень 99.3 %
     Скорость извлечения 8.1 X
     Качество диапазона 100.0 %
     CRC теста E1BFE2DA
     CRC копии E1BFE2DA
     Копирование... OK
Ошибок не произошло
AccurateRip: сводка
Трек  1  отсутствует в базе данных
Трек  2  отсутствует в базе данных
Трек  3  отсутствует в базе данных
Трек  4  отсутствует в базе данных
Трек  5  отсутствует в базе данных
Трек  6  отсутствует в базе данных
Трек  7  отсутствует в базе данных
Трек  8  отсутствует в базе данных
Трек  9  отсутствует в базе данных
Трек 10  отсутствует в базе данных
Трек 11  отсутствует в базе данных
Трек 12  отсутствует в базе данных
Трек 13  отсутствует в базе данных
Трек 14  отсутствует в базе данных
Трек 15  отсутствует в базе данных
Трек 16  отсутствует в базе данных
Трек 17  отсутствует в базе данных
Трек 18  отсутствует в базе данных
Трек 19  отсутствует в базе данных
Ни одного трека нет в базе AccurateRip
Конец отчёта
==== Контрольная сумма отчёта 0FF01B6AAEDE1D41BFC855312755216FFFD976B644DB73AFF1E4F10B7B3F3F10 ====
Код:
REM GENRE Chanson
REM DATE 2013
REM DISCID 1F129413
REM COMMENT "ExactAudioCopy v1.0b3"
PERFORMER "Жека"
TITLE "Лучшее. CD 2"
FILE "Жека - Лучшее. CD 2.flac" WAVE
  TRACK 01 AUDIO
    TITLE "Просто"
    PERFORMER "Жека"
    FLAGS DCP
    INDEX 01 00:00:00
  TRACK 02 AUDIO
    TITLE "Без любви"
    PERFORMER "Жека"
    FLAGS DCP
    INDEX 00 04:26:29
    INDEX 01 04:28:29
  TRACK 03 AUDIO
    TITLE "Растревоженная птица"
    PERFORMER "Жека"
    FLAGS DCP
    INDEX 00 09:10:64
    INDEX 01 09:12:64
  TRACK 04 AUDIO
    TITLE "Глаза бедовые"
    PERFORMER "Жека"
    FLAGS DCP
    INDEX 00 13:53:20
    INDEX 01 13:55:20
  TRACK 05 AUDIO
    TITLE "Молитва"
    PERFORMER "Жека"
    FLAGS DCP
    INDEX 00 18:14:45
    INDEX 01 18:16:45
  TRACK 06 AUDIO
    TITLE "Ля-минор"
    PERFORMER "Жека"
    FLAGS DCP
    INDEX 00 22:34:62
    INDEX 01 22:36:62
  TRACK 07 AUDIO
    TITLE "Лебеда"
    PERFORMER "Жека"
    FLAGS DCP
    INDEX 00 26:50:25
    INDEX 01 26:52:25
  TRACK 08 AUDIO
    TITLE "Синева"
    PERFORMER "Жека"
    FLAGS DCP
    INDEX 00 31:10:24
    INDEX 01 31:12:24
  TRACK 09 AUDIO
    TITLE "Таксист"
    PERFORMER "Жека"
    FLAGS DCP
    INDEX 00 34:33:30
    INDEX 01 34:35:30
  TRACK 10 AUDIO
    TITLE "Гололёд"
    PERFORMER "Жека"
    FLAGS DCP
    INDEX 00 38:14:35
    INDEX 01 38:16:35
  TRACK 11 AUDIO
    TITLE "Золотко"
    PERFORMER "Жека"
    FLAGS DCP
    INDEX 00 42:06:35
    INDEX 01 42:08:35
  TRACK 12 AUDIO
    TITLE "По нулям"
    PERFORMER "Жека"
    FLAGS DCP
    INDEX 00 46:53:04
    INDEX 01 46:55:04
  TRACK 13 AUDIO
    TITLE "Купола"
    PERFORMER "Жека"
    FLAGS DCP
    INDEX 00 51:43:47
    INDEX 01 51:45:47
  TRACK 14 AUDIO
    TITLE "Скоро, скоро"
    PERFORMER "Жека"
    FLAGS DCP
    INDEX 00 56:02:47
    INDEX 01 56:04:47
  TRACK 15 AUDIO
    TITLE "Все как люди"
    PERFORMER "Жека"
    FLAGS DCP
    INDEX 00 58:59:29
    INDEX 01 59:01:29
  TRACK 16 AUDIO
    TITLE "Курган"
    PERFORMER "Жека"
    FLAGS DCP
    INDEX 00 62:42:31
    INDEX 01 62:44:31
  TRACK 17 AUDIO
    TITLE "Капитал"
    PERFORMER "Жека"
    FLAGS DCP
    INDEX 00 66:16:31
    INDEX 01 66:18:31
  TRACK 18 AUDIO
    TITLE "Сосны-кедры"
    PERFORMER "Жека"
    FLAGS DCP
    INDEX 00 69:58:68
    INDEX 01 70:00:68
  TRACK 19 AUDIO
    TITLE "Прости"
    PERFORMER "Жека"
    FLAGS DCP
    INDEX 00 74:19:68
    INDEX 01 74:21:68
Код:
AUDIOCHECKER v2.0 beta (build 457) - by Dester - [email protected]
~~~~~~~~~~~~~~~~~~~~~~~~~~~~~~~~~~
-=== НЕ РЕДАКТИРУЙТЕ ЭТОТ ФАЙЛ! ===-
Путь: ...\CD 2
1 -=- Жека - Лучшее. CD 2.flac -=- CDDA (100%)
95126948
-
Григорьев Евгений Геннадьевич (14 октября 1966 г.р.) - исполнитель шансона, композитор и музыкант, более известный под творческим псевдонимом Жека, обладатель ряда наград, присуждаемых исполнителям в этом жанре...
-
Download / Скачать

Хотите скачать бесплатно? Зарегистрируйтесь на сайте (ссылка на регистрацию). Pirat.ca - самый быстрый торрент трекер в рунете!

Как скачивать  ·   Что такое торрент  ·   Рейтинг и ограничения

Показать сообщения:    
Ответить на тему

Текущее время: Сегодня 21:28

Часовой пояс: GMT + 4



Вы не можете начинать темы
Вы не можете отвечать на сообщения
Вы не можете редактировать свои сообщения
Вы не можете удалять свои сообщения
Вы не можете голосовать в опросах
Вы не можете прикреплять файлы к сообщениям
Вы не можете скачивать файлы

Майнать ▼