Шерлок Холмс / Sherlock Holmes (Гай Ричи) [2009 г., Боевик, триллер, комедия, драма, приключения, криминал, детектив, BDRip, 720p] (Dub)

Ответить на тему
 
Автор
Сообщение

Пост 22-Дек-2011 20:34

[Q] 

goxakrauter

Шерлок Холмс / Sherlock Holmes- Год выпуска: 2009
Страна: США, Village Roadshow Pictures
Жанр: Боевик, триллер, комедия, драма, приключения, криминал, детектив
Продолжительность: 02:08:24
Перевод: Профессиональный (полное дублирование)-Режиссер: Гай Ричи / Guy Ritchie
В ролях: Роберт Дауни мл., Джуд Лоу, Рэйчел МакАдамс, Марк Стронг, Эдди Марсан, Роберт Мэйллет, Джеральдин Джеймс, Келли Райлли, Уильям Хьюстон, Хэнс Мэтисон-Описание: Величайший в истории сыщик Шерлок Холмс вместе со своим верным соратником Ватсоном вступают в схватку, требующую нешуточной физической и умственной подготовки, ведь их враг представляет угрозу для всего Лондона.-Перепаковано с: BDRip
Кодек: Н 264
Формат: MPEG-4 (mp4)
Разрешение: 1280x720
Видео: MPEG4 Video (H264) 1280x720 23.98fps
Аудио: AAC 48000Hz stereo 160 Kbps - Русский
Вшитая обложка: есть
Доп. теги (режиссёр, актёры и т.д.): прописаны-



General
Complete name : M:\ipod\Sherlok.Holms.2009.x264.BDRip.(720p).mp4
Format : MPEG-4
Format profile : Base Media
Codec ID : isom
File size : 3.29 GiB
Duration : 2h 8mn
Overall bit rate : 3 673 Kbps
Movie name : Шерлок Холмс / Sherlock Holmes
Performer : Гай Ричи / Guy Ritchie
Genre : Crime
Encoded date : 31 December 2009
Tagged date : UTC 2011-01-12 14:54:02
Cover : Yes
iTunEXTC : mpaa|PG-13|300|
iTunMOVI : <?xml version="1.0" encoding="UTF-8"?> / <!DOCTYPE plist PUBLIC "-//Apple//DTD PLIST 1.0//EN" "http://www.apple.com/DTDs/PropertyList-1.0.dtd"> / <plist version="1.0"> / <dict> / <key>directors</key> / <array> / <dict> / <key>name</key> / <string>Гай Ричи</string> / </dict> / </array> / <key>producers</key> / <array> / <dict> / <key>name</key> / <string>Брюс Берман</string> / </dict> / <dict> / <key>name</key> / <string>Дэна Голдберг</string> / </dict> / <dict> / <key>name</key> / <string>Стив Кларк-Холл</string> / </dict> / <dict> / <key>name</key> / <string>...</string> / </dict> / </array> / <key>screenwriters</key> / <array> / <dict> / <key>name</key> / <string>Майкл Роберт Джонсон</string> / </dict> / <dict> / <key>name</key> / <string>Энтони Пекэм</string> / </dict> / <dict> / <key>name</key> / <string>Саймон Кинберг</string> / </dict> / <dict> / <key>name</key> / <string>...</string> / </dict> / </array> / </dict> / </plist>
ldes : Величайший в истории сыщик Шерлок Холмс вместе со своим верным соратником Ватсоном вступают в схватку, требующую нешуточной физической и умственной подготовки, ведь их враг представляет угрозу для всего Лондона.
hdvd : 1
stik : 9
Video
ID : 1
Format : AVC
Format/Info : Advanced Video Codec
Format profile : High@L3.1
Format settings, CABAC : Yes
Format settings, ReFrames : 2 frames
Codec ID : avc1
Codec ID/Info : Advanced Video Coding
Duration : 2h 8mn
Bit rate mode : Variable
Bit rate : 3 506 Kbps
Maximum bit rate : 18.2 Mbps
Width : 1 280 pixels
Height : 720 pixels
Display aspect ratio : 16:9
Frame rate mode : Constant
Frame rate : 23.976 fps
Color space : YUV
Chroma subsampling : 4:2:0
Bit depth : 8 bits
Scan type : Progressive
Bits/(Pixel*Frame) : 0.159
Stream size : 3.15 GiB (95%)
Title : Imported with GPAC 0.4.6-DEV (build 1)
Writing library : x264 core 92 r1510 33d382a
Encoding settings : cabac=1 / ref=2 / deblock=1:-2:-1 / analyse=0x3:0x111 / me=umh / subme=9 / psy=1 / psy_rd=1.00:0.80 / mixed_ref=1 / me_range=24 / chroma_me=1 / trellis=2 / 8x8dct=1 / cqm=0 / deadzone=21,11 / fast_pskip=1 / chroma_qp_offset=-4 / threads=12 / sliced_threads=0 / nr=0 / decimate=1 / interlaced=0 / constrained_intra=0 / bframes=3 / b_pyramid=0 / b_adapt=0 / b_bias=0 / direct=1 / wpredb=1 / wpredp=2 / keyint=250 / keyint_min=25 / scenecut=40 / intra_refresh=0 / rc_lookahead=40 / rc=crf / mbtree=1 / crf=20.0 / qcomp=0.60 / qpmin=10 / qpmax=51 / qpstep=4 / ip_ratio=1.40 / aq=1:1.00
Encoded date : UTC 2011-01-11 14:08:19
Tagged date : UTC 2011-01-11 14:09:54
Audio
ID : 2
Format : AAC
Format/Info : Advanced Audio Codec
Format version : Version 4
Format profile : LC
Format settings, SBR : No
Codec ID : 40
Duration : 2h 8mn
Bit rate mode : Variable
Bit rate : 160 Kbps
Maximum bit rate : 265 Kbps
Channel(s) : 2 channels
Channel positions : Front: L R
Sampling rate : 48.0 KHz
Stream size : 147 MiB (4%)
Encoded date : UTC 2011-01-11 14:09:49
Tagged date : UTC 2011-01-11 14:09:54
-Релиз предназначен только для воспроизведения на iPhone 4, iPod Touch 4g и iPad
На более ранних поколениях девайсов Apple он не воспроизведётся!

По отзывам пользователей, фильм идет и на iPhone 3gs, но сам лично не проверял.-Описание Retina Display-Чтобы не было вопросов, объясняю: iPhone 4, iPod Touch 4 и iPad поддерживают видео H.264 с частотой развёртки до 720p, т.е. до 1280 x 720 пикселей.ссылка--
Download / Скачать

Хотите скачать бесплатно? Зарегистрируйтесь на сайте (ссылка на регистрацию). Pirat.ca - самый быстрый торрент трекер в рунете!

Как скачивать  ·   Что такое торрент  ·   Рейтинг и ограничения

jerri li

Лоцман

Пост 02-Янв-2012 21:04 (спустя 11 дней)

[Q] 

Спасибо!!!
[Профиль]  [ЛС] 

JohnWayne1

Лоцман

Пост 24-Янв-2012 19:56 (спустя 21 день)

[Q] 

Пасиб)
[Профиль]  [ЛС] 

maksssi

Корсар

Пост 17-Июн-2012 17:18 (спустя 4 месяца 23 дня)

[Q] 

Классный))
[Профиль]  [ЛС] 
Показать сообщения:    
Ответить на тему

Текущее время: Сегодня 19:48

Часовой пояс: GMT + 4



Вы не можете начинать темы
Вы не можете отвечать на сообщения
Вы не можете редактировать свои сообщения
Вы не можете удалять свои сообщения
Вы не можете голосовать в опросах
Вы не можете прикреплять файлы к сообщениям
Вы не можете скачивать файлы

Майнать ▼