Уважаемый Гость!
Вы можете поддержать проект и зарегистрироваться у наших партнеров - онлайн-стратегия MyLands. При регистрации в игре Вы получите код, который сможете активировать после регистрации на pirat.ca и получить 1000 дублонов.

Ваш код:
cbfc972db866f9f3df6a6fea4c2549cc4e2f5835
 
     

(Chanson) Стас Михайлов - СЕРИЯ «КОЛЛЕКЦИЯ Moroz Records» - Ты меня не отпускай - 2010, FLAC (image+.cue) , lossless

Ответить на тему
 
Автор
Сообщение

Пост 08-Янв-2012 20:31

[Q] 

Amethyst

Гроза морей

Стас Михайлов - СЕРИЯ «КОЛЛЕКЦИЯ Moroz Records» - Ты меня не отпускай Год выпуска: 2010
Страна: Россия
Жанр: Chanson
Лейбл издания: Moroz Records & КВАДРО
Страна-выпуска диска: Россия
Номер по каталогу: KTL10-382
Продолжительность: 01:18:36
Источник (релизер): Релиз STOJAKa
Формат: FLAC
Битрейт аудио: lossless
Тип рипа: image+.cue
Наличие сканов в содержимом раздачи: Да
01. "Жизнь - река (Музыка и слова Стас Михайлов)"
02. "Позывные на любовь (Музыка и слова Стас Михайлов)"
03. "Лети, душа (Музыка и слова Стас Михайлов)"
04. "Свеча (Музыка и слова Стас Михайлов)"
05. "Берега мечты (Музыка и слова Стас Михайлов)"
06. "Знай об этом (Музыка и слова Стас Михайлов)"
07. "Приди ко мне (Музыка и слова Стас Михайлов)"
08. "Ты меня не отпускай (Музыка и слова Стас Михайлов)"
09. "За воротами времени (С. Михайлов - С. Кононов)"
10. "Я верю (Музыка и слова Стас Михайлов)"
11. "Не вдвоём (Музыка и слова Стас Михайлов)"
12. "Уходим понемногу (С. Михайлов - С. Есенин)"
13. "Я помню (Музыка и слова Стас Михайлов)"
14. "Небеса (Музыка и слова Стас Михайлов)"
15. "Два сердца (Музыка и слова Стас Михайлов)"
16. "Прости (Музыка и слова Стас Михайлов)"
17. "Без тебя (Музыка и слова Стас Михайлов)"
18. "Ну вот и всё... (Музыка и слова Стас Михайлов)"
19. "Живой (Музыка и слова Стас Михайлов)"
Exact Audio Copy V1.0 beta 2 from 29. April 2011
Отчёт EAC об извлечении, выполненном 21. ноября 2011, 18:52
Стас Михайлов / СЕРИЯ «КОЛЛЕКЦИЯ Moroz Records» - Ты меня не отпускай
Дисковод: Optiarc DVD RW AD-7190A Adapter: 0 ID: 0
Режим чтения : Достоверность
Использование точного потока : Да
Отключение кэша аудио : Да
Использование указателей C2 : Нет
Коррекция смещения при чтении : 6
Способность читать области Lead-in и Lead-out : Нет
Заполнение пропущенных сэмплов тишиной : Да
Удаление блоков с тишиной в начале и конце : Нет
При вычислениях CRC использовались нулевые сэмплы : Да
Интерфейс : Встроенный Win32-интерфейс для Win NT/2000
Выходной формат : Внутренние WAV-операции
Формат сэмплов : 44.100 Гц; 16 бит; стерео
TOC извлечённого CD
Трек | Старт | Длительность | Начальный сектор | Конечный сектор
---------------------------------------------------------------------
1 | 0:00.00 | 4:32.04 | 0 | 20403
2 | 4:32.04 | 3:22.26 | 20404 | 35579
3 | 7:54.30 | 3:37.35 | 35580 | 51889
4 | 11:31.65 | 3:58.12 | 51890 | 69751
5 | 15:30.02 | 3:52.55 | 69752 | 87206
6 | 19:22.57 | 3:41.07 | 87207 | 103788
7 | 23:03.64 | 4:20.41 | 103789 | 123329
8 | 27:24.30 | 3:01.24 | 123330 | 136928
9 | 30:25.54 | 3:37.46 | 136929 | 153249
10 | 34:03.25 | 3:50.15 | 153250 | 170514
11 | 37:53.40 | 3:57.30 | 170515 | 188319
12 | 41:50.70 | 4:15.17 | 188320 | 207461
13 | 46:06.12 | 4:50.53 | 207462 | 229264
14 | 50:56.65 | 5:29.59 | 229265 | 253998
15 | 56:26.49 | 3:26.38 | 253999 | 269486
16 | 59:53.12 | 4:21.38 | 269487 | 289099
17 | 64:14.50 | 4:22.71 | 289100 | 308820
18 | 68:37.46 | 4:07.72 | 308821 | 327417
19 | 72:45.43 | 5:50.32 | 327418 | 353699
Характеристики диапазона извлечения и сообщения об ошибках
Выбранный диапазон
Имя файла J:\ШАНСОН\SCHANSON [SBORNIKI] LOSSLESS\СЕРИЯ «КОЛЛЕКЦИЯ Moroz Records» (с) 2010-2011 [10CD]\04 Стас Михайлов - Ты меня не отпускай (2010)\Стас Михайлов - СЕРИЯ «КОЛЛЕКЦИЯ Moroz Records» - Ты меня не отпускай.wav
Пиковый уровень 98.3 %
Скорость извлечения 4.1 X
Качество диапазона 100.0 %
CRC теста 3EFE89BC
CRC копии 3EFE89BC
Копирование... OK
Ошибок не произошло
AccurateRip: сводка
Трек 1 отсутствует в базе данных
Трек 2 отсутствует в базе данных
Трек 3 отсутствует в базе данных
Трек 4 отсутствует в базе данных
Трек 5 отсутствует в базе данных
Трек 6 отсутствует в базе данных
Трек 7 отсутствует в базе данных
Трек 8 отсутствует в базе данных
Трек 9 отсутствует в базе данных
Трек 10 отсутствует в базе данных
Трек 11 отсутствует в базе данных
Трек 12 отсутствует в базе данных
Трек 13 отсутствует в базе данных
Трек 14 отсутствует в базе данных
Трек 15 отсутствует в базе данных
Трек 16 отсутствует в базе данных
Трек 17 отсутствует в базе данных
Трек 18 отсутствует в базе данных
Трек 19 отсутствует в базе данных
Ни одного трека нет в базе AccurateRip
Конец отчёта
==== Контрольная сумма отчёта BBB49D33609C81B66FD859131AAE1724DFCD0D620EF5901288BA312125647E17 ====
REM GENRE Pop
REM DATE 2010
REM DISCID 32126C13
REM COMMENT "ExactAudioCopy v1.0b2"
PERFORMER "Стас Михайлов"
TITLE "СЕРИЯ «КОЛЛЕКЦИЯ Moroz Records» - Ты меня не отпускай"
FILE "Стас Михайлов - СЕРИЯ «КОЛЛЕКЦИЯ Moroz Records» - Ты меня не отпускай.flac" WAVE
TRACK 01 AUDIO
TITLE "Жизнь - река (Музыка и слова Стас Михайлов)"
PERFORMER "Стас Михайлов"
INDEX 01 00:00:00
TRACK 02 AUDIO
TITLE "Позывные на любовь (Музыка и слова Стас Михайлов)"
PERFORMER "Стас Михайлов"
INDEX 00 04:30:04
INDEX 01 04:32:04
TRACK 03 AUDIO
TITLE "Лети, душа (Музыка и слова Стас Михайлов)"
PERFORMER "Стас Михайлов"
INDEX 00 07:52:30
INDEX 01 07:54:30
TRACK 04 AUDIO
TITLE "Свеча (Музыка и слова Стас Михайлов)"
PERFORMER "Стас Михайлов"
INDEX 00 11:29:65
INDEX 01 11:31:65
TRACK 05 AUDIO
TITLE "Берега мечты (Музыка и слова Стас Михайлов)"
PERFORMER "Стас Михайлов"
INDEX 00 15:28:02
INDEX 01 15:30:02
TRACK 06 AUDIO
TITLE "Знай об этом (Музыка и слова Стас Михайлов)"
PERFORMER "Стас Михайлов"
INDEX 00 19:20:57
INDEX 01 19:22:57
TRACK 07 AUDIO
TITLE "Приди ко мне (Музыка и слова Стас Михайлов)"
PERFORMER "Стас Михайлов"
INDEX 00 23:01:64
INDEX 01 23:03:64
TRACK 08 AUDIO
TITLE "Ты меня не отпускай (Музыка и слова Стас Михайлов)"
PERFORMER "Стас Михайлов"
INDEX 00 27:22:30
INDEX 01 27:24:30
TRACK 09 AUDIO
TITLE "За воротами времени (С. Михайлов - С. Кононов)"
PERFORMER "Стас Михайлов"
INDEX 00 30:23:54
INDEX 01 30:25:54
TRACK 10 AUDIO
TITLE "Я верю (Музыка и слова Стас Михайлов)"
PERFORMER "Стас Михайлов"
INDEX 00 34:01:25
INDEX 01 34:03:25
TRACK 11 AUDIO
TITLE "Не вдвоём (Музыка и слова Стас Михайлов)"
PERFORMER "Стас Михайлов"
INDEX 00 37:51:40
INDEX 01 37:53:40
TRACK 12 AUDIO
TITLE "Уходим понемногу (С. Михайлов - С. Есенин)"
PERFORMER "Стас Михайлов"
INDEX 00 41:48:70
INDEX 01 41:50:70
TRACK 13 AUDIO
TITLE "Я помню (Музыка и слова Стас Михайлов)"
PERFORMER "Стас Михайлов"
INDEX 00 46:04:12
INDEX 01 46:06:12
TRACK 14 AUDIO
TITLE "Небеса (Музыка и слова Стас Михайлов)"
PERFORMER "Стас Михайлов"
INDEX 00 50:54:65
INDEX 01 50:56:65
TRACK 15 AUDIO
TITLE "Два сердца (Музыка и слова Стас Михайлов)"
PERFORMER "Стас Михайлов"
INDEX 00 56:24:49
INDEX 01 56:26:49
TRACK 16 AUDIO
TITLE "Прости (Музыка и слова Стас Михайлов)"
PERFORMER "Стас Михайлов"
INDEX 00 59:51:12
INDEX 01 59:53:12
TRACK 17 AUDIO
TITLE "Без тебя (Музыка и слова Стас Михайлов)"
PERFORMER "Стас Михайлов"
INDEX 00 64:12:50
INDEX 01 64:14:50
TRACK 18 AUDIO
TITLE "Ну вот и всё... (Музыка и слова Стас Михайлов)"
PERFORMER "Стас Михайлов"
INDEX 00 68:35:46
INDEX 01 68:37:46
TRACK 19 AUDIO
TITLE "Живой (Музыка и слова Стас Михайлов)"
PERFORMER "Стас Михайлов"
INDEX 00 72:43:43
INDEX 01 72:45:43
AUDIOCHECKER v2.0 beta (build 457) - by Dester - [email protected]
~~~~~~~~~~~~~~~~~~~~~~~~~~~~~~~~~~
-=== DO NOT EDIT THIS FILE! ===-
Path: ...\04 Стас Михайлов - Ты меня не отпускай (2010)
1 -=- Стас Михайлов - СЕРИЯ «КОЛЛЕКЦИЯ Moroz Records» - Ты меня не отпускай.wav -=- CDDA (100%)
27593636

Стас Михайлов удостоен звания Заслуженный артист России 30 декабря 2010 года Президент Российской Федерации Дмитрий Анатольевич Медведев подписал Указ о присвоении Михайлову Станиславу Владимировичу почетного звания Заслуженный артист России.
Краткая биография:
Станислав Владимирович Михайлов (сценическое имя Стас Михайлов; 27 апреля 1969, Сочи) — российский эстрадный певец, поэт и композитор, заслуженный артист Российской Федерации (2010). Лауреат премий «Артист года» (Радио Шансон), «Золотой Граммофон» (Русское радио) и ежегодного фестиваля «Песня года»».
Кстати сказать, Стас Михайлов в 2010 году стал и самым издаваемым исполнителем – издана антология, включающая в себя 16 дисков (10 CD + 3 mp3 + 3 DVD), куда вошли, как и полновесные альбомы, так и концертные версии известных песен. Кроме того, что у автора-исполнителя регулярно издаются номерные альбомы, в Кремле состоялся сольный концерт Стаса Михайлова, который был показан на первом канале российского телевидения.
Издание содержит 42-страничный буклет-книгу, размером 28,5 х 28,5 см, с фотографиями, текстами песен и дополнительной информацией на русском языке, а также пакет с фотографией Стаса Михайлова.
Download / Скачать

Хотите скачать бесплатно? Зарегистрируйтесь на сайте (ссылка на регистрацию). Pirat.ca - самый быстрый торрент трекер в рунете!

Как скачивать  ·   Что такое торрент  ·   Рейтинг и ограничения



Последний раз редактировалось: Amethyst (2012-09-10 00:53), всего редактировалось 1 раз

Blaind

Корсар

37

Пост 04-Фев-2012 10:38 (спустя 26 дней)

[Q] 


_________________
[Профиль]  [ЛС] 

kondi

Пост 29-Сен-2014 20:18 (спустя 2 года 7 месяцев)

[Q] 

Раздающему респект!
[Профиль]  [ЛС] 
Показать сообщения:    
Ответить на тему

Текущее время: Сегодня 07:53

Часовой пояс: GMT + 4



Вы не можете начинать темы
Вы не можете отвечать на сообщения
Вы не можете редактировать свои сообщения
Вы не можете удалять свои сообщения
Вы не можете голосовать в опросах
Вы не можете прикреплять файлы к сообщениям
Вы не можете скачивать файлы

▼ Вниз