Уважаемый Гость!
Вы можете поддержать проект и зарегистрироваться у наших партнеров - онлайн-стратегия MyLands. При регистрации в игре Вы получите код, который сможете активировать после регистрации на pirat.ca и получить 1000 дублонов.

Ваш код:
ec290ec549f2f2f89d4dac9cc791f2318d3b9b40
 
     

(Chanson,pop) Сборная Cоюза - Единственная и неповторимая - 2012 [FLAC, image+.cue, lossless]

Ответить на тему
 
Автор
Сообщение

Пост 13-Ноя-2012 15:23

[Q] 

sergej644

-Сборная Cоюза - Единственная и неповторимая- -Страна: Россия || Жанр: Chanson,Pop || Год выпуска: 2012 || Формат: FLAC (image + .cue) || Битрейт аудио: lossless || Продолжительность: 00:55:57-Трэклист:-
01. Поговорим да помолчим (03:54)
02. Возьму и не спрошу (03:58)
03. Мне с тобою повезло (03:39)
04. Единственная и неповторимая (03:33)
05. Я буду твоим (03:41)
06. Знаю (03:51)
07. Непогода (03:20)
08. Букет сирени (03:42)
09. Улетай (03:42)
10. Однажды (03:59)
11. Вот и свиделись (03:41)
12. Недотрога (03:48)
13. Что-то у нас не так (03:52)
14. Ради нашей любви (03:25)
15. Женщина свободная (03:45)
-Тех.информация:-
Код:
Exact Audio Copy V0.99 prebeta 5 from 4. May 2009
Отчёт EAC об извлечении, выполненном 11. ноября 2012, 3:20
Сборная союза / Единственная и неповторимая
Дисковод: Optiarc DVD RW AD-5200S   Adapter: 1  ID: 1
Режим чтения                 : Достоверность
Использование точного потока : Да
Отключение кэша аудио        : Да
Использование указателей C2  : Нет
Коррекция смещения при чтении                     : 48
Способность читать области Lead-in и Lead-out     : Нет
Заполнение пропущенных сэмплов тишиной            : Да
Удаление блоков с тишиной в начале и конце        : Нет
При вычислениях CRC использовались нулевые сэмплы : Да
Интерфейс                                         : Встроенный Win32-интерфейс для Win NT/2000
Выходной формат          : Пользовательский кодировщик
Выбранный битрейт        : 1024 kBit/s
Качество                 : Высокий
Добавление ID3-тэга      : Нет
Утилита сжатия           : C:\Program Files\Exact Audio Copy\Flac\flac.exe
Дополнительные параметры : -T "DATE=%y" -T "GENRE=%m" -8 -V %s
TOC извлечённого CD
     Трек |   Старт  | Длительность | Начальный сектор | Конечный сектор
    ---------------------------------------------------------------------
       1  |  0:00.00 |    3:54.51   |           0      |      17600
       2  |  3:54.51 |    3:58.58   |       17601      |      35508
       3  |  7:53.34 |    3:39.24   |       35509      |      51957
       4  | 11:32.58 |    3:33.38   |       51958      |      67970
       5  | 15:06.21 |    3:41.68   |       67971      |      84613
       6  | 18:48.14 |    3:51.10   |       84614      |     101948
       7  | 22:39.24 |    3:20.10   |      101949      |     116958
       8  | 25:59.34 |    3:42.52   |      116959      |     133660
       9  | 29:42.11 |    3:42.05   |      133661      |     150315
      10  | 33:24.16 |    3:59.47   |      150316      |     168287
      11  | 37:23.63 |    3:41.62   |      168288      |     184924
      12  | 41:05.50 |    3:48.25   |      184925      |     202049
      13  | 44:54.00 |    3:52.12   |      202050      |     219461
      14  | 48:46.12 |    3:24.73   |      219462      |     234834
      15  | 52:11.10 |    3:45.03   |      234835      |     251712
Характеристики диапазона извлечения и сообщения об ошибках
Выбранный диапазон
     Имя файла E:\Сборная союза 2012 - Единственная и неповторимая (Lossless)\Сборная союза - Единственная и неповторимая.wav
     Пиковый уровень 100.0 %
     Качество диапазона 99.9 %
     CRC теста 72EAB248
     CRC копии 72EAB248
     Копирование... OK
Ошибок не произошло
AccurateRip: сводка
Трек  1  нет в базе данных
Трек  2  нет в базе данных
Трек  3  нет в базе данных
Трек  4  нет в базе данных
Трек  5  нет в базе данных
Трек  6  нет в базе данных
Трек  7  нет в базе данных
Трек  8  нет в базе данных
Трек  9  нет в базе данных
Трек 10  нет в базе данных
Трек 11  нет в базе данных
Трек 12  нет в базе данных
Трек 13  нет в базе данных
Трек 14  нет в базе данных
Трек 15  нет в базе данных
Ни одного трека нет в базе AccurateRip
Конец отчёта
Код:
REM GENRE Шансон
REM DATE 2012
REM DISCID D00D1C0F
REM COMMENT "ExactAudioCopy v0.99pb5"
PERFORMER "Сборная союза"
TITLE "Единственная и неповторимая"
FILE "Сборная союза - Единственная и неповторимая.flac" WAVE
  TRACK 01 AUDIO
    TITLE "Поговорим да помолчим"
    PERFORMER "Сборная союза"
    INDEX 01 00:00:00
  TRACK 02 AUDIO
    TITLE "Возьму и не спрошу"
    PERFORMER "Сборная союза"
    INDEX 01 03:54:51
  TRACK 03 AUDIO
    TITLE "Мне с тобою повезло"
    PERFORMER "Сборная союза"
    INDEX 01 07:53:34
  TRACK 04 AUDIO
    TITLE "Единственная и неповторимая"
    PERFORMER "Сборная союза"
    INDEX 01 11:32:58
  TRACK 05 AUDIO
    TITLE "Я буду твоим"
    PERFORMER "Сборная союза"
    INDEX 01 15:06:21
  TRACK 06 AUDIO
    TITLE "Знаю"
    PERFORMER "Сборная союза"
    INDEX 01 18:48:14
  TRACK 07 AUDIO
    TITLE "Непогода"
    PERFORMER "Сборная союза"
    INDEX 01 22:39:24
  TRACK 08 AUDIO
    TITLE "Букет сирени"
    PERFORMER "Сборная союза"
    INDEX 01 25:59:34
  TRACK 09 AUDIO
    TITLE "Улетай"
    PERFORMER "Сборная союза"
    INDEX 01 29:42:11
  TRACK 10 AUDIO
    TITLE "Однажды"
    PERFORMER "Сборная союза"
    INDEX 01 33:24:16
  TRACK 11 AUDIO
    TITLE "Вот и свиделись"
    PERFORMER "Сборная союза"
    INDEX 01 37:23:63
  TRACK 12 AUDIO
    TITLE "Недотрога"
    PERFORMER "Сборная союза"
    INDEX 01 41:05:50
  TRACK 13 AUDIO
    TITLE "Что-то у нас не так"
    PERFORMER "Сборная союза"
    INDEX 01 44:54:00
  TRACK 14 AUDIO
    TITLE "Ради нашей любви"
    PERFORMER "Сборная союза"
    INDEX 01 48:46:12
  TRACK 15 AUDIO
    TITLE "Женщина свободная"
    PERFORMER "Сборная союза"
    INDEX 01 52:11:10
--
Download / Скачать

Хотите скачать бесплатно? Зарегистрируйтесь на сайте (ссылка на регистрацию). Pirat.ca - самый быстрый торрент трекер в рунете!

Как скачивать  ·   Что такое торрент  ·   Рейтинг и ограничения



Последний раз редактировалось: sergej644 (2015-01-03 02:35), всего редактировалось 1 раз

vovav-1924

Флибустьер

Пост 11-Дек-2012 01:12 (спустя 27 дней)

[Q] 

[Профиль]  [ЛС] 

Alecs001

Штурман

Пост 18-Дек-2012 01:50 (спустя 7 дней)

[Q] 

anime13 Благодарю !!!!!!!!!!!!!!
[Профиль]  [ЛС] 

kondi

Пост 13-Окт-2014 17:58 (спустя 1 год 9 месяцев)

[Q] 

Автору респект!!!
[Профиль]  [ЛС] 
Показать сообщения:    
Ответить на тему

Текущее время: Сегодня 23:12

Часовой пояс: GMT + 4



Вы не можете начинать темы
Вы не можете отвечать на сообщения
Вы не можете редактировать свои сообщения
Вы не можете удалять свои сообщения
Вы не можете голосовать в опросах
Вы не можете прикреплять файлы к сообщениям
Вы не можете скачивать файлы

▼ Вниз