Уважаемый Гость!
Вы можете поддержать проект и зарегистрироваться у наших партнеров - онлайн-стратегия MyLands. При регистрации в игре Вы получите код, который сможете активировать после регистрации на pirat.ca и получить 1000 дублонов.

Ваш код:
cbfc972db866f9f3df6a6fea4c2549cc4e2f5835
 
     

(Chanson) Михайлов Стас - GRAND Collection (РД) - 2012 (3 CD) [FLAC, tracks+cue, lossless]

Ответить на тему
 
Автор
Сообщение

Пост 16-Дек-2012 12:52

[Q] 

CHARLI2236

Михайлов Стас - GRAND Collection (РД) - 2012 (3CD)
Год выпуска альбома: 2012
Страна: Россия
Жанр: Chanson
Лейбл издания: Ридерз Дайджест
Продолжительность: 3:56:30
Формат: FLAC
Битрейт аудио: lossless
Тип рипа: tracks+.cue
Источник (релизер): диск CDDA
Наличие сканов в содержимом раздачи: да
Трэклист
01 - Берега Мечты. (3:53)
02 - Все для Тебя. (3:55)
03 - Половинка. (3:20)
04 - Без Тебя. (4:20)
05 - Свеча. (3:56)
06 - К Тебе Иду. (4:27)
07 - Не Вдвоем. (3:56)
08 - Париж Париж. (3:57)
09 - Живу и Таю. (3:53)
10 - Знай об Этом. (3:40)
11 - Забудь. (3:55)
12 - Ну Вот и Все. (4:05)
13 - Отпускаю. (3:43)
14 - Мама. (3:26)
15 - Серый Дождь. (4:11)
16 - Жизнь Обман. (3:58)
17 - Птица. (4:05)
18 - Война. (3:47)
19 - Приказ. (3:34)
20 - Дети. (3:31)
”Отчет ЕАС”
Отчёт EAC об извлечении, выполненном 16. декабря 2012, 7:21 для диска:
Михайлов Стас / GRAND Collection (CD1)
Дисковод: TSSTcorpCDDVDW SH-222AB Adapter: 0 ID: 0
Режим чтения: Достоверный (C2: нет, Точный поток: да, Отключение кэша: да)
Коррекция смещения при чтении: 6
Способность читать области Lead-in и Lead-out : Нет
Выходной формат: C:\Program Files (x86)\FLAC\flac.exe (Пользовательский кодировщик)
128 kBit/s
Дополнительные параметры: -8 -V -T "ARTIST=%a" -T "TITLE=%t" -T "ALBUM=%g" -T "DATE=%y" -T "TRACKNUMBER=%n" -T "GENRE=%m" -T "COMMENT=EAC FLAC -8" %s
Другие параметры:
Заполнение пропущенных сэмплов тишиной : Да
Удаление блоков с тишиной в начале и конце : Нет
Встроенный Win32-интерфейс для Win NT/2000
Трек 1
Имя файла C:\Sergei\новая папка\01 - Берега Мечты.wav
Длина предзазора 0:00:02.00
Пиковый уровень 97.9 %
Качество трека 99.9 %
CRC теста 5FC17E33
CRC копии 5FC17E33
Копирование... OK
Трек 2
Имя файла C:\Sergei\новая папка\02 - Все для Тебя.wav
Пиковый уровень 97.9 %
Качество трека 100.0 %
CRC теста 8C4E6B44
CRC копии 8C4E6B44
Копирование... OK
Трек 3
Имя файла C:\Sergei\новая папка\03 - Половинка.wav
Длина предзазора 0:03:55.21
Пиковый уровень 97.9 %
Качество трека 100.0 %
CRC теста 2C421917
CRC копии 2C421917
Копирование... OK
Трек 4
Имя файла C:\Sergei\новая папка\04 - Без Тебя.wav
Длина предзазора 0:07:15.37
Пиковый уровень 97.9 %
Качество трека 100.0 %
CRC теста 0C9791FB
CRC копии 0C9791FB
Копирование... OK
Трек 5
Имя файла C:\Sergei\новая папка\05 - Свеча.wav
Длина предзазора 0:11:36.32
Пиковый уровень 97.9 %
Качество трека 100.0 %
CRC теста DE784C4E
CRC копии DE784C4E
Копирование... OK
Трек 6
Имя файла C:\Sergei\новая папка\06 - К Тебе Иду.wav
Длина предзазора 0:15:33.12
Пиковый уровень 97.9 %
Качество трека 100.0 %
CRC теста 9BC8DE2C
CRC копии 9BC8DE2C
Копирование... OK
Трек 7
Имя файла C:\Sergei\новая папка\07 - Не Вдвоем.wav
Длина предзазора 0:20:00.97
Пиковый уровень 97.9 %
Качество трека 99.9 %
CRC теста 7B02C61D
CRC копии 7B02C61D
Копирование... OK
Трек 8
Имя файла C:\Sergei\новая папка\08 - Париж Париж.wav
Длина предзазора 0:23:57.37
Пиковый уровень 97.9 %
Качество трека 100.0 %
CRC теста 6EDB9D2A
CRC копии 6EDB9D2A
Копирование... OK
Трек 9
Имя файла C:\Sergei\новая папка\09 - Живу и Таю.wav
Длина предзазора 0:27:55.28
Пиковый уровень 97.9 %
Качество трека 100.0 %
CRC теста 68C7469D
CRC копии 68C7469D
Копирование... OK
Трек 10
Имя файла C:\Sergei\новая папка\10 - Знай об Этом.wav
Длина предзазора 0:31:48.85
Пиковый уровень 97.9 %
Качество трека 100.0 %
CRC теста 964341E6
CRC копии 964341E6
Копирование... OK
Трек 11
Имя файла C:\Sergei\новая папка\11 - Забудь.wav
Длина предзазора 0:35:29.37
Пиковый уровень 97.9 %
Качество трека 100.0 %
CRC теста D2A79FB6
CRC копии D2A79FB6
Копирование... OK
Трек 12
Имя файла C:\Sergei\новая папка\12 - Ну Вот и Все.wav
Длина предзазора 0:39:25.01
Пиковый уровень 97.9 %
Качество трека 100.0 %
CRC теста 4591EF61
CRC копии 4591EF61
Копирование... OK
Трек 13
Имя файла C:\Sergei\новая папка\13 - Отпускаю.wav
Длина предзазора 0:43:30.97
Пиковый уровень 97.9 %
Качество трека 99.9 %
CRC теста F5118FE4
CRC копии F5118FE4
Копирование... OK
Трек 14
Имя файла C:\Sergei\новая папка\14 - Мама.wav
Длина предзазора 0:47:14.76
Пиковый уровень 97.9 %
Качество трека 100.0 %
CRC теста 348F64B6
CRC копии 348F64B6
Копирование... OK
Трек 15
Имя файла C:\Sergei\новая папка\15 - Серый Дождь.wav
Длина предзазора 0:50:41.45
Пиковый уровень 97.9 %
Качество трека 100.0 %
CRC теста C8168F23
CRC копии C8168F23
Копирование... OK
Трек 16
Имя файла C:\Sergei\новая папка\16 - Жизнь Обман.wav
Длина предзазора 0:54:52.53
Пиковый уровень 97.9 %
Качество трека 99.9 %
CRC теста 742355E4
CRC копии 742355E4
Копирование... OK
Трек 17
Имя файла C:\Sergei\новая папка\17 - Птица.wav
Длина предзазора 0:58:50.57
Пиковый уровень 97.9 %
Качество трека 100.0 %
CRC теста C93881F1
CRC копии C93881F1
Копирование... OK
Трек 18
Имя файла C:\Sergei\новая папка\18 - Война.wav
Длина предзазора 1:02:55.89
Пиковый уровень 97.9 %
Качество трека 100.0 %
CRC теста 4C5A791D
CRC копии 4C5A791D
Копирование... OK
Трек 19
Имя файла C:\Sergei\новая папка\19 - Приказ.wav
Длина предзазора 1:06:43.88
Пиковый уровень 97.9 %
Качество трека 99.9 %
CRC теста 4EB08509
CRC копии 4EB08509
Копирование... OK
Трек 20
Имя файла C:\Sergei\новая папка\20 - Дети.wav
Длина предзазора 1:10:18.02
Пиковый уровень 97.9 %
Качество трека 100.0 %
CRC теста 692D9921
CRC копии 692D9921
Копирование... OK
Ошибок не произошло
Конец отчёта
"Non-compilant CUE"
REM GENRE Pop
REM DATE 2012
REM DISCID 11123614
REM COMMENT "ExactAudioCopy v0.95b3"
PERFORMER "Михайлов Стас"
TITLE "GRAND Collection (CD1)"
FILE "01 - Берега Мечты.wav" WAVE
TRACK 01 AUDIO
TITLE "Берега Мечты"
PERFORMER "Михайлов Стас"
INDEX 01 00:00:00
FILE "02 - Все для Тебя.wav" WAVE
TRACK 02 AUDIO
TITLE "Все для Тебя"
PERFORMER "Михайлов Стас"
INDEX 01 00:00:00
TRACK 03 AUDIO
TITLE "Половинка"
PERFORMER "Михайлов Стас"
INDEX 00 00:00:00
FILE "03 - Половинка.wav" WAVE
INDEX 01 00:00:00
TRACK 04 AUDIO
TITLE "Без Тебя"
PERFORMER "Михайлов Стас"
INDEX 00 07:05:59
FILE "04 - Без Тебя.wav" WAVE
INDEX 01 00:00:00
TRACK 05 AUDIO
TITLE "Свеча"
PERFORMER "Михайлов Стас"
INDEX 00 03:45:47
FILE "05 - Свеча.wav" WAVE
INDEX 01 00:00:00
TRACK 06 AUDIO
TITLE "К Тебе Иду"
PERFORMER "Михайлов Стас"
INDEX 00 99:24:51
FILE "06 - К Тебе Иду.wav" WAVE
INDEX 01 00:00:00
TRACK 07 AUDIO
TITLE "Не Вдвоем"
PERFORMER "Михайлов Стас"
INDEX 00 95:27:66
FILE "07 - Не Вдвоем.wav" WAVE
INDEX 01 00:00:00
TRACK 08 AUDIO
TITLE "Париж Париж"
PERFORMER "Михайлов Стас"
INDEX 00 80:00:02
FILE "08 - Париж Париж.wav" WAVE
INDEX 01 00:00:00
TRACK 09 AUDIO
TITLE "Живу и Таю"
PERFORMER "Михайлов Стас"
INDEX 00 87:03:47
FILE "09 - Живу и Таю.wav" WAVE
INDEX 01 00:00:00
TRACK 10 AUDIO
TITLE "Знай об Этом"
PERFORMER "Михайлов Стас"
INDEX 00 83:05:54
FILE "10 - Знай об Этом.wav" WAVE
INDEX 01 00:00:00
TRACK 11 AUDIO
TITLE "Забудь"
PERFORMER "Михайлов Стас"
INDEX 00 79:12:11
FILE "11 - Забудь.wav" WAVE
INDEX 01 00:00:00
TRACK 12 AUDIO
TITLE "Ну Вот и Все"
PERFORMER "Михайлов Стас"
INDEX 00 75:31:47
FILE "12 - Ну Вот и Все.wav" WAVE
INDEX 01 00:00:00
TRACK 13 AUDIO
TITLE "Отпускаю"
PERFORMER "Михайлов Стас"
INDEX 00 71:35:74
FILE "13 - Отпускаю.wav" WAVE
INDEX 01 00:00:00
TRACK 14 AUDIO
TITLE "Мама"
PERFORMER "Михайлов Стас"
INDEX 00 67:30:02
FILE "14 - Мама.wav" WAVE
INDEX 01 00:00:00
TRACK 15 AUDIO
TITLE "Серый Дождь"
PERFORMER "Михайлов Стас"
INDEX 00 63:46:18
FILE "15 - Серый Дождь.wav" WAVE
INDEX 01 00:00:00
TRACK 16 AUDIO
TITLE "Жизнь Обман"
PERFORMER "Михайлов Стас"
INDEX 00 50:19:41
FILE "16 - Жизнь Обман.wav" WAVE
INDEX 01 00:00:00
TRACK 17 AUDIO
TITLE "Птица"
PERFORMER "Михайлов Стас"
INDEX 00 56:08:35
FILE "17 - Птица.wav" WAVE
INDEX 01 00:00:00
TRACK 18 AUDIO
TITLE "Война"
PERFORMER "Михайлов Стас"
INDEX 00 52:10:32
FILE "18 - Война.wav" WAVE
INDEX 01 00:00:00
TRACK 19 AUDIO
TITLE "Приказ"
PERFORMER "Михайлов Стас"
INDEX 00 48:05:08
FILE "19 - Приказ.wav" WAVE
INDEX 01 00:00:00
TRACK 20 AUDIO
TITLE "Дети"
PERFORMER "Михайлов Стас"
INDEX 00 44:17:09
FILE "20 - Дети.wav" WAVE
INDEX 01 00:00:00
"Лог Audiochecker"
AUDIOCHECKER v2.0 beta (build 457) - by Dester - [email protected]
~~~~~~~~~~~~~~~~~~~~~~~~~~~~~~~~~~
-=== НЕ РЕДАКТИРУЙТЕ ЭТОТ ФАЙЛ! ===-
Путь: ...\CD1
01 -=- 01 - Берега Мечты.flac -=- CDDA (100%)
02 -=- 02 - Все для Тебя.flac -=- CDDA (100%)
03 -=- 03 - Половинка.flac -=- CDDA (100%)
04 -=- 04 - Без Тебя.flac -=- CDDA (100%)
05 -=- 05 - Свеча.flac -=- CDDA (100%)
06 -=- 06 - К Тебе Иду.flac -=- CDDA (100%)
07 -=- 07 - Не Вдвоем.flac -=- CDDA (100%)
08 -=- 08 - Париж Париж.flac -=- CDDA (100%)
09 -=- 09 - Живу и Таю.flac -=- CDDA (100%)
10 -=- 10 - Знай об Этом.flac -=- CDDA (100%)
11 -=- 11 - Забудь.flac -=- CDDA (100%)
12 -=- 12 - Ну Вот и Все.flac -=- CDDA (100%)
13 -=- 13 - Отпускаю.flac -=- CDDA (99%)
14 -=- 14 - Мама.flac -=- CDDA (100%)
15 -=- 15 - Серый Дождь.flac -=- CDDA (100%)
16 -=- 16 - Жизнь Обман.flac -=- CDDA (100%)
17 -=- 17 - Птица.flac -=- CDDA (100%)
18 -=- 18 - Война.flac -=- CDDA (100%)
19 -=- 19 - Приказ.flac -=- MPEG (93%)
20 -=- 20 - Дети.flac -=- CDDA (100%)
Сводка 95,30% CDDA
193032532
Трэклист
01 - Нежданная любовь. (3:55)
02 - На крыльях любви. (3:20)
03 - Мы разные. (4:31)
04 - За женщин всех. (3:39)
05 - Ты.... (3:41)
06 - Гори звезда моя. (4:16)
07 - Ушла. (3:48)
08 - Летит по небу.... (3:50)
09 - Танго. (3:42)
10 - Ветер. (3:33)
11 - Небеса. (5:29)
12 - Засыпает лес. (4:33)
13 - Быть хочу счастливым. (4:15)
14 - Звездою на небо. (3:16)
15 - На волю. (3:46)
16 - По тонкому льду. (4:06)
17 - За воротами времени. (3:37)
18 - Человек. (4:06)
19 - Жди. (3:58)
20 - Позывные на любовь. (3:20)
”Отчет ЕАС”
Отчёт EAC об извлечении, выполненном 16. декабря 2012, 10:07 для диска:
Михайлов Стас / GRAND Collection (CD2)
Дисковод: TSSTcorpCDDVDW SH-222AB Adapter: 0 ID: 0
Режим чтения: Достоверный (C2: нет, Точный поток: да, Отключение кэша: да)
Коррекция смещения при чтении: 6
Способность читать области Lead-in и Lead-out : Нет
Выходной формат: C:\Program Files (x86)\FLAC\flac.exe (Пользовательский кодировщик)
128 kBit/s
Дополнительные параметры: -8 -V -T "ARTIST=%a" -T "TITLE=%t" -T "ALBUM=%g" -T "DATE=%y" -T "TRACKNUMBER=%n" -T "GENRE=%m" -T "COMMENT=EAC FLAC -8" %s
Другие параметры:
Заполнение пропущенных сэмплов тишиной : Да
Удаление блоков с тишиной в начале и конце : Нет
Встроенный Win32-интерфейс для Win NT/2000
Трек 1
Имя файла C:\Sergei\новая папка\01 - Нежданная любовь.wav
Длина предзазора 0:00:02.00
Пиковый уровень 97.9 %
Качество трека 100.0 %
CRC теста 525ECC2F
CRC копии 525ECC2F
Копирование... OK
Трек 2
Имя файла C:\Sergei\новая папка\02 - На крыльях любви.wav
Пиковый уровень 97.9 %
Качество трека 100.0 %
CRC теста 854899AC
CRC копии 854899AC
Копирование... OK
Трек 3
Имя файла C:\Sergei\новая папка\03 - Мы разные.wav
Пиковый уровень 90.9 %
Качество трека 100.0 %
CRC теста 64871CDF
CRC копии 64871CDF
Копирование... OK
Трек 4
Имя файла C:\Sergei\новая папка\04 - За женщин всех.wav
Пиковый уровень 97.2 %
Качество трека 99.9 %
CRC теста 1B2CAA2F
CRC копии 1B2CAA2F
Копирование... OK
Трек 5
Имя файла C:\Sergei\новая папка\05 - Ты....wav
Пиковый уровень 90.0 %
Качество трека 100.0 %
CRC теста 5D1FCA4A
CRC копии 5D1FCA4A
Копирование... OK
Трек 6
Имя файла C:\Sergei\новая папка\06 - Гори звезда моя.wav
Пиковый уровень 89.9 %
Качество трека 100.0 %
CRC теста 8B12F6DC
CRC копии 8B12F6DC
Копирование... OK
Трек 7
Имя файла C:\Sergei\новая папка\07 - Ушла.wav
Пиковый уровень 95.9 %
Качество трека 100.0 %
CRC теста 2189CDF2
CRC копии 2189CDF2
Копирование... OK
Трек 8
Имя файла C:\Sergei\новая папка\08 - Летит по небу....wav
Пиковый уровень 96.0 %
Качество трека 100.0 %
CRC теста 7A366A54
CRC копии 7A366A54
Копирование... OK
Трек 9
Имя файла C:\Sergei\новая папка\09 - Танго.wav
Пиковый уровень 93.7 %
Качество трека 100.0 %
CRC теста DF1FF667
CRC копии DF1FF667
Копирование... OK
Трек 10
Имя файла C:\Sergei\новая папка\10 - Ветер.wav
Пиковый уровень 92.8 %
Качество трека 99.9 %
CRC теста 0218493F
CRC копии 0218493F
Копирование... OK
Трек 11
Имя файла C:\Sergei\новая папка\11 - Небеса.wav
Пиковый уровень 96.2 %
Качество трека 100.0 %
CRC теста A8EEFE48
CRC копии A8EEFE48
Копирование... OK
Трек 12
Имя файла C:\Sergei\новая папка\12 - Засыпает лес.wav
Пиковый уровень 94.9 %
Качество трека 100.0 %
CRC теста F2578D6A
CRC копии F2578D6A
Копирование... OK
Трек 13
Имя файла C:\Sergei\новая папка\13 - Быть хочу счастливым.wav
Пиковый уровень 95.8 %
Качество трека 100.0 %
CRC теста C4FCFB55
CRC копии C4FCFB55
Копирование... OK
Трек 14
Имя файла C:\Sergei\новая папка\14 - Звездою на небо.wav
Пиковый уровень 95.5 %
Качество трека 100.0 %
CRC теста B2F4BA3E
CRC копии B2F4BA3E
Копирование... OK
Трек 15
Имя файла C:\Sergei\новая папка\15 - На волю.wav
Пиковый уровень 93.2 %
Качество трека 100.0 %
CRC теста 1D6B3328
CRC копии 1D6B3328
Копирование... OK
Трек 16
Имя файла C:\Sergei\новая папка\16 - По тонкому льду.wav
Пиковый уровень 100.0 %
Качество трека 100.0 %
CRC теста 038C2BF0
CRC копии 038C2BF0
Копирование... OK
Трек 17
Имя файла C:\Sergei\новая папка\17 - За воротами времени.wav
Пиковый уровень 96.6 %
Качество трека 100.0 %
CRC теста 4FCA79AA
CRC копии 4FCA79AA
Копирование... OK
Трек 18
Имя файла C:\Sergei\новая папка\18 - Человек.wav
Пиковый уровень 96.6 %
Качество трека 99.9 %
CRC теста C438B629
CRC копии C438B629
Копирование... OK
Трек 19
Имя файла C:\Sergei\новая папка\19 - Жди.wav
Пиковый уровень 90.1 %
Качество трека 100.0 %
CRC теста 08B41C16
CRC копии 08B41C16
Копирование... OK
Трек 20
Имя файла C:\Sergei\новая папка\20 - Позывные на любовь.wav
Пиковый уровень 94.8 %
Качество трека 100.0 %
CRC теста FB270685
CRC копии FB270685
Копирование... OK
Ошибок не произошло
Конец отчёта
"Non-compilant CUE"
REM GENRE Pop
REM DATE 2012
REM DISCID 19127B14
REM COMMENT "ExactAudioCopy v0.95b3"
PERFORMER "Михайлов Стас"
TITLE "GRAND Collection (CD2)"
FILE "01 - Нежданная любовь.wav" WAVE
TRACK 01 AUDIO
TITLE "Нежданная любовь"
PERFORMER "Михайлов Стас"
INDEX 01 00:00:00
FILE "02 - На крыльях любви.wav" WAVE
TRACK 02 AUDIO
TITLE "На крыльях любви"
PERFORMER "Михайлов Стас"
INDEX 01 00:00:00
FILE "03 - Мы разные.wav" WAVE
TRACK 03 AUDIO
TITLE "Мы разные"
PERFORMER "Михайлов Стас"
INDEX 01 00:00:00
FILE "04 - За женщин всех.wav" WAVE
TRACK 04 AUDIO
TITLE "За женщин всех"
PERFORMER "Михайлов Стас"
INDEX 01 00:00:00
FILE "05 - Ты....wav" WAVE
TRACK 05 AUDIO
TITLE "Ты..."
PERFORMER "Михайлов Стас"
INDEX 01 00:00:00
FILE "06 - Гори звезда моя.wav" WAVE
TRACK 06 AUDIO
TITLE "Гори звезда моя"
PERFORMER "Михайлов Стас"
INDEX 01 00:00:00
FILE "07 - Ушла.wav" WAVE
TRACK 07 AUDIO
TITLE "Ушла"
PERFORMER "Михайлов Стас"
INDEX 01 00:00:00
FILE "08 - Летит по небу....wav" WAVE
TRACK 08 AUDIO
TITLE "Летит по небу..."
PERFORMER "Михайлов Стас"
INDEX 01 00:00:00
FILE "09 - Танго.wav" WAVE
TRACK 09 AUDIO
TITLE "Танго"
PERFORMER "Михайлов Стас"
INDEX 01 00:00:00
FILE "10 - Ветер.wav" WAVE
TRACK 10 AUDIO
TITLE "Ветер"
PERFORMER "Михайлов Стас"
INDEX 01 00:00:00
FILE "11 - Небеса.wav" WAVE
TRACK 11 AUDIO
TITLE "Небеса"
PERFORMER "Михайлов Стас"
INDEX 01 00:00:00
FILE "12 - Засыпает лес.wav" WAVE
TRACK 12 AUDIO
TITLE "Засыпает лес"
PERFORMER "Михайлов Стас"
INDEX 01 00:00:00
FILE "13 - Быть хочу счастливым.wav" WAVE
TRACK 13 AUDIO
TITLE "Быть хочу счастливым"
PERFORMER "Михайлов Стас"
INDEX 01 00:00:00
FILE "14 - Звездою на небо.wav" WAVE
TRACK 14 AUDIO
TITLE "Звездою на небо"
PERFORMER "Михайлов Стас"
INDEX 01 00:00:00
FILE "15 - На волю.wav" WAVE
TRACK 15 AUDIO
TITLE "На волю"
PERFORMER "Михайлов Стас"
INDEX 01 00:00:00
FILE "16 - По тонкому льду.wav" WAVE
TRACK 16 AUDIO
TITLE "По тонкому льду"
PERFORMER "Михайлов Стас"
INDEX 01 00:00:00
FILE "17 - За воротами времени.wav" WAVE
TRACK 17 AUDIO
TITLE "За воротами времени"
PERFORMER "Михайлов Стас"
INDEX 01 00:00:00
FILE "18 - Человек.wav" WAVE
TRACK 18 AUDIO
TITLE "Человек"
PERFORMER "Михайлов Стас"
INDEX 01 00:00:00
FILE "19 - Жди.wav" WAVE
TRACK 19 AUDIO
TITLE "Жди"
PERFORMER "Михайлов Стас"
INDEX 01 00:00:00
FILE "20 - Позывные на любовь.wav" WAVE
TRACK 20 AUDIO
TITLE "Позывные на любовь"
PERFORMER "Михайлов Стас"
INDEX 01 00:00:00
"Лог Audiochecker"
AUDIOCHECKER v2.0 beta (build 457) - by Dester - [email protected]
~~~~~~~~~~~~~~~~~~~~~~~~~~~~~~~~~~
-=== НЕ РЕДАКТИРУЙТЕ ЭТОТ ФАЙЛ! ===-
Путь: ...\CD2
01 -=- 01 - Нежданная любовь.flac -=- CDDA (99%)
02 -=- 02 - На крыльях любви.flac -=- CDDA (100%)
03 -=- 03 - Мы разные.flac -=- CDDA (100%)
04 -=- 04 - За женщин всех.flac -=- CDDA (100%)
05 -=- 05 - Ты....flac -=- CDDA (100%)
06 -=- 06 - Гори звезда моя.flac -=- CDDA (49%)
07 -=- 07 - Ушла.flac -=- MPEG (95%)
08 -=- 08 - Летит по небу....flac -=- CDDA (100%)
09 -=- 09 - Танго.flac -=- CDDA (100%)
10 -=- 10 - Ветер.flac -=- CDDA (100%)
11 -=- 11 - Небеса.flac -=- CDDA (100%)
12 -=- 12 - Засыпает лес.flac -=- CDDA (99%)
13 -=- 13 - Быть хочу счастливым.flac -=- CDDA (100%)
14 -=- 14 - Звездою на небо.flac -=- CDDA (100%)
15 -=- 15 - На волю.flac -=- CDDA (100%)
16 -=- 16 - По тонкому льду.flac -=- CDDA (100%)
17 -=- 17 - За воротами времени.flac -=- CDDA (100%)
18 -=- 18 - Человек.flac -=- CDDA (100%)
19 -=- 19 - Жди.flac -=- CDDA (100%)
20 -=- 20 - Позывные на любовь.flac -=- CDDA (100%)
Сводка 92,60% CDDA
197549284
Трэклист
01 - Моя любвь. (4:00)
02 - Где ты. (3:29)
03 - Ветер бродяга. (4:32)
04 - Жизнь-река. (4:30)
05 - Душа. (4:16)
06 - Странник. (3:40)
07 - Приди ко мне. (4:19)
08 - Мир без тебя. (3:25)
09 - Летим (дуэт с Зарой). (3:38)
10 - Лети душа. (3:35)
11 - Мы все. (4:46)
12 - Родная. (3:36)
13 - Живой. (5:19)
14 - Женщина-обман. (3:47)
15 - Отпусти (дуэт с Таисией Повалий). (3:34)
16 - Героям России. (4:30)
17 - Королева. (4:05)
18 - Живи и знай. (3:15)
19 - Петербург-Москва. (4:05)
20 - Разрушительница. (3:26)
”Отчет ЕАС”
Отчёт EAC об извлечении, выполненном 16. декабря 2012, 10:54 для диска:
Михайлов Стас / GRAND Collection (CD3)
Дисковод: TSSTcorpCDDVDW SH-222AB Adapter: 0 ID: 0
Режим чтения: Достоверный (C2: нет, Точный поток: да, Отключение кэша: да)
Коррекция смещения при чтении: 6
Способность читать области Lead-in и Lead-out : Нет
Выходной формат: C:\Program Files (x86)\FLAC\flac.exe (Пользовательский кодировщик)
128 kBit/s
Дополнительные параметры: -8 -V -T "ARTIST=%a" -T "TITLE=%t" -T "ALBUM=%g" -T "DATE=%y" -T "TRACKNUMBER=%n" -T "GENRE=%m" -T "COMMENT=EAC FLAC -8" %s
Другие параметры:
Заполнение пропущенных сэмплов тишиной : Да
Удаление блоков с тишиной в начале и конце : Нет
Встроенный Win32-интерфейс для Win NT/2000
Трек 1
Имя файла C:\Sergei\новая папка\01 - Моя любвь.wav
Длина предзазора 0:00:02.00
Пиковый уровень 97.9 %
Качество трека 100.0 %
CRC теста C43C912F
CRC копии C43C912F
Копирование... OK
Трек 2
Имя файла C:\Sergei\новая папка\02 - Где ты.wav
Пиковый уровень 97.2 %
Качество трека 99.9 %
CRC теста 28016AC0
CRC копии 28016AC0
Копирование... OK
Трек 3
Имя файла C:\Sergei\новая папка\03 - Ветер бродяга.wav
Пиковый уровень 96.7 %
Качество трека 100.0 %
CRC теста 44AB2EB9
CRC копии 44AB2EB9
Копирование... OK
Трек 4
Имя файла C:\Sergei\новая папка\04 - Жизнь-река.wav
Пиковый уровень 95.8 %
Качество трека 100.0 %
CRC теста 106850B7
CRC копии 106850B7
Копирование... OK
Трек 5
Имя файла C:\Sergei\новая папка\05 - Душа.wav
Пиковый уровень 96.0 %
Качество трека 100.0 %
CRC теста F1C3A123
CRC копии F1C3A123
Копирование... OK
Трек 6
Имя файла C:\Sergei\новая папка\06 - Странник.wav
Пиковый уровень 98.0 %
Качество трека 100.0 %
CRC теста 8C1F9C55
CRC копии 8C1F9C55
Копирование... OK
Трек 7
Имя файла C:\Sergei\новая папка\07 - Приди ко мне.wav
Пиковый уровень 93.4 %
Качество трека 100.0 %
CRC теста DFCCADDD
CRC копии DFCCADDD
Копирование... OK
Трек 8
Имя файла C:\Sergei\новая папка\08 - Мир без тебя.wav
Пиковый уровень 95.7 %
Качество трека 100.0 %
CRC теста 46497914
CRC копии 46497914
Копирование... OK
Трек 9
Имя файла C:\Sergei\новая папка\09 - Летим (дуэт с Зарой).wav
Пиковый уровень 97.7 %
Качество трека 100.0 %
CRC теста 0180348B
CRC копии 0180348B
Копирование... OK
Трек 10
Имя файла C:\Sergei\новая папка\10 - Лети душа.wav
Пиковый уровень 97.2 %
Качество трека 100.0 %
CRC теста A810460C
CRC копии A810460C
Копирование... OK
Трек 11
Имя файла C:\Sergei\новая папка\11 - Мы все.wav
Пиковый уровень 94.8 %
Качество трека 100.0 %
CRC теста C201948E
CRC копии C201948E
Копирование... OK
Трек 12
Имя файла C:\Sergei\новая папка\12 - Родная.wav
Пиковый уровень 98.3 %
Качество трека 100.0 %
CRC теста 87C95010
CRC копии 87C95010
Копирование... OK
Трек 13
Имя файла C:\Sergei\новая папка\13 - Живой.wav
Пиковый уровень 98.8 %
Качество трека 100.0 %
CRC теста 3A1CDDA9
CRC копии 3A1CDDA9
Копирование... OK
Трек 14
Имя файла C:\Sergei\новая папка\14 - Женщина-обман.wav
Пиковый уровень 98.8 %
Качество трека 99.9 %
CRC теста 68A74414
CRC копии 68A74414
Копирование... OK
Трек 15
Имя файла C:\Sergei\новая папка\15 - Отпусти (дуэт с Таисией Повалий).wav
Пиковый уровень 98.8 %
Качество трека 100.0 %
CRC теста 11D29A16
CRC копии 11D29A16
Копирование... OK
Трек 16
Имя файла C:\Sergei\новая папка\16 - Героям России.wav
Пиковый уровень 97.5 %
Качество трека 100.0 %
CRC теста D5641DFD
CRC копии D5641DFD
Копирование... OK
Трек 17
Имя файла C:\Sergei\новая папка\17 - Королева.wav
Пиковый уровень 97.9 %
Качество трека 100.0 %
CRC теста AC0DED6B
CRC копии AC0DED6B
Копирование... OK
Трек 18
Имя файла C:\Sergei\новая папка\18 - Живи и знай.wav
Пиковый уровень 97.9 %
Качество трека 100.0 %
CRC теста B6094529
CRC копии B6094529
Копирование... OK
Трек 19
Имя файла C:\Sergei\новая папка\19 - Петербург-Москва.wav
Пиковый уровень 95.3 %
Качество трека 100.0 %
CRC теста F424799A
CRC копии F424799A
Копирование... OK
Трек 20
Имя файла C:\Sergei\новая папка\20 - Разрушительница.wav
Пиковый уровень 95.0 %
Качество трека 99.9 %
CRC теста 1A7AEA0C
CRC копии 1A7AEA0C
Копирование... OK
Ошибок не произошло
Конец отчёта
"Non-compilant CUE"
REM GENRE Pop
REM DATE 2012
REM DISCID 1612BD14
REM COMMENT "ExactAudioCopy v0.95b3"
PERFORMER "Михайлов Стас"
TITLE "GRAND Collection (CD3)"
FILE "01 - Моя любвь.wav" WAVE
TRACK 01 AUDIO
TITLE "Моя любвь"
PERFORMER "Михайлов Стас"
INDEX 01 00:00:00
FILE "02 - Где ты.wav" WAVE
TRACK 02 AUDIO
TITLE "Где ты"
PERFORMER "Михайлов Стас"
INDEX 01 00:00:00
FILE "03 - Ветер бродяга.wav" WAVE
TRACK 03 AUDIO
TITLE "Ветер бродяга"
PERFORMER "Михайлов Стас"
INDEX 01 00:00:00
FILE "04 - Жизнь-река.wav" WAVE
TRACK 04 AUDIO
TITLE "Жизнь-река"
PERFORMER "Михайлов Стас"
INDEX 01 00:00:00
FILE "05 - Душа.wav" WAVE
TRACK 05 AUDIO
TITLE "Душа"
PERFORMER "Михайлов Стас"
INDEX 01 00:00:00
FILE "06 - Странник.wav" WAVE
TRACK 06 AUDIO
TITLE "Странник"
PERFORMER "Михайлов Стас"
INDEX 01 00:00:00
FILE "07 - Приди ко мне.wav" WAVE
TRACK 07 AUDIO
TITLE "Приди ко мне"
PERFORMER "Михайлов Стас"
INDEX 01 00:00:00
FILE "08 - Мир без тебя.wav" WAVE
TRACK 08 AUDIO
TITLE "Мир без тебя"
PERFORMER "Михайлов Стас"
INDEX 01 00:00:00
FILE "09 - Летим (дуэт с Зарой).wav" WAVE
TRACK 09 AUDIO
TITLE "Летим (дуэт с Зарой)"
PERFORMER "Михайлов Стас"
INDEX 01 00:00:00
FILE "10 - Лети душа.wav" WAVE
TRACK 10 AUDIO
TITLE "Лети душа"
PERFORMER "Михайлов Стас"
INDEX 01 00:00:00
FILE "11 - Мы все.wav" WAVE
TRACK 11 AUDIO
TITLE "Мы все"
PERFORMER "Михайлов Стас"
INDEX 01 00:00:00
FILE "12 - Родная.wav" WAVE
TRACK 12 AUDIO
TITLE "Родная"
PERFORMER "Михайлов Стас"
INDEX 01 00:00:00
FILE "13 - Живой.wav" WAVE
TRACK 13 AUDIO
TITLE "Живой"
PERFORMER "Михайлов Стас"
INDEX 01 00:00:00
FILE "14 - Женщина-обман.wav" WAVE
TRACK 14 AUDIO
TITLE "Женщина-обман"
PERFORMER "Михайлов Стас"
INDEX 01 00:00:00
FILE "15 - Отпусти (дуэт с Таисией Повалий).wav" WAVE
TRACK 15 AUDIO
TITLE "Отпусти (дуэт с Таисией Повалий)"
PERFORMER "Михайлов Стас"
INDEX 01 00:00:00
FILE "16 - Героям России.wav" WAVE
TRACK 16 AUDIO
TITLE "Героям России"
PERFORMER "Михайлов Стас"
INDEX 01 00:00:00
FILE "17 - Королева.wav" WAVE
TRACK 17 AUDIO
TITLE "Королева"
PERFORMER "Михайлов Стас"
INDEX 01 00:00:00
FILE "18 - Живи и знай.wav" WAVE
TRACK 18 AUDIO
TITLE "Живи и знай"
PERFORMER "Михайлов Стас"
INDEX 01 00:00:00
FILE "19 - Петербург-Москва.wav" WAVE
TRACK 19 AUDIO
TITLE "Петербург-Москва"
PERFORMER "Михайлов Стас"
INDEX 01 00:00:00
FILE "20 - Разрушительница.wav" WAVE
TRACK 20 AUDIO
TITLE "Разрушительница"
PERFORMER "Михайлов Стас"
INDEX 01 00:00:00
"Лог Audiochecker"
AUDIOCHECKER v2.0 beta (build 457) - by Dester - [email protected]
~~~~~~~~~~~~~~~~~~~~~~~~~~~~~~~~~~
-=== НЕ РЕДАКТИРУЙТЕ ЭТОТ ФАЙЛ! ===-
Путь: ...\CD3
01 -=- 01 - Моя любвь.flac -=- CDDA (100%)
02 -=- 02 - Где ты.flac -=- CDDA (99%)
03 -=- 03 - Ветер бродяга.flac -=- CDDA (100%)
04 -=- 04 - Жизнь-река.flac -=- CDDA (100%)
05 -=- 05 - Душа.flac -=- CDDA (100%)
06 -=- 06 - Странник.flac -=- CDDA (100%)
07 -=- 07 - Приди ко мне.flac -=- CDDA (100%)
08 -=- 08 - Мир без тебя.flac -=- CDDA (100%)
09 -=- 09 - Летим (дуэт с Зарой).flac -=- CDDA (100%)
10 -=- 10 - Лети душа.flac -=- CDDA (100%)
11 -=- 11 - Мы все.flac -=- CDDA (100%)
12 -=- 12 - Родная.flac -=- CDDA (100%)
13 -=- 13 - Живой.flac -=- CDDA (100%)
14 -=- 14 - Женщина-обман.flac -=- CDDA (100%)
15 -=- 15 - Отпусти (дуэт с Таисией Повалий).flac -=- CDDA (100%)
16 -=- 16 - Героям России.flac -=- CDDA (100%)
17 -=- 17 - Королева.flac -=- CDDA (100%)
18 -=- 18 - Живи и знай.flac -=- MPEG (95%)
19 -=- 19 - Петербург-Москва.flac -=- MPEG (100%)
20 -=- 20 - Разрушительница.flac -=- CDDA (100%)
Сводка 90,20% CDDA
103612804
Мы помогаем людям, чтобы они, в свою очередь, помогли нам; таким образом, наши услуги сводятся просто к благодеяниям, которые мы загодя оказываем самим себе. (Франсуа де Ларошфуко)
Download / Скачать

Хотите скачать бесплатно? Зарегистрируйтесь на сайте (ссылка на регистрацию). Pirat.ca - самый быстрый торрент трекер в рунете!

Как скачивать  ·   Что такое торрент  ·   Рейтинг и ограничения

kondi

Пост 13-Окт-2014 18:01 (спустя 1 год 9 месяцев)

[Q] 

Пиратка рулит!
[Профиль]  [ЛС] 
Показать сообщения:    
Ответить на тему

Текущее время: Сегодня 07:56

Часовой пояс: GMT + 4



Вы не можете начинать темы
Вы не можете отвечать на сообщения
Вы не можете редактировать свои сообщения
Вы не можете удалять свои сообщения
Вы не можете голосовать в опросах
Вы не можете прикреплять файлы к сообщениям
Вы не можете скачивать файлы

▼ Вниз