XXII Зимние Олимпийские Игры Сочи 2014 / Санный спорт / Мужчины на одноместных санях, заезд 1 и 2 (ТВ канал - Россия 2) [08.02.2014 г., IPTVRip, TS, RU]

Ответить на тему
 
Автор
Сообщение

Пост 10-Фев-2014 22:54

[Q] 

UcrusPazzo

XXII Зимние Олимпийские Игры Сочи 2014 / Санный спорт Мужчины на одноместных санях, заезд 1 и 2Жаркие. Зимние. Твои.Официальный сайт "Сочи 2014" -Год выпуска: 08.02.2014 г.
Вид спорта: Санный спорт
Продолжительность: 02:31:17
Комментатор: Александр Ткачев
Язык комментариев: русский
Автор рипа / записи: Димоны444-ТВ Канал: -Качество видео: IPTVRip
Контейнер: TS
Видео кодек: H.264
Аудио кодек: MP3
Видео 1 заезд: 1372 Кбит/сек; 720*576 (4:3); 25,000 кадров/сек; AVC; 0.165 бит/пиксель
Аудио 1 заезд: 128 Кбит/сек; 44,1 КГц; 2 канала; МР3
Видео 2 заезд: 5072 Кбит/сек; 1920*1080 (16:9); 25,000 кадров/сек; AVC; 0.165 бит/пиксель
Аудио 2 заезд: 48,0 КГц; 2 канала; ААС
Санный спорт. Расписание и результаты. Скачать.
Общее
Идентификатор : 42705 (0xA6D1)
Формат : MPEG-TS
Размер файла : 902 Мбайт
Продолжительность : 1 ч. 20 м.
Режим общего битрейта : Переменный
Общий поток : 1563 Кбит/сек
Видео
Идентификатор : 69 (0x45)
Идентификатор меню : 1 (0x1)
Формат : AVC
Формат/Информация : Advanced Video Codec
Профиль формата : [email protected]
Параметр CABAC формата : Да
Параметр ReFrames формата : 4 кадра
Идентификатор кодека : 27
Продолжительность : 1 ч. 20 м.
Битрейт : 1372 Кбит/сек
Ширина : 720 пикселей
Высота : 576 пикселей
Соотношение сторон : 4:3
Частота кадров : 25,000 кадров/сек
Стандарт вещания : PAL
Цветовое пространство : YUV
Субдискретизация насыщенности : 4:2:0
Битовая глубина : 8 бит
Тип развёртки : Прогрессивная
Бит/(Пиксели*Кадры) : 0.132
Размер потока : 783 Мбайт (87%)
Библиотека кодирования : x264 core 119 r2106 07efeb4
Настройки программы : cabac=1 / ref=1 / deblock=1:-1:-1 / analyse=0x3:0x13 / me=dia / subme=1 / psy=1 / psy_rd=1.00:0.15 / mixed_ref=0 / me_range=16 / chroma_me=1 / trellis=0 / 8x8dct=1 / cqm=0 / deadzone=21,11 / fast_pskip=1 / chroma_qp_offset=0 / threads=6 / sliced_threads=0 / nr=0 / decimate=1 / interlaced=0 / bluray_compat=0 / constrained_intra=0 / bframes=3 / b_pyramid=2 / b_adapt=1 / b_bias=0 / direct=1 / weightb=1 / open_gop=0 / weightp=1 / keyint=60 / keyint_min=6 / scenecut=40 / intra_refresh=0 / rc_lookahead=0 / rc=cbr / mbtree=0 / bitrate=1372 / ratetol=1.0 / qcomp=0.60 / qpmin=10 / qpmax=51 / qpstep=4 / vbv_maxrate=1372 / vbv_bufsize=1500 / nal_hrd=none / ip_ratio=1.40 / pb_ratio=1.30 / aq=1:1.00
Аудио
Идентификатор : 68 (0x44)
Идентификатор меню : 1 (0x1)
Формат : MPEG Audio
Версия формата : Version 1
Профиль формата : Layer 3
Режим : Joint stereo
Расширение режима : MS Stereo
Идентификатор кодека : 3
Продолжительность : 1 ч. 20 м.
Вид битрейта : Постоянный
Битрейт : 128 Кбит/сек
Каналы : 2 канала
Частота : 44,1 КГц
Метод сжатия : С потерями
Задержка видео : 26 мс.
Размер потока : 73,9 Мбайт (8%)
Язык : Russian
Общее
Идентификатор : 1 (0x1)
Формат : MPEG-TS
Размер файла : 2,50 Гбайт
Продолжительность : 1 ч. 10 м.
Режим общего битрейта : Переменный
Общий поток : 5072 Кбит/сек
Видео
Идентификатор : 2063 (0x80F)
Идентификатор меню : 1 (0x1)
Формат : AVC
Формат/Информация : Advanced Video Codec
Профиль формата : [email protected]
Параметр CABAC формата : Да
Параметр ReFrames формата : 4 кадра
Идентификатор кодека : 27
Продолжительность : 1 ч. 10 м.
Вид битрейта : Переменный
Максимальный битрейт : 5000 Кбит/сек
Ширина : 1920 пикселей
Высота : 1080 пикселей
Соотношение сторон : 16:9
Режим частоты кадров : Переменный
Цветовое пространство : YUV
Субдискретизация насыщенности : 4:2:0
Битовая глубина : 8 бит
Тип развёртки : MBAFF
Аудио
Идентификатор : 2062 (0x80E)
Идентификатор меню : 1 (0x1)
Формат : AAC
Формат/Информация : Advanced Audio Codec
Версия формата : Version 4
Профиль формата : LC
Режим смешивания : ADTS
Идентификатор кодека : 15
Продолжительность : 1 ч. 10 м.
Вид битрейта : Переменный
Каналы : 2 канала
Расположение каналов : Front: L R
Частота : 48,0 КГц
Метод сжатия : С потерями
Download / Скачать

Хотите скачать бесплатно? Зарегистрируйтесь на сайте (ссылка на регистрацию). Pirat.ca - самый быстрый торрент трекер в рунете!

Как скачивать  ·   Что такое торрент  ·   Рейтинг и ограничения



Последний раз редактировалось: UcrusPazzo (2014-02-12 02:32), всего редактировалось 2 раз(а)

serg_bmw

Гроза морей

651

Пост 11-Фев-2014 18:10 (спустя 19 часов)

[Q] 

Спасибо!!!

_________________
[Профиль]  [ЛС] 

Reno-19

Корсар

535

Пост 25-Окт-2014 17:25 (спустя 8 месяцев 13 дней)

[Q] 

Санный спорт... это круто..... Супер! Всем качать!!!
[Профиль]  [ЛС] 
Показать сообщения:    
Ответить на тему

Текущее время: Сегодня 06:50

Часовой пояс: GMT + 4



Вы не можете начинать темы
Вы не можете отвечать на сообщения
Вы не можете редактировать свои сообщения
Вы не можете удалять свои сообщения
Вы не можете голосовать в опросах
Вы не можете прикреплять файлы к сообщениям
Вы не можете скачивать файлы

Майнать ▼