ХХII Зимние Олимпийские Игры Сочи 2014 / Хоккей на льду, Предварительный раунд / Мужчины / Группа С / Чехия - Латвия (НТВ+ СПОРТХИТ - Дмитрий Савин, Михаил Мельников) [14.02.2014 г., DVBVRip, AVI, RU] [R.G. DOCpiratTV]

Ответить на тему
 
Автор
Сообщение

Пост 23-Фев-2014 11:57

[Q] 

UcrusPazzo

Хоккей на льду, Предварительный раунд / Мужчины / Группа С
Чехия - Латвия
Жаркие. Зимние. Твои.Официальный сайт "Сочи 2014" -Год выпуска: 14.02.2014 г.
Вид спорта: Хоккей на льду
Участники: Чехия - Латвия (Мужчины)
Продолжительность: 01:57:49
Комментатор: Дмитрий Савин, Михаил Мельников
Язык комментариев: русский-ТВ Канал: -Арена: Большой (Сочи, Россия) 14 февраля 2014 года, пятница. 12:00 МСК-Качество видео: DVBVRip
Контейнер: AVI
Видео кодек: XviD
Аудио кодек: Microsoft MPEG
Видео: 720x400 (1.80:1), 25 fps, XviD build 50 ~1999 kbps avg, 0.28 bit/pixel
Аудио: 48 kHz, Microsoft MPEG, 2 ch, ~192.00 kbps avg
Хоккей на льду. Расписание и результаты. Скачать.
Автор рипа:
Чехия: Ондржей Павелец (Александр Салак), Марек Жидлицки — Ладислав Шмид — Роман Червенка — Томаш Плеканец — Яромир Ягр, Томаш Каберле — Михал Розсивал — Милан Михалек — Давид Крейчи — Алеш Гемски, Михал Баринка — Збынек Михалек — Патрик Элиаш — Якуб Ворачек — Мартин Эрат, Лукаш Краичек — Мартин Ганзал — Ондржей Палат — Михаэль Фролик — Петр Недвед.
Главный тренер: Алоис Гадамчик.-Латвия: Эдгар Масальскис (Кристерс Гудлевскис), Арвидс Рекис — Сандис Озолиньш — Янис Спруктс — Лаурис Дарзиньш — Микелис Редлихс, Артур Кулда — Оскар Бартулис — Мартиньш Карсумс — Каспарс Даугавиньш — Земгус Гиргенсонс, Кристапс Сотниекс — Георгий Пуяц — Херберт Васильев — Микс Индрашис — Рональд Кениньш, Кришьянис Редлихс — Ральф Фрейбергс — Юрис Шталс — Мартиньш Ципулис — Виталий Павлов.
Главный тренер: Тед Нолан.-Главный судья: Тим Пил (США), Юри Рённ (Финляндия).
Общее
Формат : AVI
Формат/Информация : Audio Video Interleave
Размер файла : 1,81 Гбайт
Продолжительность : 1 ч. 57 м.
Общий поток : 2201 Кбит/сек
Название фильма : Хоккей. Предварительный раунд. Мужчины. Группа С. Чехия - Латвия (НТВ+) R.G. DOCpiratTV
Программа кодирования : VirtualDubMod 1.5.10.3 | www.virtualdub-fr.org || (build 2550/release)
Правообладатель : R.G. DOCpiratTV (UcrusPazzo)
Видео
Идентификатор : 0
Формат : MPEG-4 Visual
Профиль формата : Advanced Simple@L5
Параметр BVOP формата : 2
Параметр QPel формата : Нет
Параметр GMC формата : Без точки перехода
Параметр матрицы формата : Default (H.263)
Идентификатор кодека : XVID
Идентификатор кодека/Подсказка : XviD
Продолжительность : 1 ч. 57 м.
Битрейт : 1999 Кбит/сек
Ширина : 720 пикселей
Высота : 400 пикселей
Соотношение сторон : 16:9
Частота кадров : 25,000 кадров/сек
Цветовое пространство : YUV
Субдискретизация насыщенности : 4:2:0
Битовая глубина : 8 бит
Тип развёртки : Прогрессивная
Метод сжатия : С потерями
Бит/(Пиксели*Кадры) : 0.278
Размер потока : 1,65 Гбайт (91%)
Библиотека кодирования : XviD 1.2.1 (UTC 2008-12-04)
Аудио
Идентификатор : 1
Формат : MPEG Audio
Версия формата : Version 1
Профиль формата : Layer 2
Идентификатор кодека : 50
Продолжительность : 1 ч. 57 м.
Вид битрейта : Постоянный
Битрейт : 192 Кбит/сек
Каналы : 2 канала
Частота : 48,0 КГц
Метод сжатия : С потерями
Размер потока : 162 Мбайт (9%)
Выравнивание : Соединение по промежуткам
Продолжительность промежутка : 40 мс. (1,00 видеокадр)
Время предзагрузки промежутка : 504 мс.
Спасибо SashaR. (с другого ресурса) за исходный материал
Download / Скачать

Хотите скачать бесплатно? Зарегистрируйтесь на сайте (ссылка на регистрацию). Pirat.ca - самый быстрый торрент трекер в рунете!

Как скачивать  ·   Что такое торрент  ·   Рейтинг и ограничения

sevensv

Легенда

4094

Пост 23-Фев-2014 15:37 (спустя 3 часа)

[Q] 

Спасибо!!! Раздающему респект!
[Профиль]  [ЛС] 

Reno-19

Корсар

535

Пост 25-Окт-2014 17:28 (спустя 8 месяцев 2 дня)

[Q] 

Спасибо за раздачу.... Вы лучшие!
[Профиль]  [ЛС] 
Показать сообщения:    
Ответить на тему

Текущее время: Сегодня 10:07

Часовой пояс: GMT + 4



Вы не можете начинать темы
Вы не можете отвечать на сообщения
Вы не можете редактировать свои сообщения
Вы не можете удалять свои сообщения
Вы не можете голосовать в опросах
Вы не можете прикреплять файлы к сообщениям
Вы не можете скачивать файлы

Майнать ▼