(Rap, Hip-Hop) Johnyboy - Холод - 2011 [FLAC, tracks, lossless]

Ответить на тему
 
Автор
Сообщение

Пост 09-Сен-2012 23:11

[Q] 

AnTonyO

Корсар

____________________________________________________________________________________________________________Johnyboy / Холод____________________________________________________________________________________________________________ Год издания: 2011
Страна: Латвия
Жанр: Rap, Hip-Hop
Продолжительность: 01:19:34
Формат: FLAC
Битрейт аудио: lossless
Тип рипа: tracks
Наличие сканов в содержимом раздачи: нет
____________________________________________________________________________________________________________ _______________________________________________________________
01. Слово мне
02. Ходячая катастрофа
03. Не просите извинений
04. Отцы и дети (скит)
05. Счастье в бутылке
06. Влечение
07. Тот самый день (п.у. Eric Vice)
08. Сердцеед
09. Ненавижу, но люблю (п.у. Elvira_T)
10. Наша гонка
11. Значит всё 3,14здато (п.у. Sifo)
12. Когда я один (скит)
13. На шипах
14. Планеты тоже плачут
15. Под лидокаином
16. Щепки
17. Не доверяю
18. Нерождённый
19. Метр за метром
20. Тимка (скит)
21. Моя комната пуста
Exact Audio Copy V1.0 beta 3 from 29. August 2011
EAC extraction logfile from 10. March 2012, 11:29
Johnyboy / Холод
Used drive : hp DVD RW AD-7561S Adapter: 1 ID: 0
Read mode : Secure
Utilize accurate stream : Yes
Defeat audio cache : Yes
Make use of C2 pointers : No
Read offset correction : 6
Overread into Lead-In and Lead-Out : No
Fill up missing offset samples with silence : Yes
Delete leading and trailing silent blocks : No
Null samples used in CRC calculations : Yes
Used interface : Native Win32 interface for Win NT & 2000
Gap handling : Appended to previous track
Used output format : Internal WAV Routines
Sample format : 44.100 Hz; 16 Bit; Stereo
TOC of the extracted CD
Track | Start | Length | Start sector | End sector
---------------------------------------------------------
1 | 0:00.00 | 2:18.28 | 0 | 10377
2 | 2:18.28 | 4:08.07 | 10378 | 28984
3 | 6:26.35 | 3:58.65 | 28985 | 46899
4 | 10:25.25 | 1:41.11 | 46900 | 54485
5 | 12:06.36 | 5:26.56 | 54486 | 78991
6 | 17:33.17 | 3:53.07 | 78992 | 96473
7 | 21:26.24 | 4:08.26 | 96474 | 115099
8 | 25:34.50 | 3:55.14 | 115100 | 132738
9 | 29:29.64 | 4:22.64 | 132739 | 152452
10 | 33:52.53 | 4:32.31 | 152453 | 172883
11 | 38:25.09 | 3:21.27 | 172884 | 187985
12 | 41:46.36 | 1:12.11 | 187986 | 193396
13 | 42:58.47 | 5:03.06 | 193397 | 216127
14 | 48:01.53 | 3:47.22 | 216128 | 233174
15 | 51:49.00 | 5:33.32 | 233175 | 258181
16 | 57:22.32 | 4:14.52 | 258182 | 277283
17 | 61:37.09 | 3:32.17 | 277284 | 293200
18 | 65:09.26 | 4:55.26 | 293201 | 315351
19 | 70:04.52 | 4:38.49 | 315352 | 336250
20 | 74:43.26 | 1:56.42 | 336251 | 344992
21 | 76:39.68 | 2:54.13 | 344993 | 358055
Track 1
Filename D:\Новая папка (2)\01. Трек01.wav
Pre-gap length 0:00:02.00
Peak level 97.4 %
Extraction speed 2.5 X
Track quality 100.0 %
Test CRC A89281E6
Copy CRC A89281E6
Copy OK
Track 2
Filename D:\Новая папка (2)\02. Трек02.wav
Peak level 94.9 %
Extraction speed 3.2 X
Track quality 100.0 %
Test CRC A9A86938
Copy CRC A9A86938
Copy OK
Track 3
Filename D:\Новая папка (2)\03. Трек03.wav
Peak level 96.7 %
Extraction speed 3.4 X
Track quality 100.0 %
Test CRC AAE62BC6
Copy CRC AAE62BC6
Copy OK
Track 4
Filename D:\Новая папка (2)\04. Трек04.wav
Peak level 60.3 %
Extraction speed 3.0 X
Track quality 100.0 %
Test CRC 56C3EC4B
Copy CRC 56C3EC4B
Copy OK
Track 5
Filename D:\Новая папка (2)\05. Трек05.wav
Peak level 94.4 %
Extraction speed 4.0 X
Track quality 100.0 %
Test CRC A921F618
Copy CRC A921F618
Copy OK
Track 6
Filename D:\Новая папка (2)\06. Трек06.wav
Peak level 100.0 %
Extraction speed 4.1 X
Track quality 100.0 %
Test CRC 8327614D
Copy CRC 8327614D
Copy OK
Track 7
Filename D:\Новая папка (2)\07. Трек07.wav
Peak level 98.3 %
Extraction speed 3.5 X
Track quality 99.9 %
Test CRC 239AE09D
Copy CRC 239AE09D
Copy OK
Track 8
Filename D:\Новая папка (2)\08. Трек08.wav
Peak level 97.5 %
Extraction speed 4.4 X
Track quality 100.0 %
Test CRC 3BE211A1
Copy CRC 3BE211A1
Copy OK
Track 9
Filename D:\Новая папка (2)\09. Трек09.wav
Peak level 96.2 %
Extraction speed 4.7 X
Track quality 100.0 %
Test CRC 9CE9C077
Copy CRC 9CE9C077
Copy OK
Track 10
Filename D:\Новая папка (2)\10. Трек10.wav
Peak level 98.5 %
Extraction speed 4.9 X
Track quality 100.0 %
Test CRC 71196D2B
Copy CRC 71196D2B
Copy OK
Track 11
Filename D:\Новая папка (2)\11. Трек11.wav
Peak level 93.1 %
Extraction speed 4.8 X
Track quality 100.0 %
Test CRC C952670C
Copy CRC C952670C
Copy OK
Track 12
Filename D:\Новая папка (2)\12. Трек12.wav
Peak level 43.4 %
Extraction speed 3.8 X
Track quality 100.0 %
Test CRC 341BABEE
Copy CRC 341BABEE
Copy OK
Track 13
Filename D:\Новая папка (2)\13. Трек13.wav
Peak level 97.4 %
Extraction speed 4.6 X
Track quality 99.9 %
Test CRC F6407438
Copy CRC F6407438
Copy OK
Track 14
Filename D:\Новая папка (2)\14. Трек14.wav
Peak level 96.5 %
Extraction speed 5.3 X
Track quality 100.0 %
Test CRC 1FBAE487
Copy CRC 1FBAE487
Copy OK
Track 15
Filename D:\Новая папка (2)\15. Трек15.wav
Peak level 94.9 %
Extraction speed 5.8 X
Track quality 100.0 %
Test CRC A5F53A1D
Copy CRC A5F53A1D
Copy OK
Track 16
Filename D:\Новая папка (2)\16. Трек16.wav
Peak level 100.0 %
Extraction speed 5.7 X
Track quality 100.0 %
Test CRC CFA5A1FE
Copy CRC CFA5A1FE
Copy OK
Track 17
Filename D:\Новая папка (2)\17. Трек17.wav
Peak level 100.0 %
Extraction speed 5.7 X
Track quality 100.0 %
Test CRC 0A208E2F
Copy CRC 0A208E2F
Copy OK
Track 18
Filename D:\Новая папка (2)\18. Трек18.wav
Peak level 96.9 %
Extraction speed 6.2 X
Track quality 100.0 %
Test CRC 46731D68
Copy CRC 46731D68
Copy OK
Track 19
Filename D:\Новая папка (2)\19. Трек19.wav
Peak level 100.0 %
Extraction speed 6.3 X
Track quality 100.0 %
Test CRC DCB659D0
Copy CRC DCB659D0
Copy OK
Track 20
Filename D:\Новая папка (2)\20. Трек20.wav
Peak level 77.9 %
Extraction speed 5.3 X
Track quality 100.0 %
Test CRC 3FB54B36
Copy CRC 3FB54B36
Copy OK
Track 21
Filename D:\Новая папка (2)\21. Трек21.wav
Peak level 94.6 %
Extraction speed 5.9 X
Track quality 100.0 %
Test CRC 52CF2103
Copy CRC 52CF2103
Copy OK
No errors occurred
End of status report
------------------------------------------------------------
Exact Audio Copy V1.0 beta 3 from 29. August 2011
EAC extraction logfile from 10. March 2012, 11:29
Johnyboy / Холод
Used drive : hp DVD RW AD-7561S Adapter: 1 ID: 0
Read mode : Secure
Utilize accurate stream : Yes
Defeat audio cache : Yes
Make use of C2 pointers : No
Read offset correction : 6
Overread into Lead-In and Lead-Out : No
Fill up missing offset samples with silence : Yes
Delete leading and trailing silent blocks : No
Null samples used in CRC calculations : Yes
Used interface : Native Win32 interface for Win NT & 2000
Gap handling : Appended to previous track
Used output format : Internal WAV Routines
Sample format : 44.100 Hz; 16 Bit; Stereo
TOC of the extracted CD
Track | Start | Length | Start sector | End sector
---------------------------------------------------------
1 | 0:00.00 | 2:18.28 | 0 | 10377
2 | 2:18.28 | 4:08.07 | 10378 | 28984
3 | 6:26.35 | 3:58.65 | 28985 | 46899
4 | 10:25.25 | 1:41.11 | 46900 | 54485
5 | 12:06.36 | 5:26.56 | 54486 | 78991
6 | 17:33.17 | 3:53.07 | 78992 | 96473
7 | 21:26.24 | 4:08.26 | 96474 | 115099
8 | 25:34.50 | 3:55.14 | 115100 | 132738
9 | 29:29.64 | 4:22.64 | 132739 | 152452
10 | 33:52.53 | 4:32.31 | 152453 | 172883
11 | 38:25.09 | 3:21.27 | 172884 | 187985
12 | 41:46.36 | 1:12.11 | 187986 | 193396
13 | 42:58.47 | 5:03.06 | 193397 | 216127
14 | 48:01.53 | 3:47.22 | 216128 | 233174
15 | 51:49.00 | 5:33.32 | 233175 | 258181
16 | 57:22.32 | 4:14.52 | 258182 | 277283
17 | 61:37.09 | 3:32.17 | 277284 | 293200
18 | 65:09.26 | 4:55.26 | 293201 | 315351
19 | 70:04.52 | 4:38.49 | 315352 | 336250
20 | 74:43.26 | 1:56.42 | 336251 | 344992
21 | 76:39.68 | 2:54.13 | 344993 | 358055
Track 1
Filename D:\Новая папка (2)\01. Трек01.wav
Pre-gap length 0:00:02.00
Peak level 97.4 %
Extraction speed 2.5 X
Track quality 100.0 %
Test CRC A89281E6
Copy CRC A89281E6
Copy OK
Track 2
Filename D:\Новая папка (2)\02. Трек02.wav
Peak level 94.9 %
Extraction speed 3.2 X
Track quality 100.0 %
Test CRC A9A86938
Copy CRC A9A86938
Copy OK
Track 3
Filename D:\Новая папка (2)\03. Трек03.wav
Peak level 96.7 %
Extraction speed 3.4 X
Track quality 100.0 %
Test CRC AAE62BC6
Copy CRC AAE62BC6
Copy OK
Track 4
Filename D:\Новая папка (2)\04. Трек04.wav
Peak level 60.3 %
Extraction speed 3.0 X
Track quality 100.0 %
Test CRC 56C3EC4B
Copy CRC 56C3EC4B
Copy OK
Track 5
Filename D:\Новая папка (2)\05. Трек05.wav
Peak level 94.4 %
Extraction speed 4.0 X
Track quality 100.0 %
Test CRC A921F618
Copy CRC A921F618
Copy OK
Track 6
Filename D:\Новая папка (2)\06. Трек06.wav
Peak level 100.0 %
Extraction speed 4.1 X
Track quality 100.0 %
Test CRC 8327614D
Copy CRC 8327614D
Copy OK
Track 7
Filename D:\Новая папка (2)\07. Трек07.wav
Peak level 98.3 %
Extraction speed 3.5 X
Track quality 99.9 %
Test CRC 239AE09D
Copy CRC 239AE09D
Copy OK
Track 8
Filename D:\Новая папка (2)\08. Трек08.wav
Peak level 97.5 %
Extraction speed 4.4 X
Track quality 100.0 %
Test CRC 3BE211A1
Copy CRC 3BE211A1
Copy OK
Track 9
Filename D:\Новая папка (2)\09. Трек09.wav
Peak level 96.2 %
Extraction speed 4.7 X
Track quality 100.0 %
Test CRC 9CE9C077
Copy CRC 9CE9C077
Copy OK
Track 10
Filename D:\Новая папка (2)\10. Трек10.wav
Peak level 98.5 %
Extraction speed 4.9 X
Track quality 100.0 %
Test CRC 71196D2B
Copy CRC 71196D2B
Copy OK
Track 11
Filename D:\Новая папка (2)\11. Трек11.wav
Peak level 93.1 %
Extraction speed 4.8 X
Track quality 100.0 %
Test CRC C952670C
Copy CRC C952670C
Copy OK
Track 12
Filename D:\Новая папка (2)\12. Трек12.wav
Peak level 43.4 %
Extraction speed 3.8 X
Track quality 100.0 %
Test CRC 341BABEE
Copy CRC 341BABEE
Copy OK
Track 13
Filename D:\Новая папка (2)\13. Трек13.wav
Peak level 97.4 %
Extraction speed 4.6 X
Track quality 99.9 %
Test CRC F6407438
Copy CRC F6407438
Copy OK
Track 14
Filename D:\Новая папка (2)\14. Трек14.wav
Peak level 96.5 %
Extraction speed 5.3 X
Track quality 100.0 %
Test CRC 1FBAE487
Copy CRC 1FBAE487
Copy OK
Track 15
Filename D:\Новая папка (2)\15. Трек15.wav
Peak level 94.9 %
Extraction speed 5.8 X
Track quality 100.0 %
Test CRC A5F53A1D
Copy CRC A5F53A1D
Copy OK
Track 16
Filename D:\Новая папка (2)\16. Трек16.wav
Peak level 100.0 %
Extraction speed 5.7 X
Track quality 100.0 %
Test CRC CFA5A1FE
Copy CRC CFA5A1FE
Copy OK
Track 17
Filename D:\Новая папка (2)\17. Трек17.wav
Peak level 100.0 %
Extraction speed 5.7 X
Track quality 100.0 %
Test CRC 0A208E2F
Copy CRC 0A208E2F
Copy OK
Track 18
Filename D:\Новая папка (2)\18. Трек18.wav
Peak level 96.9 %
Extraction speed 6.2 X
Track quality 100.0 %
Test CRC 46731D68
Copy CRC 46731D68
Copy OK
Track 19
Filename D:\Новая папка (2)\19. Трек19.wav
Peak level 100.0 %
Extraction speed 6.3 X
Track quality 100.0 %
Test CRC DCB659D0
Copy CRC DCB659D0
Copy OK
Track 20
Filename D:\Новая папка (2)\20. Трек20.wav
Peak level 77.9 %
Extraction speed 5.3 X
Track quality 100.0 %
Test CRC 3FB54B36
Copy CRC 3FB54B36
Copy OK
Track 21
Filename D:\Новая папка (2)\21. Трек21.wav
Peak level 94.6 %
Extraction speed 5.9 X
Track quality 100.0 %
Test CRC 52CF2103
Copy CRC 52CF2103
Copy OK
No errors occurred
End of status report
Download / Скачать

Хотите скачать бесплатно? Зарегистрируйтесь на сайте (ссылка на регистрацию). Pirat.ca - самый быстрый торрент трекер в рунете!

Как скачивать  ·   Что такое торрент  ·   Рейтинг и ограничения

NeonFlow256

Лоцман

Пост 13-Дек-2014 06:14 (спустя 2 года 3 месяца)

[Q] 

Спасибо за раздачу!:) Планируется ли выложить его новые альбомы также во FLAC?
[Профиль]  [ЛС] 
Показать сообщения:    
Ответить на тему

Текущее время: Сегодня 07:11

Часовой пояс: GMT + 4



Вы не можете начинать темы
Вы не можете отвечать на сообщения
Вы не можете редактировать свои сообщения
Вы не можете удалять свои сообщения
Вы не можете голосовать в опросах
Вы не можете прикреплять файлы к сообщениям
Вы не можете скачивать файлы

Майнать ▼