Уважаемый Гость!
Вы можете поддержать проект и зарегистрироваться у наших партнеров - онлайн-стратегия MyLands. При регистрации в игре Вы получите код, который сможете активировать после регистрации на pirat.ca и получить 1000 дублонов.

Ваш код:
d3bbd906dcd3cb9e17457607e92a6e485b6941fd
 
     

(Chanson) Иван Кучин - Сиротская доля - 2015 [FLAC, image+.cue, lossless]

Ответить на тему
 
Автор
Сообщение

Пост 04-Фев-2015 21:08

[Q] 

шарик-off

-Иван Кучин / Сиротская доля-- Год издания: 2015
Страна: Россия
Жанр: Chanson
Продолжительность: 00:53:57-Лейбл издания: United Music Group
Страна-выпуска диска: Россия
Номер по каталогу: UMGCD15-558
Формат: FLAC
Битрейт аудио: lossless
Тип рипа: image+.cue
Наличие сканов в содержимом раздачи: да-
01. Колесница
02. Калина
03. Над Родной Стороной
04. Сиротская Доля
05. Давай Поближе сядем
06. Кровинка
07. Летят Года
08. Ла-Манш
09. Неудачный Побег
10. На краешке
11. Замерзшая Герань
12. По Дороге
13. Черное Золото
14. Корешок RMX
Код:
Exact Audio Copy V1.0 beta 4 from 7. December 2014
EAC extraction logfile from 3. February 2015, 18:54
И.КУЧИН / СИРОТСКАЯ ДОЛЯ
Used drive  : MATSHITABD-CMB UJ160   Adapter: 1  ID: 0
Read mode               : Secure
Utilize accurate stream : Yes
Defeat audio cache      : Yes
Make use of C2 pointers : No
Read offset correction                      : 103
Overread into Lead-In and Lead-Out          : No
Fill up missing offset samples with silence : Yes
Delete leading and trailing silent blocks   : No
Null samples used in CRC calculations       : Yes
Used interface                              : Native Win32 interface for Win NT & 2000
Used output format              : User Defined Encoder
Selected bitrate                : 896 kBit/s
Quality                         : High
Add ID3 tag                     : Yes
Command line compressor         : C:\Program Files (x86)\Exact Audio Copy\Flac\flac.exe
Additional command line options : -V -8 %source%
TOC of the extracted CD
     Track |   Start  |  Length  | Start sector | End sector
    ---------------------------------------------------------
        1  |  0:00.00 |  4:26.01 |         0    |    19950
        2  |  4:26.01 |  3:10.67 |     19951    |    34267
        3  |  7:36.68 |  4:55.37 |     34268    |    56429
        4  | 12:32.30 |  4:45.53 |     56430    |    77857
        5  | 17:18.08 |  3:32.36 |     77858    |    93793
        6  | 20:50.44 |  3:37.65 |     93794    |   110133
        7  | 24:28.34 |  4:01.70 |    110134    |   128278
        8  | 28:30.29 |  3:58.24 |    128279    |   146152
        9  | 32:28.53 |  4:47.47 |    146153    |   167724
       10  | 37:16.25 |  3:25.33 |    167725    |   183132
       11  | 40:41.58 |  3:04.06 |    183133    |   196938
       12  | 43:45.64 |  3:41.33 |    196939    |   213546
       13  | 47:27.22 |  3:48.19 |    213547    |   230665
       14  | 51:15.41 |  2:40.73 |    230666    |   242738
Range status and errors
Selected range
     Filename C:\Users\GREH\Desktop\И.КУЧИН - СИРОТСКАЯ ДОЛЯ\И.КУЧИН - СИРОТСКАЯ ДОЛЯ.wav
     Peak level 99.8 %
     Extraction speed 2.6 X
     Range quality 100.0 %
     Test CRC C600E613
     Copy CRC C600E613
     Copy OK
No errors occurred
AccurateRip summary
Track  1  not present in database
Track  2  not present in database
Track  3  not present in database
Track  4  not present in database
Track  5  not present in database
Track  6  not present in database
Track  7  not present in database
Track  8  not present in database
Track  9  not present in database
Track 10  not present in database
Track 11  not present in database
Track 12  not present in database
Track 13  not present in database
Track 14  not present in database
None of the tracks are present in the AccurateRip database
End of status report
---- CUETools DB Plugin V2.1.4
[CTDB TOCID: MlKwtJc8a1BcX90bye_5xofDlqU-] found
Submit result: already submitted
Track | CTDB Status
  1   | (1/1) Accurately ripped
  2   | (1/1) Accurately ripped
  3   | (1/1) Accurately ripped
  4   | (1/1) Accurately ripped
  5   | (1/1) Accurately ripped
  6   | (1/1) Accurately ripped
  7   | (1/1) Accurately ripped
  8   | (1/1) Accurately ripped
  9   | (1/1) Accurately ripped
10   | (1/1) Accurately ripped
11   | (1/1) Accurately ripped
12   | (1/1) Accurately ripped
13   | (1/1) Accurately ripped
14   | (1/1) Accurately ripped
==== Log checksum 5FCA6017EA4D24E6D225506708D428899E2A265ED4EC286850A867B673C72892 ====
Код:
REM GENRE Chanson
REM DATE 2015
REM DISCID BD0CA40E
REM COMMENT "ExactAudioCopy v1.0b4"
PERFORMER "И.КУЧИН"
TITLE "СИРОТСКАЯ ДОЛЯ"
FILE "И.КУЧИН - СИРОТСКАЯ ДОЛЯ.flac" WAVE
  TRACK 01 AUDIO
    TITLE "Колесница"
    PERFORMER "И.КУЧИН"
    INDEX 01 00:00:00
  TRACK 02 AUDIO
    TITLE "Калина"
    PERFORMER "И.КУЧИН"
    INDEX 01 04:26:01
  TRACK 03 AUDIO
    TITLE "Над Родной Стороной"
    PERFORMER "И.КУЧИН"
    INDEX 00 07:34:52
    INDEX 01 07:36:68
  TRACK 04 AUDIO
    TITLE "Сиротская Доля"
    PERFORMER "И.КУЧИН"
    INDEX 01 12:32:30
  TRACK 05 AUDIO
    TITLE "Давай Поближе сядем"
    PERFORMER "И.КУЧИН"
    INDEX 01 17:18:08
  TRACK 06 AUDIO
    TITLE "Кровинка"
    PERFORMER "И.КУЧИН"
    INDEX 01 20:50:44
  TRACK 07 AUDIO
    TITLE "Летят Года"
    PERFORMER "И.КУЧИН"
    INDEX 01 24:28:34
  TRACK 08 AUDIO
    TITLE "Ла-Манш"
    PERFORMER "И.КУЧИН"
    INDEX 01 28:30:29
  TRACK 09 AUDIO
    TITLE "Неудачный Побег"
    PERFORMER "И.КУЧИН"
    INDEX 01 32:28:53
  TRACK 10 AUDIO
    TITLE "На Краешке"
    PERFORMER "И.КУЧИН"
    INDEX 01 37:16:25
  TRACK 11 AUDIO
    TITLE "Замерзшая Герань"
    PERFORMER "И.КУЧИН"
    INDEX 01 40:41:58
  TRACK 12 AUDIO
    TITLE "По Дороге"
    PERFORMER "И.КУЧИН"
    INDEX 01 43:45:64
  TRACK 13 AUDIO
    TITLE "Черное Золото"
    PERFORMER "И.КУЧИН"
    INDEX 01 47:27:22
  TRACK 14 AUDIO
    TITLE "Корешок RMX"
    PERFORMER "И.КУЧИН"
    INDEX 01 51:15:41
Код:
AUDIOCHECKER v2.0 beta (build 457) - by Dester - [email protected]
~~~~~~~~~~~~~~~~~~~~~~~~~~~~~~~~~~
Начато: вторник, 03. 02. 2015. - 19:02.48
Найдено файлов: 1
1 -===- C:\Users\GREH\Desktop\И.КУЧИН - СИРОТСКАЯ ДОЛЯ\И.КУЧИН - СИРОТСКАЯ ДОЛЯ.flac
  Извлечение успешно выполнено
  Заключение: этот трек - CDDA с вероятностью 100%
  Временный файл удалён.
Завершено: вторник, 03. 02. 2015. - 19:05.03 (Время операции: 0:02.14)
Новый альбом наверное самого мастеровитого артиста, стоявшего у истоков жанра «Русский Шансон». По-настоящему всенародный любимец и заслуженный исполнитель жанра - Иван Кучин, со своим новым альбомом «Сиротская доля». Слушателя, как всегда, ожидает фирменный «Кучиновский» саунд», приправленный хлёсткими и точными стихами автора и исполнителя. Новый альбом мэтра Русского Шансона Ивана Кучина - это как глоток свежего воздуха, свежей воды. 14 новых песен, 14 необыкновенных историй ожидают слушателя этого по-настоящему честного и достойного внимания альбома!
Download / Скачать

Хотите скачать бесплатно? Зарегистрируйтесь на сайте (ссылка на регистрацию). Pirat.ca - самый быстрый торрент трекер в рунете!

Как скачивать  ·   Что такое торрент  ·   Рейтинг и ограничения

Показать сообщения:    
Ответить на тему

Текущее время: Сегодня 09:41

Часовой пояс: GMT + 4



Вы не можете начинать темы
Вы не можете отвечать на сообщения
Вы не можете редактировать свои сообщения
Вы не можете удалять свои сообщения
Вы не можете голосовать в опросах
Вы не можете прикреплять файлы к сообщениям
Вы не можете скачивать файлы

▼ Вниз