(Instrumental / Jazz / Blues) - VA - Sax & Sex - Collection (10 CD) (1995) - (VA) (1995) (Ape) (Lossless) (image+.cue)

Ответить на тему
 
Автор
Сообщение

Пост 28-Окт-2011 11:48

[Q] 

Koralina

VA - Sax & Sex - Collection (10 CD) (1995) Производство: VA
Жанр: Instrumental / Jazz / Blues
Год издания: 1995
Аудио кодеки: Ape
Битрейт аудио: Lossless
Тип рипа: image+.cue
Продолжительность: 11:39:44
Продолжительность: 02.25.33

01. Dave Stewart & Candy Dufler - Lili Was Here
02. Kenny G. - Let Go
03. David Sanborn - Goodbye
04. George Howard - Baby Come To Me
05. Sil Austin - Johnny Guitar
06. Richard Elliot - I'm Not In Love
07. The Gino Marinello Orchestra - Girl
08. Chris White - A New Day
09. Candy Dufler - Home Is Not A House
10. David Sanborn - Same Girl
11. Kenny G. - Going Home
12. Sade - Siempre Hay Esperanza
13. Brancaster Studio Orchestra - Careless Whisper
14. The Alan Parsons Project - Pipeline
15. The Gino Marinello Orchestra - Angie
16. Kenny G. - Silhouette
Exact Audio Copy V0.99 prebeta 5 from 4. May 2009
EAC extraction logfile from 14. June 2010, 22:18
Various / Sax & Sex
Used drive : ASUS DRW-1814BLT Adapter: 2 ID: 1
Read mode : Secure
Utilize accurate stream : Yes
Defeat audio cache : Yes
Make use of C2 pointers : No
Read offset correction : 6
Overread into Lead-In and Lead-Out : No
Fill up missing offset samples with silence : Yes
Delete leading and trailing silent blocks : No
Null samples used in CRC calculations : Yes
Used interface : Installed external ASPI interface
Used output format : User Defined Encoder
Selected bitrate : 896 kBit/s
Quality : High
Add ID3 tag : No
Command line compressor : D:\utils\wavpack.exe
Additional command line options : -hlm %s
TOC of the extracted CD
Track | Start | Length | Start sector | End sector
---------------------------------------------------------
1 | 0:00.00 | 4:17.40 | 0 | 19314
2 | 4:17.40 | 5:47.50 | 19315 | 45389
3 | 10:05.15 | 5:31.70 | 45390 | 70284
4 | 15:37.10 | 6:36.70 | 70285 | 100054
5 | 22:14.05 | 2:54.15 | 100055 | 113119
6 | 25:08.20 | 5:04.05 | 113120 | 135924
7 | 30:12.25 | 3:00.40 | 135925 | 149464
8 | 33:12.65 | 4:21.05 | 149465 | 169044
9 | 37:33.70 | 3:57.65 | 169045 | 186884
10 | 41:31.60 | 2:20.20 | 186885 | 197404
11 | 43:52.05 | 4:15.30 | 197405 | 216559
12 | 48:07.35 | 5:18.10 | 216560 | 240419
13 | 53:25.45 | 3:57.00 | 240420 | 258194
14 | 57:22.45 | 3:58.60 | 258195 | 276104
15 | 61:21.30 | 5:56.70 | 276105 | 302874
16 | 67:18.25 | 5:28.30 | 302875 | 327504
Range status and errors
Selected range
Filename C:\temp\Various - Sax & Sex.wav
Peak level 100.0 %
Range quality 99.9 %
Test CRC 157E24FA
Copy CRC 157E24FA
Copy OK
No errors occurred
AccurateRip summary
Track 1 not present in database
Track 2 not present in database
Track 3 not present in database
Track 4 not present in database
Track 5 not present in database
Track 6 not present in database
Track 7 not present in database
Track 8 not present in database
Track 9 not present in database
Track 10 not present in database
Track 11 not present in database
Track 12 not present in database
Track 13 not present in database
Track 14 not present in database
Track 15 not present in database
Track 16 not present in database
None of the tracks are present in the AccurateRip database
End of status report
REM GENRE "Blues"
REM DISCID EE110E10
REM COMMENT "ExactAudioCopy v0.99pb5"
PERFORMER "Various"
TITLE "Sax & Sex"
FILE "Various - Sax & Sex [1995].ape" WAVE
TRACK 01 AUDIO
TITLE "Lili Was Here"
PERFORMER "Dave Stewart & Candy Dufler"
INDEX 01 00:00:00
TRACK 02 AUDIO
TITLE "Let Go"
PERFORMER "Kenny G."
INDEX 01 04:17:40
TRACK 03 AUDIO
TITLE "Goodbye"
PERFORMER "David Sanborn"
INDEX 00 10:02:45
INDEX 01 10:05:15
TRACK 04 AUDIO
TITLE "Baby Come To Me"
PERFORMER "George Howard"
INDEX 00 15:34:30
INDEX 01 15:37:10
TRACK 05 AUDIO
TITLE "Johnny Guitar"
PERFORMER "Sil Austin"
INDEX 00 22:11:05
INDEX 01 22:14:05
TRACK 06 AUDIO
TITLE "I'm Not In Love"
PERFORMER "Richard Elliot"
INDEX 00 25:06:40
INDEX 01 25:08:20
TRACK 07 AUDIO
TITLE "Girl"
PERFORMER "The Gino Marinello Orchestra"
INDEX 00 30:10:00
INDEX 01 30:12:25
TRACK 08 AUDIO
TITLE "A New Day"
PERFORMER "Chris White"
INDEX 00 33:10:40
INDEX 01 33:12:65
TRACK 09 AUDIO
TITLE "Home Is Not A House"
PERFORMER "Candy Dufler"
INDEX 00 37:33:15
INDEX 01 37:33:70
TRACK 10 AUDIO
TITLE "Same Girl"
PERFORMER "David Sanborn"
INDEX 00 41:29:40
INDEX 01 41:31:60
TRACK 11 AUDIO
TITLE "Going Home"
PERFORMER "Kenny G."
INDEX 00 43:50:20
INDEX 01 43:52:05
TRACK 12 AUDIO
TITLE "Siempre Hay Esperanza"
PERFORMER "Sade"
INDEX 00 48:05:05
INDEX 01 48:07:35
TRACK 13 AUDIO
TITLE "Careless Whisper"
PERFORMER "Brancaster Studio Orchestra"
INDEX 00 53:23:60
INDEX 01 53:25:45
TRACK 14 AUDIO
TITLE "Pipeline"
PERFORMER "The Alan Parsons Project"
INDEX 00 57:20:40
INDEX 01 57:22:45
TRACK 15 AUDIO
TITLE "Angie"
PERFORMER "The Gino Marinello Orchestra"
INDEX 00 61:19:10
INDEX 01 61:21:30
TRACK 16 AUDIO
TITLE "Silhouette"
PERFORMER "Kenny G."
INDEX 00 67:16:15
INDEX 01 67:18:25
Продолжительность: 01.55.58

01. Fausto Papetti - Da Ya Think I'm Sexy
02. Sil Austin - I Left My Heart In San Francisco
03. Fausto Papetti - Love Story
04. Brain Smith - Moonlight Sax Medley
05. Fausto Papetti - Natali
06. Sil Austin - Misty
07. Ray Conniff - Beautiful Love
08. Fausto Papetti - Laura
09. Teekay - Soft Sax
10. Kenny G - Last Night Of The Year
11. Sil Austin - Moon River
12. Fausto Papetti - Sleepy Shores
13. Ray Conniff - Our Waltz
14. Joerg Strawe - Events In Motion
15. Sil Austin - Summertime
16. Brain Smith - Just The Way You Are
17. Fausto Papetti - Moonlight In Vermont
18. Brain Smith - Moonlighting Theme
Exact Audio Copy V0.99 prebeta 5 from 4. May 2009
EAC extraction logfile from 15. June 2010, 1:16
Various / Sax & Sex vol. 2
Used drive : ASUS DRW-1814BLT Adapter: 2 ID: 1
Read mode : Secure
Utilize accurate stream : Yes
Defeat audio cache : Yes
Make use of C2 pointers : No
Read offset correction : 6
Overread into Lead-In and Lead-Out : No
Fill up missing offset samples with silence : Yes
Delete leading and trailing silent blocks : No
Null samples used in CRC calculations : Yes
Used interface : Native Win32 interface for Win NT & 2000
Used output format : User Defined Encoder
Selected bitrate : 896 kBit/s
Quality : High
Add ID3 tag : No
Command line compressor : D:\utils\wavpack.exe
Additional command line options : -hlm %s
TOC of the extracted CD
Track | Start | Length | Start sector | End sector
---------------------------------------------------------
1 | 0:00.00 | 3:41.47 | 0 | 16621
2 | 3:41.47 | 2:42.63 | 16622 | 28834
3 | 6:24.35 | 2:59.20 | 28835 | 42279
4 | 9:23.55 | 4:17.67 | 42280 | 61621
5 | 13:41.47 | 3:56.28 | 61622 | 79349
6 | 17:38.00 | 2:36.02 | 79350 | 91051
7 | 20:14.02 | 2:46.40 | 91052 | 103541
8 | 23:00.42 | 2:08.58 | 103542 | 113199
9 | 25:09.25 | 4:06.20 | 113200 | 131669
10 | 29:15.45 | 2:43.45 | 131670 | 143939
11 | 31:59.15 | 3:19.50 | 143940 | 158914
12 | 35:18.65 | 2:59.35 | 158915 | 172374
13 | 38:18.25 | 2:29.22 | 172375 | 183571
14 | 40:47.47 | 3:21.43 | 183572 | 198689
15 | 44:09.15 | 2:25.37 | 198690 | 209601
16 | 46:34.52 | 4:42.38 | 209602 | 230789
17 | 51:17.15 | 3:17.40 | 230790 | 245604
18 | 54:34.55 | 3:24.27 | 245605 | 260931
Range status and errors
Selected range
Filename C:\temp\Various - Sax & Sex vol. 2.wav
Peak level 100.0 %
Range quality 100.0 %
Test CRC ECCB1DC9
Copy CRC ECCB1DC9
Copy OK
No errors occurred
AccurateRip summary
Track 1 not present in database
Track 2 not present in database
Track 3 not present in database
Track 4 not present in database
Track 5 not present in database
Track 6 not present in database
Track 7 not present in database
Track 8 not present in database
Track 9 not present in database
Track 10 not present in database
Track 11 not present in database
Track 12 not present in database
Track 13 not present in database
Track 14 not present in database
Track 15 not present in database
Track 16 not present in database
Track 17 not present in database
Track 18 not present in database
None of the tracks are present in the AccurateRip database
End of status report
REM GENRE "Jazz"
REM DATE 1995
REM DISCID E70D9712
REM COMMENT "ExactAudioCopy v0.99pb5"
PERFORMER "Various"
TITLE "Sax & Sex vol. 2"
FILE "Various - Sax & Sex vol. 2 [1995].ape" WAVE
TRACK 01 AUDIO
TITLE "Da Ya Think I'm Sexy"
PERFORMER "Fausto Papetti"
INDEX 01 00:00:00
TRACK 02 AUDIO
TITLE "I Left My Heart In San Francisco"
PERFORMER "Sil Austin"
INDEX 00 03:39:22
INDEX 01 03:41:47
TRACK 03 AUDIO
TITLE "Love Story"
PERFORMER "Fausto Papetti"
INDEX 00 06:22:14
INDEX 01 06:24:35
TRACK 04 AUDIO
TITLE "Moonlight Sax Medley"
PERFORMER "Brain Smith"
INDEX 00 09:20:56
INDEX 01 09:23:55
TRACK 05 AUDIO
TITLE "Natali"
PERFORMER "Fausto Papetti"
INDEX 00 13:38:74
INDEX 01 13:41:47
TRACK 06 AUDIO
TITLE "Misty"
PERFORMER "Sil Austin"
INDEX 00 17:34:45
INDEX 01 17:38:00
TRACK 07 AUDIO
TITLE "Beautiful Love"
PERFORMER "Ray Conniff"
INDEX 00 20:12:08
INDEX 01 20:14:02
TRACK 08 AUDIO
TITLE "Laura"
PERFORMER "Fausto Papetti"
INDEX 00 22:58:12
INDEX 01 23:00:42
TRACK 09 AUDIO
TITLE "Soft Sax"
PERFORMER "Teekay"
INDEX 00 25:06:20
INDEX 01 25:09:25
TRACK 10 AUDIO
TITLE "Last Night Of The Year"
PERFORMER "Kenny G"
INDEX 00 29:12:14
INDEX 01 29:15:45
TRACK 11 AUDIO
TITLE "Moon River"
PERFORMER "Sil Austin"
INDEX 00 31:55:36
INDEX 01 31:59:15
TRACK 12 AUDIO
TITLE "Sleepy Shores"
PERFORMER "Fausto Papetti"
INDEX 00 35:16:42
INDEX 01 35:18:65
TRACK 13 AUDIO
TITLE "Our Waltz"
PERFORMER "Ray Conniff"
INDEX 00 38:14:71
INDEX 01 38:18:25
TRACK 14 AUDIO
TITLE "Events In Motion"
PERFORMER "Joerg Strawe"
INDEX 00 40:45:65
INDEX 01 40:47:47
TRACK 15 AUDIO
TITLE "Summertime"
PERFORMER "Sil Austin"
INDEX 00 44:06:35
INDEX 01 44:09:15
TRACK 16 AUDIO
TITLE "Just The Way You Are"
PERFORMER "Brain Smith"
INDEX 00 46:32:32
INDEX 01 46:34:52
TRACK 17 AUDIO
TITLE "Moonlight In Vermont"
PERFORMER "Fausto Papetti"
INDEX 00 51:13:66
INDEX 01 51:17:15
TRACK 18 AUDIO
TITLE "Moonlighting Theme"
PERFORMER "Brain Smith"
INDEX 00 54:31:62
INDEX 01 54:34:55
Продолжительность: 02.18.33

01. Fausto Papetti - Emmanuelle
02. Ernestine - Careless Whisper
03. Fausto Papetti - Fly Me To The Moon
04. Brain Smith - Anche Un Uomo
05. Ray Conniff - Imagination
06. Brain Smith - Songbird
07. Fausto Papetti - La Vela Bianca
08. Candy Dulfer - Sunday Afternoon
09. Spectrum - How Am I Supposed To Live Without You
10. Fausto Papetti - Amapola
11. Sil Austin - Smoke Gets In Your Eyes
12. Fausto Papetti - Abrazame
13. After Hours - Forever Is As Far As I Go
14. Brain Smith - Summertime
15. Sil Austin - Unchained Melody
16. Fausto Papetti - Alexandra
17. Brain Smith - Misty
18. Ed Starink & Peter Weekers - Echo Of The Green Forest
Exact Audio Copy V0.99 prebeta 5 from 4. May 2009
EAC extraction logfile from 15. June 2010, 0:55
Various / Sax & Sex vol. 3
Used drive : ASUS DRW-1814BLT Adapter: 2 ID: 1
Read mode : Secure
Utilize accurate stream : Yes
Defeat audio cache : Yes
Make use of C2 pointers : No
Read offset correction : 6
Overread into Lead-In and Lead-Out : No
Fill up missing offset samples with silence : Yes
Delete leading and trailing silent blocks : No
Null samples used in CRC calculations : Yes
Used interface : Native Win32 interface for Win NT & 2000
Used output format : User Defined Encoder
Selected bitrate : 896 kBit/s
Quality : High
Add ID3 tag : No
Command line compressor : D:\utils\wavpack.exe
Additional command line options : -hlm %s
TOC of the extracted CD
Track | Start | Length | Start sector | End sector
---------------------------------------------------------
1 | 0:00.32 | 3:23.68 | 32 | 15324
2 | 3:24.25 | 3:23.35 | 15325 | 30584
3 | 6:47.60 | 2:51.57 | 30585 | 43466
4 | 9:39.42 | 3:27.45 | 43467 | 59036
5 | 13:07.12 | 3:08.73 | 59037 | 73209
6 | 16:16.10 | 4:00.32 | 73210 | 91241
7 | 20:16.42 | 2:14.28 | 91242 | 101319
8 | 22:30.70 | 7:19.45 | 101320 | 134289
9 | 29:50.40 | 5:05.52 | 134290 | 157216
10 | 34:56.17 | 4:21.23 | 157217 | 176814
11 | 39:17.40 | 2:47.70 | 176815 | 189409
12 | 42:05.35 | 3:43.27 | 189410 | 206161
13 | 45:48.62 | 3:34.65 | 206162 | 222276
14 | 49:23.52 | 4:52.73 | 222277 | 244249
15 | 54:16.50 | 2:45.65 | 244250 | 256689
16 | 57:02.40 | 3:10.12 | 256690 | 270951
17 | 60:12.52 | 4:09.65 | 270952 | 289691
18 | 64:22.42 | 4:54.48 | 289692 | 311789
Range status and errors
Selected range
Filename C:\temp\Various - Sax & Sex vol. 3.wav
Peak level 96.5 %
Range quality 100.0 %
Test CRC 35C8C34D
Copy CRC 35C8C34D
Copy OK
No errors occurred
AccurateRip summary
Track 1 not present in database
Track 2 not present in database
Track 3 not present in database
Track 4 not present in database
Track 5 not present in database
Track 6 not present in database
Track 7 not present in database
Track 8 not present in database
Track 9 not present in database
Track 10 not present in database
Track 11 not present in database
Track 12 not present in database
Track 13 not present in database
Track 14 not present in database
Track 15 not present in database
Track 16 not present in database
Track 17 not present in database
Track 18 not present in database
None of the tracks are present in the AccurateRip database
End of status report
REM GENRE "Jazz"
REM DATE 1995
REM DISCID 1C103D12
REM COMMENT "ExactAudioCopy v0.99pb5"
PERFORMER "Various"
TITLE "Sax & Sex vol. 3"
FILE "Various - Sax & Sex vol. 3 [1995].ape" WAVE
TRACK 01 AUDIO
TITLE "Emmanuelle"
PERFORMER "Fausto Papetti"
INDEX 00 00:00:00
INDEX 01 00:00:32
TRACK 02 AUDIO
TITLE "Careless Whisper"
PERFORMER "Ernestine"
INDEX 00 03:21:12
INDEX 01 03:24:25
TRACK 03 AUDIO
TITLE "Fly Me To The Moon"
PERFORMER "Fausto Papetti"
INDEX 00 06:45:40
INDEX 01 06:47:60
TRACK 04 AUDIO
TITLE "Anche Un Uomo"
PERFORMER "Brain Smith"
INDEX 00 09:37:45
INDEX 01 09:39:42
TRACK 05 AUDIO
TITLE "Imagination"
PERFORMER "Ray Conniff"
INDEX 00 13:05:02
INDEX 01 13:07:12
TRACK 06 AUDIO
TITLE "Songbird"
PERFORMER "Brain Smith"
INDEX 00 16:14:32
INDEX 01 16:16:10
TRACK 07 AUDIO
TITLE "La Vela Bianca"
PERFORMER "Fausto Papetti"
INDEX 00 20:15:32
INDEX 01 20:16:42
TRACK 08 AUDIO
TITLE "Sunday Afternoon"
PERFORMER "Candy Dulfer"
INDEX 00 22:28:32
INDEX 01 22:30:70
TRACK 09 AUDIO
TITLE "How Am I Supposed To Live Without You"
PERFORMER "Spectrum"
INDEX 00 29:48:10
INDEX 01 29:50:40
TRACK 10 AUDIO
TITLE "Amapola"
PERFORMER "Fausto Papetti"
INDEX 00 34:53:55
INDEX 01 34:56:17
TRACK 11 AUDIO
TITLE "Smoke Gets In Your Eyes"
PERFORMER "Sil Austin"
INDEX 00 39:16:35
INDEX 01 39:17:40
TRACK 12 AUDIO
TITLE "Abrazame"
PERFORMER "Fausto Papetti"
INDEX 00 42:03:57
INDEX 01 42:05:35
TRACK 13 AUDIO
TITLE "Forever Is As Far As I Go"
PERFORMER "After Hours"
INDEX 00 45:46:50
INDEX 01 45:48:62
TRACK 14 AUDIO
TITLE "Summertime"
PERFORMER "Brain Smith"
INDEX 00 49:20:57
INDEX 01 49:23:52
TRACK 15 AUDIO
TITLE "Unchained Melody"
PERFORMER "Sil Austin"
INDEX 00 54:15:02
INDEX 01 54:16:50
TRACK 16 AUDIO
TITLE "Alexandra"
PERFORMER "Fausto Papetti"
INDEX 00 57:00:65
INDEX 01 57:02:40
TRACK 17 AUDIO
TITLE "Misty"
PERFORMER "Brain Smith"
INDEX 00 60:09:55
INDEX 01 60:12:52
TRACK 18 AUDIO
TITLE "Echo Of The Green Forest"
PERFORMER "Ed Starink & Peter Weekers"
INDEX 00 64:20:22
INDEX 01 64:22:42
Продолжительность: 02.13.56

01. Sax music collection - Max Greger / Hanna's Blues
02. Sax music collection - George Katsaros / Woman In Love
03. Sax music collection - Clous Van Mechelen / When I Need You
04. Sax music collection - Gerry Mulligan / The Shadow Of Your Smile
05. Sax music collection - Kenny G / Tradewinds
06. Sax music collection - Fausto Papetti / Emotion
07. Sax music collection - Max Greger / Wind Of Change
08. Sax music collection - Sil Austin / Broken Promises
09. Sax music collection - Andre Moss / Are You Lonesome Tonight
10. Sax music collection - Dave Koz / Emily
11. Sax music collection - Max Greger / The House Of The Rising Sun
12. Sax music collection - Kenny G / Songbird
13. Sax music collection - Piet Noordijk / Feelings
14. Sax music collection - Fausto Papetti / Santo Domingo
15. Sax music collection - Brian Smith / The Man I Love
16. Sax music collection - Klaus Doldinger / How Insensitive
17. Sax music collection - Kenny G / Home
18. Sax music collection - Fausto Papetti / El Verdadero Amor
Exact Audio Copy V0.99 prebeta 5 from 4. May 2009
EAC extraction logfile from 16. June 2010, 21:57
Various / Sax & Sex vol. 4
Used drive : ASUS DRW-1814BLT Adapter: 2 ID: 1
Read mode : Secure
Utilize accurate stream : Yes
Defeat audio cache : Yes
Make use of C2 pointers : No
Read offset correction : 6
Overread into Lead-In and Lead-Out : No
Fill up missing offset samples with silence : Yes
Delete leading and trailing silent blocks : No
Null samples used in CRC calculations : Yes
Used interface : Native Win32 interface for Win NT & 2000
Used output format : User Defined Encoder
Selected bitrate : 896 kBit/s
Quality : High
Add ID3 tag : No
Command line compressor : D:\utils\wavpack.exe
Additional command line options : -hlm %s
TOC of the extracted CD
Track | Start | Length | Start sector | End sector
---------------------------------------------------------
1 | 0:00.32 | 3:29.18 | 32 | 15724
2 | 3:29.50 | 3:34.70 | 15725 | 31844
3 | 7:04.45 | 4:09.62 | 31845 | 50581
4 | 11:14.32 | 3:37.05 | 50582 | 66861
5 | 14:51.37 | 4:13.53 | 66862 | 85889
6 | 19:05.15 | 4:02.37 | 85890 | 104076
7 | 23:07.52 | 4:33.18 | 104077 | 124569
8 | 27:40.70 | 3:30.15 | 124570 | 140334
9 | 31:11.10 | 2:45.25 | 140335 | 152734
10 | 33:56.35 | 5:34.32 | 152735 | 177816
11 | 39:30.67 | 1:30.25 | 177817 | 184591
12 | 41:01.17 | 5:06.25 | 184592 | 207566
13 | 46:07.42 | 3:43.70 | 207567 | 224361
14 | 49:51.37 | 2:37.20 | 224362 | 236156
15 | 52:28.57 | 3:28.63 | 236157 | 251819
16 | 55:57.45 | 4:23.35 | 251820 | 271579
17 | 60:21.05 | 4:24.32 | 271580 | 291411
18 | 64:45.37 | 2:51.05 | 291412 | 304241
Range status and errors
Selected range
Filename C:\temp\Various - Sax & Sex vol. 4.wav
Peak level 98.3 %
Range quality 100.0 %
Test CRC A5D3BDBC
Copy CRC A5D3BDBC
Copy OK
No errors occurred
AccurateRip summary
Track 1 not present in database
Track 2 not present in database
Track 3 not present in database
Track 4 not present in database
Track 5 not present in database
Track 6 not present in database
Track 7 not present in database
Track 8 not present in database
Track 9 not present in database
Track 10 not present in database
Track 11 not present in database
Track 12 not present in database
Track 13 not present in database
Track 14 not present in database
Track 15 not present in database
Track 16 not present in database
Track 17 not present in database
Track 18 not present in database
None of the tracks are present in the AccurateRip database
End of status report
REM ACCURATERIPID 002c27d2-024c1fde-120fb212
REM COMMENT "CUETools generated dummy CUE sheet"
REM DATE 1995
REM GENRE "Jazz"
PERFORMER "Sax music collection"
TITLE "Sax & Sex vol.4"
FILE "Various - Sax & Sex vol. 4 [1995].ape" WAVE
TRACK 01 AUDIO
TITLE "Max Greger / Hanna's Blues"
PERFORMER "Sax music collection"
INDEX 00 00:00:00
INDEX 01 00:00:32
TRACK 02 AUDIO
TITLE "George Katsaros / Woman In Love"
PERFORMER "Sax music collection"
INDEX 01 03:27:40
TRACK 03 AUDIO
TITLE "Clous Van Mechelen / When I Need You"
PERFORMER "Sax music collection"
INDEX 01 06:59:72
TRACK 04 AUDIO
TITLE "Gerry Mulligan / The Shadow Of Your Smile"
PERFORMER "Sax music collection"
INDEX 01 11:07:62
TRACK 05 AUDIO
TITLE "Kenny G / Tradewinds"
PERFORMER "Sax music collection"
INDEX 01 14:42:07
TRACK 06 AUDIO
TITLE "Fausto Papetti / Emotion"
PERFORMER "Sax music collection"
INDEX 01 18:53:70
TRACK 07 AUDIO
TITLE "Max Greger / Wind Of Change"
PERFORMER "Sax music collection"
INDEX 01 22:53:40
TRACK 08 AUDIO
TITLE "Sil Austin / Broken Promises"
PERFORMER "Sax music collection"
INDEX 01 27:23:68
TRACK 09 AUDIO
TITLE "Andre Moss / Are You Lonesome Tonight"
PERFORMER "Sax music collection"
INDEX 01 30:52:40
TRACK 10 AUDIO
TITLE "Dave Koz / Emily"
PERFORMER "Sax music collection"
INDEX 01 33:36:17
TRACK 11 AUDIO
TITLE "Max Greger / The House Of The Rising Sun"
PERFORMER "Sax music collection"
INDEX 01 39:07:47
TRACK 12 AUDIO
TITLE "Kenny G / Songbird"
PERFORMER "Sax music collection"
INDEX 01 40:37:62
TRACK 13 AUDIO
TITLE "Piet Noordijk / Feelings"
PERFORMER "Sax music collection"
INDEX 01 45:41:62
TRACK 14 AUDIO
TITLE "Fausto Papetti / Santo Domingo"
PERFORMER "Sax music collection"
INDEX 01 49:23:15
TRACK 15 AUDIO
TITLE "Brian Smith / The Man I Love"
PERFORMER "Sax music collection"
INDEX 01 51:58:25
TRACK 16 AUDIO
TITLE "Klaus Doldinger / How Insensitive"
PERFORMER "Sax music collection"
INDEX 01 55:24:60
TRACK 17 AUDIO
TITLE "Kenny G / Home"
PERFORMER "Sax music collection"
INDEX 01 59:45:60
TRACK 18 AUDIO
TITLE "Fausto Papetti / El Verdadero Amor"
PERFORMER "Sax music collection"
INDEX 01 64:07:47
Продолжительность: 02.29.51

01. Sax & Sex - Three Times A Lady (Clous Van Mechelen)
02. Sax & Sex - Georgia (Max Greger)
03. Sax & Sex - Abrazame (George Katsaros)
04. Sax & Sex - Us And Them (Fausto Papetti)
05. Sax & Sex - Silhoutte (Silhouette)
06. Sax & Sex - Harlem Nocturne (Sil Austin)
07. Sax & Sex - P.S.I Love You (Gerry Mulligan)
08. Sax & Sex - If (Piet Noordijk)
09. Sax & Sex - Stayin Alive (Fausto Papetti)
10. Sax & Sex - Don't Make My Brown Eyes Blue (Clous Van Mechelen)
11. Sax & Sex - Castle Of Dreams (Dave Koz)
12. Sax & Sex - Kenny G (Kenny G)
13. Sax & Sex - The Second Time Around (Gerry Mulligan)
14. Sax & Sex - Solitude (Ben Webster)
15. Sax & Sex - Blueberry Hill (Max Greger)
16. Sax & Sex - Tempi D'Amore (Fausto Papetti)
17. Sax & Sex - My Man (Jan Morks)
18. Sax & Sex - La Paloma (Max Greger)
19. Sax & Sex - Yesterday (Peter Schilperrort)
20. Sax & Sex - Once I Love'd (Harry Verbeke)
21. Sax & Sex - Sade (Kenny G)
Exact Audio Copy V0.99 prebeta 5 from 4. May 2009
EAC extraction logfile from 16. June 2010, 23:07
Various / Sax & Sex vol. 5
Used drive : ASUS DRW-1814BLT Adapter: 2 ID: 1
Read mode : Secure
Utilize accurate stream : Yes
Defeat audio cache : Yes
Make use of C2 pointers : No
Read offset correction : 6
Overread into Lead-In and Lead-Out : No
Fill up missing offset samples with silence : Yes
Delete leading and trailing silent blocks : No
Null samples used in CRC calculations : Yes
Used interface : Native Win32 interface for Win NT & 2000
Used output format : User Defined Encoder
Selected bitrate : 896 kBit/s
Quality : High
Add ID3 tag : No
Command line compressor : D:\utils\wavpack.exe
Additional command line options : -hlm %s
TOC of the extracted CD
Track | Start | Length | Start sector | End sector
---------------------------------------------------------
1 | 0:00.32 | 3:39.70 | 32 | 16526
2 | 3:40.27 | 2:52.13 | 16527 | 29439
3 | 6:32.40 | 3:01.32 | 29440 | 43046
4 | 9:33.72 | 5:43.00 | 43047 | 68771
5 | 15:16.72 | 5:32.10 | 68772 | 93681
6 | 20:49.07 | 2:53.15 | 93682 | 106671
7 | 23:42.22 | 2:58.70 | 106672 | 120091
8 | 26:41.17 | 2:52.15 | 120092 | 133006
9 | 29:33.32 | 4:36.10 | 133007 | 153716
10 | 34:09.42 | 3:06.53 | 153717 | 167719
11 | 37:16.20 | 5:03.02 | 167720 | 190446
12 | 42:19.22 | 4:10.53 | 190447 | 209249
13 | 46:30.00 | 2:37.07 | 209250 | 221031
14 | 49:07.07 | 4:05.10 | 221032 | 239416
15 | 53:12.17 | 2:15.23 | 239417 | 249564
16 | 55:27.40 | 3:10.72 | 249565 | 263886
17 | 58:38.37 | 2:41.23 | 263887 | 275984
18 | 61:19.60 | 3:32.57 | 275985 | 291941
19 | 64:52.42 | 3:59.00 | 291942 | 309866
20 | 68:51.42 | 2:30.50 | 309867 | 321166
21 | 71:22.17 | 4:19.63 | 321167 | 340654
Range status and errors
Selected range
Filename C:\temp\Various - Sax & Sex vol. 5.wav
Peak level 97.8 %
Range quality 100.0 %
Test CRC CE11CC8F
Copy CRC CE11CC8F
Copy OK
No errors occurred
AccurateRip summary
Track 1 not present in database
Track 2 not present in database
Track 3 not present in database
Track 4 not present in database
Track 5 not present in database
Track 6 not present in database
Track 7 not present in database
Track 8 not present in database
Track 9 not present in database
Track 10 not present in database
Track 11 not present in database
Track 12 not present in database
Track 13 not present in database
Track 14 not present in database
Track 15 not present in database
Track 16 not present in database
Track 17 not present in database
Track 18 not present in database
Track 19 not present in database
Track 20 not present in database
Track 21 not present in database
None of the tracks are present in the AccurateRip database
End of status report
REM ACCURATERIPID 003a0fc7-0374d6e7-46119015
REM COMMENT "CUETools generated dummy CUE sheet"
REM DATE 1955
PERFORMER "Sax & Sex"
TITLE "Sax & Sex 5"
FILE "Various - Sax & Sex vol. 5 [1995].ape" WAVE
TRACK 01 AUDIO
TITLE "Three Times A Lady (Clous Van Mechelen)"
PERFORMER "Sax & Sex"
INDEX 00 00:00:00
INDEX 01 00:00:32
TRACK 02 AUDIO
TITLE "Georgia (Max Greger)"
PERFORMER "Sax & Sex"
INDEX 01 03:37:60
TRACK 03 AUDIO
TITLE "Abrazame (George Katsaros)"
PERFORMER "Sax & Sex"
INDEX 01 06:26:65
TRACK 04 AUDIO
TITLE "Us And Them (Fausto Papetti)"
PERFORMER "Sax & Sex"
INDEX 01 09:26:47
TRACK 05 AUDIO
TITLE "Silhoutte (Silhouette)"
PERFORMER "Sax & Sex"
INDEX 01 15:07:10
TRACK 06 AUDIO
TITLE "Harlem Nocturne (Sil Austin)"
PERFORMER "Sax & Sex"
INDEX 01 20:36:70
TRACK 07 AUDIO
TITLE "P.S.I Love You (Gerry Mulligan)"
PERFORMER "Sax & Sex"
INDEX 01 23:27:53
TRACK 08 AUDIO
TITLE "If (Piet Noordijk)"
PERFORMER "Sax & Sex"
INDEX 01 26:24:18
TRACK 09 AUDIO
TITLE "Stayin Alive (Fausto Papetti)"
PERFORMER "Sax & Sex"
INDEX 01 29:13:66
TRACK 10 AUDIO
TITLE "Don't Make My Brown Eyes Blue (Clous Van Mechelen)"
PERFORMER "Sax & Sex"
INDEX 01 33:47:11
TRACK 11 AUDIO
TITLE "Castle Of Dreams (Dave Koz)"
PERFORMER "Sax & Sex"
INDEX 01 36:52:04
TRACK 12 AUDIO
TITLE "Kenny G (Kenny G)"
PERFORMER "Sax & Sex"
INDEX 01 41:52:29
TRACK 13 AUDIO
TITLE "The Second Time Around (Gerry Mulligan)"
PERFORMER "Sax & Sex"
INDEX 01 46:00:62
TRACK 14 AUDIO
TITLE "Solitude (Ben Webster)"
PERFORMER "Sax & Sex"
INDEX 01 48:36:29
TRACK 15 AUDIO
TITLE "Blueberry Hill (Max Greger)"
PERFORMER "Sax & Sex"
INDEX 01 52:38:42
TRACK 16 AUDIO
TITLE "Tempi D'Amore (Fausto Papetti)"
PERFORMER "Sax & Sex"
INDEX 01 54:52:52
TRACK 17 AUDIO
TITLE "My Man (Jan Morks)"
PERFORMER "Sax & Sex"
INDEX 01 58:01:54
TRACK 18 AUDIO
TITLE "La Paloma (Max Greger)"
PERFORMER "Sax & Sex"
INDEX 01 60:40:72
TRACK 19 AUDIO
TITLE "Yesterday (Peter Schilperrort)"
PERFORMER "Sax & Sex"
INDEX 01 64:11:22
TRACK 20 AUDIO
TITLE "Once I Love'd (Harry Verbeke)"
PERFORMER "Sax & Sex"
INDEX 01 68:07:17
TRACK 21 AUDIO
TITLE "Sade (Kenny G)"
PERFORMER "Sax & Sex"
INDEX 01 70:36:12
Продолжительность: 02.19.46

01. Brian Smith - Your Latest Trick - Smooth Operator
02. Antony Donadio - Good Bye My Love, Good Bye
03. Yoshi Malta - We've Only Just Begun
04. Fausto Papetti - The Swadow Of Your Smile
05. Youshi Malta - Autumn Leaves
06. Brian Smith - Everything I Do (I Do It For You)
07. Fauso Papetti - Song Sung Blue
08. Antony Donadio - Angie
09. Lucky Thompson - My Funny Valentine
10. Brian Smith - On The Beach
11. B. Carter & C. Hawkins - Blue Star
12. Antony Donadio - Greensleeves
13. Yoshi Malta - Here There & Everywhere
14. Brian Smith - Unforgettable
15. Johnny Hodges - Sophisticated Lady
16. Antony Donadio - Sous Le Pont De Paris
17. Yoshi Malta - You Make Me Feel Brand New
18. Fausto Papetti - Harlem Nocturno
19. Brian Smith - Round Midnight
Exact Audio Copy V0.99 prebeta 5 from 4. May 2009
EAC extraction logfile from 17. June 2010, 1:23
Various / Sax & Sex vol. 6
Used drive : ASUS DRW-1814BLT Adapter: 2 ID: 1
Read mode : Secure
Utilize accurate stream : Yes
Defeat audio cache : Yes
Make use of C2 pointers : No
Read offset correction : 6
Overread into Lead-In and Lead-Out : No
Fill up missing offset samples with silence : Yes
Delete leading and trailing silent blocks : No
Null samples used in CRC calculations : Yes
Used interface : Native Win32 interface for Win NT & 2000
Used output format : User Defined Encoder
Selected bitrate : 896 kBit/s
Quality : High
Add ID3 tag : No
Command line compressor : D:\utils\wavpack.exe
Additional command line options : -hlm %s
TOC of the extracted CD
Track | Start | Length | Start sector | End sector
---------------------------------------------------------
1 | 0:00.30 | 4:05.69 | 30 | 18473
2 | 4:06.24 | 3:05.17 | 18474 | 32365
3 | 7:11.41 | 4:19.40 | 32366 | 51830
4 | 11:31.06 | 2:30.54 | 51831 | 63134
5 | 14:01.60 | 5:57.54 | 63135 | 89963
6 | 19:59.39 | 4:10.27 | 89964 | 108740
7 | 24:09.66 | 2:33.15 | 108741 | 120230
8 | 26:43.06 | 3:05.51 | 120231 | 134156
9 | 29:48.57 | 4:15.08 | 134157 | 153289
10 | 34:03.65 | 4:22.04 | 153290 | 172943
11 | 38:25.69 | 5:20.38 | 172944 | 196981
12 | 43:46.32 | 2:44.25 | 196982 | 209306
13 | 46:30.57 | 3:55.33 | 209307 | 226964
14 | 50:26.15 | 3:15.21 | 226965 | 241610
15 | 53:41.36 | 4:02.35 | 241611 | 259795
16 | 57:43.71 | 2:19.63 | 259796 | 270283
17 | 60:03.59 | 2:51.27 | 270284 | 283135
18 | 62:55.11 | 3:02.15 | 283136 | 296800
19 | 65:57.26 | 3:56.32 | 296801 | 314532
Range status and errors
Selected range
Filename C:\temp\Various - Sax & Sex vol. 6.wav
Peak level 100.0 %
Range quality 100.0 %
Test CRC 27E9AE49
Copy CRC 27E9AE49
Copy OK
No errors occurred
AccurateRip summary
Track 1 not present in database
Track 2 not present in database
Track 3 not present in database
Track 4 not present in database
Track 5 not present in database
Track 6 not present in database
Track 7 not present in database
Track 8 not present in database
Track 9 not present in database
Track 10 not present in database
Track 11 not present in database
Track 12 not present in database
Track 13 not present in database
Track 14 not present in database
Track 15 not present in database
Track 16 not present in database
Track 17 not present in database
Track 18 not present in database
Track 19 not present in database
None of the tracks are present in the AccurateRip database
End of status report
REM GENRE "Jazz"
REM DATE 1995
REM DISCID 0E106113
REM COMMENT "ExactAudioCopy v0.99pb5"
PERFORMER "Various"
TITLE "Sax & Sex vol. 6"
FILE "Various - Sax & Sex vol. 6 [1995].ape" WAVE
TRACK 01 AUDIO
TITLE "Your Latest Trick - Smooth Operator"
PERFORMER "Brian Smith"
INDEX 00 00:00:00
INDEX 01 00:00:30
TRACK 02 AUDIO
TITLE "Good Bye My Love, Good Bye"
PERFORMER "Antony Donadio"
INDEX 01 04:06:24
TRACK 03 AUDIO
TITLE "We've Only Just Begun"
PERFORMER "Yoshi Malta"
INDEX 01 07:11:41
TRACK 04 AUDIO
TITLE "The Swadow Of Your Smile"
PERFORMER "Fausto Papetti"
INDEX 01 11:31:06
TRACK 05 AUDIO
TITLE "Autumn Leaves"
PERFORMER "Youshi Malta"
INDEX 01 14:01:60
TRACK 06 AUDIO
TITLE "Everything I Do (I Do It For You)"
PERFORMER "Brian Smith"
INDEX 01 19:59:39
TRACK 07 AUDIO
TITLE "Song Sung Blue"
PERFORMER "Fauso Papetti"
INDEX 01 24:09:66
TRACK 08 AUDIO
TITLE "Angie"
PERFORMER "Antony Donadio"
INDEX 01 26:43:06
TRACK 09 AUDIO
TITLE "My Funny Valentine"
PERFORMER "Lucky Thompson"
INDEX 01 29:48:57
TRACK 10 AUDIO
TITLE "On The Beach"
PERFORMER "Brian Smith"
INDEX 01 34:03:65
TRACK 11 AUDIO
TITLE "Blue Star"
PERFORMER "B. Carter & C. Hawkins"
INDEX 01 38:25:69
TRACK 12 AUDIO
TITLE "Greensleeves"
PERFORMER "Antony Donadio"
INDEX 01 43:46:32
TRACK 13 AUDIO
TITLE "Here There & Everywhere"
PERFORMER "Yoshi Malta"
INDEX 01 46:30:57
TRACK 14 AUDIO
TITLE "Unforgettable"
PERFORMER "Brian Smith"
INDEX 01 50:26:15
TRACK 15 AUDIO
TITLE "Sophisticated Lady"
PERFORMER "Johnny Hodges"
INDEX 01 53:41:36
TRACK 16 AUDIO
TITLE "Sous Le Pont De Paris"
PERFORMER "Antony Donadio"
INDEX 01 57:43:71
TRACK 17 AUDIO
TITLE "You Make Me Feel Brand New"
PERFORMER "Yoshi Malta"
INDEX 01 60:03:59
TRACK 18 AUDIO
TITLE "Harlem Nocturno"
PERFORMER "Fausto Papetti"
INDEX 01 62:55:11
TRACK 19 AUDIO
TITLE "Round Midnight"
PERFORMER "Brian Smith"
INDEX 01 65:57:26
Продолжительность: 02.22.35

01. The John Tesh Project - I Will Always Love You
02. George Saxon - Women In Love
03. Stuart Mc Donald - We've Only Just Begin
04. Fausto Pepetti - Summertime
05. Georgia Parreira - Arthur's Theme
06. The John Tesh Project - Piano In The Dark
07. Lou Donaldson - What'll I Tell My Heart
08. Fausto Papetti - Mi Sono Innamorato Di Te
09. Stuart Mc Donald - Unfogettable
10. Clarence Clemons - Spirit Dance
11. Fausto Pepetti - Io Che Non Vivo
12. George Saxon - What A Wonderful World
13. Gerry Mulligan Quartet - Georgia On My Mind
14. Kenny G - G Force
15. George Saxon - Feelings
16. Stuart Mc Donald - Laughter In The Rain
17. Fausto Papetti - September Moon
18. Fausto Papetti - I Just Called To Say I Love You
Exact Audio Copy V0.99 prebeta 5 from 4. May 2009
EAC extraction logfile from 17. June 2010, 1:03
Various / Sax & Sex vol. 7
Used drive : ASUS DRW-1814BLT Adapter: 2 ID: 1
Read mode : Secure
Utilize accurate stream : Yes
Defeat audio cache : Yes
Make use of C2 pointers : No
Read offset correction : 6
Overread into Lead-In and Lead-Out : No
Fill up missing offset samples with silence : Yes
Delete leading and trailing silent blocks : No
Null samples used in CRC calculations : Yes
Used interface : Native Win32 interface for Win NT & 2000
Used output format : User Defined Encoder
Selected bitrate : 896 kBit/s
Quality : High
Add ID3 tag : No
Command line compressor : D:\utils\wavpack.exe
Additional command line options : -hlm %s
TOC of the extracted CD
Track | Start | Length | Start sector | End sector
---------------------------------------------------------
1 | 0:00.30 | 3:57.30 | 30 | 17834
2 | 3:57.60 | 3:34.68 | 17835 | 33952
3 | 7:32.53 | 3:25.61 | 33953 | 49388
4 | 10:58.39 | 2:25.44 | 49389 | 60307
5 | 13:24.08 | 3:32.35 | 60308 | 76242
6 | 16:56.43 | 6:16.28 | 76243 | 104470
7 | 23:12.71 | 7:03.34 | 104471 | 136229
8 | 30:16.30 | 3:29.67 | 136230 | 151971
9 | 33:46.22 | 3:33.51 | 151972 | 167997
10 | 37:19.73 | 5:53.12 | 167998 | 194484
11 | 43:13.10 | 2:04.06 | 194485 | 203790
12 | 45:17.16 | 3:16.28 | 203791 | 218518
13 | 48:33.44 | 4:23.70 | 218519 | 238313
14 | 52:57.39 | 4:56.41 | 238314 | 260554
15 | 57:54.05 | 4:10.46 | 260555 | 279350
16 | 62:04.51 | 2:35.07 | 279351 | 290982
17 | 64:39.58 | 3:23.18 | 290983 | 306225
18 | 68:03.01 | 3:15.02 | 306226 | 320852
Range status and errors
Selected range
Filename C:\temp\Various - Sax & Sex vol. 7.wav
Peak level 100.0 %
Range quality 100.0 %
Test CRC 9D570828
Copy CRC 9D570828
Copy OK
No errors occurred
AccurateRip summary
Track 1 not present in database
Track 2 not present in database
Track 3 not present in database
Track 4 not present in database
Track 5 not present in database
Track 6 not present in database
Track 7 not present in database
Track 8 not present in database
Track 9 not present in database
Track 10 not present in database
Track 11 not present in database
Track 12 not present in database
Track 13 not present in database
Track 14 not present in database
Track 15 not present in database
Track 16 not present in database
Track 17 not present in database
Track 18 not present in database
None of the tracks are present in the AccurateRip database
End of status report
REM GENRE "Jazz"
REM DATE 1995
REM DISCID 1210B612
REM COMMENT "ExactAudioCopy v0.99pb5"
PERFORMER "Various"
TITLE "Sax & Sex vol. 7"
FILE "Various - Sax & Sex vol. 7 [1995].ape" WAVE
TRACK 01 AUDIO
TITLE "I Will Always Love You"
PERFORMER "The John Tesh Project"
INDEX 00 00:00:00
INDEX 01 00:00:30
TRACK 02 AUDIO
TITLE "Women In Love"
PERFORMER "George Saxon"
INDEX 01 03:57:60
TRACK 03 AUDIO
TITLE "We've Only Just Begin"
PERFORMER "Stuart Mc Donald"
INDEX 01 07:32:53
TRACK 04 AUDIO
TITLE "Summertime"
PERFORMER "Fausto Pepetti"
INDEX 01 10:58:39
TRACK 05 AUDIO
TITLE "Arthur's Theme"
PERFORMER "Georgia Parreira"
INDEX 01 13:24:08
TRACK 06 AUDIO
TITLE "Piano In The Dark"
PERFORMER "The John Tesh Project"
INDEX 01 16:56:43
TRACK 07 AUDIO
TITLE "What'll I Tell My Heart"
PERFORMER "Lou Donaldson"
INDEX 01 23:12:71
TRACK 08 AUDIO
TITLE "Mi Sono Innamorato Di Te"
PERFORMER "Fausto Papetti"
INDEX 01 30:16:30
TRACK 09 AUDIO
TITLE "Unfogettable"
PERFORMER "Stuart Mc Donald"
INDEX 01 33:46:22
TRACK 10 AUDIO
TITLE "Spirit Dance"
PERFORMER "Clarence Clemons"
INDEX 01 37:19:73
TRACK 11 AUDIO
TITLE "Io Che Non Vivo"
PERFORMER "Fausto Pepetti"
INDEX 01 43:13:10
TRACK 12 AUDIO
TITLE "What A Wonderful World"
PERFORMER "George Saxon"
INDEX 01 45:17:16
TRACK 13 AUDIO
TITLE "Georgia On My Mind"
PERFORMER "Gerry Mulligan Quartet"
INDEX 01 48:33:44
TRACK 14 AUDIO
TITLE "G Force"
PERFORMER "Kenny G"
INDEX 01 52:57:39
TRACK 15 AUDIO
TITLE "Feelings"
PERFORMER "George Saxon"
INDEX 01 57:54:05
TRACK 16 AUDIO
TITLE "Laughter In The Rain"
PERFORMER "Stuart Mc Donald"
INDEX 01 62:04:51
TRACK 17 AUDIO
TITLE "September Moon"
PERFORMER "Fausto Papetti"
INDEX 01 64:39:58
TRACK 18 AUDIO
TITLE "I Just Called To Say I Love You"
PERFORMER "Fausto Papetti"
INDEX 01 68:03:01
Продолжительность: 02.24.22

01. Georgio Parreira - Samba Pa Ti
02. Fausto Papetti - Strangers In The Night
03. Candy Dulfer - Lily Was Here
04. Stuart McDonald - Clouds
05. Lou Donaldson - Danny Boy
06. Gerry Mulligan Quartet - Walking Shoes
07. George Saxon - Sapore Di Sale
08. Stuart McDonald - Yesterday Once More
09. Kenny G - I Can't Tell You Why
10. The John Tesh Project - Desperado
11. Stuart McDonald - Fly Me To The Moon
12. Fausto Papetti - Smoke Gets In Your Eyes
13. George Saxon - Aberdeen's
14. Joe Lovano - Chelsea Bridge
15. Fausto Papetti - The Gremlin Rag
16. Kenny G - Help Yourself To My Love
17. Stuart McDonald - Chanson D'amour
18. The John Tesh Project - Shower The People
19. Fausto Papetti - September Song
20. Stuart McDonald - I Wish You Love
Exact Audio Copy V0.99 prebeta 5 from 4. May 2009
EAC extraction logfile from 18. June 2010, 19:50
Various / Sax & Sex vol. 8
Used drive : ASUS DRW-1814BLT Adapter: 3 ID: 0
Read mode : Secure
Utilize accurate stream : Yes
Defeat audio cache : Yes
Make use of C2 pointers : No
Read offset correction : 6
Overread into Lead-In and Lead-Out : No
Fill up missing offset samples with silence : Yes
Delete leading and trailing silent blocks : No
Null samples used in CRC calculations : Yes
Used interface : Installed external ASPI interface
Used output format : User Defined Encoder
Selected bitrate : 896 kBit/s
Quality : High
Add ID3 tag : No
Command line compressor : D:\Utils\wavpack.exe
Additional command line options : -hlm %s
TOC of the extracted CD
Track | Start | Length | Start sector | End sector
---------------------------------------------------------
1 | 0:00.30 | 2:23.32 | 30 | 10786
2 | 2:23.62 | 2:39.22 | 10787 | 22733
3 | 5:03.09 | 4:20.29 | 22734 | 42262
4 | 9:23.38 | 3:06.02 | 42263 | 56214
5 | 12:29.40 | 5:49.55 | 56215 | 82444
6 | 18:19.20 | 4:41.11 | 82445 | 103530
7 | 23:00.31 | 3:12.51 | 103531 | 117981
8 | 26:13.07 | 3:58.18 | 117982 | 135849
9 | 30:11.25 | 4:14.14 | 135850 | 154913
10 | 34:25.39 | 3:45.59 | 154914 | 171847
11 | 38:11.23 | 2:51.44 | 171848 | 184716
12 | 41:02.67 | 2:29.33 | 184717 | 195924
13 | 43:32.25 | 2:55.62 | 195925 | 209111
14 | 46:28.12 | 3:42.06 | 209112 | 225767
15 | 50:10.18 | 3:04.03 | 225768 | 239570
16 | 53:14.21 | 4:47.12 | 239571 | 261107
17 | 58:01.33 | 2:35.18 | 261108 | 272750
18 | 60:36.51 | 5:22.41 | 272751 | 296941
19 | 65:59.17 | 3:14.12 | 296942 | 311503
20 | 69:13.29 | 2:58.14 | 311504 | 324867
Range status and errors
Selected range
Filename C:\temp\Various - Sax & Sex vol. 8.wav
Suspicious position 0:13:41
Peak level 100.0 %
Range quality 99.9 %
Test CRC C9701F50
Copy CRC E40FCE2B
Copy finished
There were errors
AccurateRip summary
Track 1 not present in database
Track 2 not present in database
Track 3 not present in database
Track 4 not present in database
Track 5 not present in database
Track 6 not present in database
Track 7 not present in database
Track 8 not present in database
Track 9 not present in database
Track 10 not present in database
Track 11 not present in database
Track 12 not present in database
Track 13 not present in database
Track 14 not present in database
Track 15 not present in database
Track 16 not present in database
Track 17 not present in database
Track 18 not present in database
Track 19 not present in database
Track 20 not present in database
None of the tracks are present in the AccurateRip database
End of status report
REM GENRE "Instrumental"
REM DATE 1995
REM DISCID 1110EB14
REM COMMENT "ExactAudioCopy v0.99pb5"
PERFORMER "Various"
TITLE "Sax & Sex vol. 8"
FILE "Various - Sax & Sex vol. 8 [1995].ape" WAVE
TRACK 01 AUDIO
TITLE "Samba Pa Ti"
PERFORMER "Georgio Parreira"
INDEX 00 00:00:00
INDEX 01 00:00:30
TRACK 02 AUDIO
TITLE "Strangers In The Night"
PERFORMER "Fausto Papetti"
INDEX 01 02:23:62
TRACK 03 AUDIO
TITLE "Lily Was Here"
PERFORMER "Candy Dulfer"
INDEX 01 05:03:09
TRACK 04 AUDIO
TITLE "Clouds"
PERFORMER "Stuart McDonald"
INDEX 01 09:23:38
TRACK 05 AUDIO
TITLE "Danny Boy"
PERFORMER "Lou Donaldson"
INDEX 01 12:29:40
TRACK 06 AUDIO
TITLE "Walking Shoes"
PERFORMER "Gerry Mulligan Quartet"
INDEX 01 18:19:20
TRACK 07 AUDIO
TITLE "Sapore Di Sale"
PERFORMER "George Saxon"
INDEX 01 23:00:31
TRACK 08 AUDIO
TITLE "Yesterday Once More"
PERFORMER "Stuart McDonald"
INDEX 01 26:13:07
TRACK 09 AUDIO
TITLE "I Can't Tell You Why"
PERFORMER "Kenny G"
INDEX 01 30:11:25
TRACK 10 AUDIO
TITLE "Desperado"
PERFORMER "The John Tesh Project"
INDEX 01 34:25:39
TRACK 11 AUDIO
TITLE "Fly Me To The Moon"
PERFORMER "Stuart McDonald"
INDEX 01 38:11:23
TRACK 12 AUDIO
TITLE "Smoke Gets In Your Eyes"
PERFORMER "Fausto Papetti"
INDEX 01 41:02:67
TRACK 13 AUDIO
TITLE "Aberdeen's"
PERFORMER "George Saxon"
INDEX 01 43:32:25
TRACK 14 AUDIO
TITLE "Chelsea Bridge"
PERFORMER "Joe Lovano"
INDEX 01 46:28:12
TRACK 15 AUDIO
TITLE "The Gremlin Rag"
PERFORMER "Fausto Papetti"
INDEX 01 50:10:18
TRACK 16 AUDIO
TITLE "Help Yourself To My Love"
PERFORMER "Kenny G"
INDEX 01 53:14:21
TRACK 17 AUDIO
TITLE "Chanson D'amour"
PERFORMER "Stuart McDonald"
INDEX 01 58:01:33
TRACK 18 AUDIO
TITLE "Shower The People"
PERFORMER "The John Tesh Project"
INDEX 01 60:36:51
TRACK 19 AUDIO
TITLE "September Song"
PERFORMER "Fausto Papetti"
INDEX 01 65:59:17
TRACK 20 AUDIO
TITLE "I Wish You Love"
PERFORMER "Stuart McDonald"
INDEX 01 69:13:29
Продолжительность: 02.23.23

01. Fausto Papetti - Love Theme From The Godfather
02. Stuart McDonald - Moon River
03. George Saxon - Morgana
04. Fausto Papetti - Sleepy Lagoon
05. Lou Donaldson - Sentimental Journey
06. Stuart McDonald - I'm In The Mood For Love
07. Fausto Papetti - As Times Goes By
08. George Saxon - Take My Heart
09. Stuart McDonald - Scarborough Fair
10. The John Tesh Project - Tears In Heaven
11. Fausto Papetti - Georgia On My Mind
12. Georgio Parreira - Why Worry-Local Hero
13. George Saxon - Disco Night
14. Stuart McDonald - Summer (The First Time)
15. Fausto Papetti - More
16. The John Tesh Project - I'll Be Over You
17. Stuart McDonald - The Nearness Of You
18. Ben Webster - Star Dust
19. Fausto Papetti - Accarezzame
Exact Audio Copy V0.99 prebeta 5 from 4. May 2009
EAC extraction logfile from 17. June 2010, 23:17
Various / Sax & Sex vol. 9
Used drive : ASUS DRW-1814BLT Adapter: 2 ID: 1
Read mode : Secure
Utilize accurate stream : Yes
Defeat audio cache : Yes
Make use of C2 pointers : No
Read offset correction : 6
Overread into Lead-In and Lead-Out : No
Fill up missing offset samples with silence : Yes
Delete leading and trailing silent blocks : No
Null samples used in CRC calculations : Yes
Used interface : Native Win32 interface for Win NT & 2000
Used output format : User Defined Encoder
Selected bitrate : 896 kBit/s
Quality : High
Add ID3 tag : No
Command line compressor : D:\utils\wavpack.exe
Additional command line options : -hlm %s
TOC of the extracted CD
Track | Start | Length | Start sector | End sector
---------------------------------------------------------
1 | 0:00.30 | 2:33.51 | 30 | 11555
2 | 2:34.06 | 2:50.40 | 11556 | 24345
3 | 5:24.46 | 3:06.74 | 24346 | 38369
4 | 8:31.45 | 2:37.55 | 38370 | 50199
5 | 11:09.25 | 8:20.26 | 50200 | 87725
6 | 19:29.51 | 3:10.11 | 87726 | 101986
7 | 22:39.62 | 3:36.49 | 101987 | 118235
8 | 26:16.36 | 3:03.25 | 118236 | 131985
9 | 29:19.61 | 2:41.58 | 131986 | 144118
10 | 32:01.44 | 4:53.04 | 144119 | 166097
11 | 36:54.48 | 2:36.56 | 166098 | 177853
12 | 39:31.29 | 6:21.42 | 177854 | 206470
13 | 45:52.71 | 3:03.52 | 206471 | 220247
14 | 48:56.48 | 4:46.05 | 220248 | 241702
15 | 53:42.53 | 2:20.42 | 241703 | 252244
16 | 56:03.20 | 5:29.48 | 252245 | 276967
17 | 61:32.68 | 4:15.66 | 276968 | 296158
18 | 65:48.59 | 3:13.32 | 296159 | 310665
19 | 69:02.16 | 2:40.05 | 310666 | 322670
Range status and errors
Selected range
Filename C:\temp\Various - Sax & Sex vol. 9.wav
Peak level 100.0 %
Range quality 100.0 %
Test CRC D113A20A
Copy CRC D113A20A
Copy OK
No errors occurred
AccurateRip summary
Track 1 not present in database
Track 2 not present in database
Track 3 not present in database
Track 4 not present in database
Track 5 not present in database
Track 6 not present in database
Track 7 not present in database
Track 8 not present in database
Track 9 not present in database
Track 10 not present in database
Track 11 not present in database
Track 12 not present in database
Track 13 not present in database
Track 14 not present in database
Track 15 not present in database
Track 16 not present in database
Track 17 not present in database
Track 18 not present in database
Track 19 not present in database
None of the tracks are present in the AccurateRip database
End of status report
REM GENRE "Instrumental"
REM DATE 1995
REM DISCID 0B10CE13
REM COMMENT "ExactAudioCopy v0.99pb5"
PERFORMER "Various"
TITLE "Sax & Sex vol. 9"
FILE "Various - Sax & Sex vol. 9 [1995].ape" WAVE
TRACK 01 AUDIO
TITLE "Love Theme From The Godfather"
PERFORMER "Fausto Papetti"
INDEX 00 00:00:00
INDEX 01 00:00:30
TRACK 02 AUDIO
TITLE "Moon River"
PERFORMER "Stuart McDonald"
INDEX 01 02:34:06
TRACK 03 AUDIO
TITLE "Morgana"
PERFORMER "George Saxon"
INDEX 01 05:24:46
TRACK 04 AUDIO
TITLE "Sleepy Lagoon"
PERFORMER "Fausto Papetti"
INDEX 01 08:31:45
TRACK 05 AUDIO
TITLE "Sentimental Journey"
PERFORMER "Lou Donaldson"
INDEX 01 11:09:25
TRACK 06 AUDIO
TITLE "I'm In The Mood For Love"
PERFORMER "Stuart McDonald"
INDEX 01 19:29:51
TRACK 07 AUDIO
TITLE "As Times Goes By"
PERFORMER "Fausto Papetti"
INDEX 01 22:39:62
TRACK 08 AUDIO
TITLE "Take My Heart"
PERFORMER "George Saxon"
INDEX 01 26:16:36
TRACK 09 AUDIO
TITLE "Scarborough Fair"
PERFORMER "Stuart McDonald"
INDEX 01 29:19:61
TRACK 10 AUDIO
TITLE "Tears In Heaven"
PERFORMER "The John Tesh Project"
INDEX 01 32:01:44
TRACK 11 AUDIO
TITLE "Georgia On My Mind"
PERFORMER "Fausto Papetti"
INDEX 01 36:54:48
TRACK 12 AUDIO
TITLE "Why Worry-Local Hero"
PERFORMER "Georgio Parreira"
INDEX 01 39:31:29
TRACK 13 AUDIO
TITLE "Disco Night"
PERFORMER "George Saxon"
INDEX 01 45:52:71
TRACK 14 AUDIO
TITLE "Summer (The First Time)"
PERFORMER "Stuart McDonald"
INDEX 01 48:56:48
TRACK 15 AUDIO
TITLE "More"
PERFORMER "Fausto Papetti"
INDEX 01 53:42:53
TRACK 16 AUDIO
TITLE "I'll Be Over You"
PERFORMER "The John Tesh Project"
INDEX 01 56:03:20
TRACK 17 AUDIO
TITLE "The Nearness Of You"
PERFORMER "Stuart McDonald"
INDEX 01 61:32:68
TRACK 18 AUDIO
TITLE "Star Dust"
PERFORMER "Ben Webster"
INDEX 01 65:48:59
TRACK 19 AUDIO
TITLE "Accarezzame"
PERFORMER "Fausto Papetti"
INDEX 01 69:02:16
Продолжительность: 02.25.19

01. Stuart McDonald - Killing Me Softly With This Song
02. George Saxon - Petite Fleur
03. Fausto Papetti - Fascination
04. Stuart McDonald - As Time Goes By
05. Georgio Parreira - Theme From 'Thornbirds'
06. The John Tesh Project - Can You Feel The Love Tonight
07. Ben Webster - Old Folks
08. George Saxon - Charm
09. Fausto Papetti - The Windmills Of Your Mind
10. Gerry Mulligan Quartet - My Funny Valentine
11. Stuart McDonald - Saving All My Love For You
12. Fausto Papetti - Alone Again
13. Ben Webster - Come Rain Or Come Shine
14. George Saxon - Sambario
15. Fausto Papetti - Feelings
16. Stuart McDonald - Just The Way You Are
17. Ben Webster - Do Nothing Till You Hear From Me
18. Fausto Papetti - Lara's Theme From 'Dr. Zhivago'
19. Clarence Clemons - Serenity
20. Charlie Parker - Summertime
Exact Audio Copy V0.99 prebeta 5 from 4. May 2009
EAC extraction logfile from 18. June 2010, 0:08
Various / Sax & Sex vol. 10
Used drive : ASUS DRW-1814BLT Adapter: 2 ID: 1
Read mode : Secure
Utilize accurate stream : Yes
Defeat audio cache : Yes
Make use of C2 pointers : No
Read offset correction : 6
Overread into Lead-In and Lead-Out : No
Fill up missing offset samples with silence : Yes
Delete leading and trailing silent blocks : No
Null samples used in CRC calculations : Yes
Used interface : Native Win32 interface for Win NT & 2000
Used output format : User Defined Encoder
Selected bitrate : 896 kBit/s
Quality : High
Add ID3 tag : No
Command line compressor : D:\utils\wavpack.exe
Additional command line options : -hlm %s
TOC of the extracted CD
Track | Start | Length | Start sector | End sector
---------------------------------------------------------
1 | 0:00.30 | 3:17.59 | 30 | 14863
2 | 3:18.14 | 2:44.19 | 14864 | 27182
3 | 6:02.33 | 2:55.06 | 27183 | 40313
4 | 8:57.39 | 3:00.17 | 40314 | 53830
5 | 11:57.56 | 2:25.67 | 53831 | 64772
6 | 14:23.48 | 5:22.69 | 64773 | 88991
7 | 19:46.42 | 2:56.01 | 88992 | 102192
8 | 22:42.43 | 2:50.23 | 102193 | 114965
9 | 25:32.66 | 3:11.67 | 114966 | 129357
10 | 28:44.58 | 4:42.24 | 129358 | 150531
11 | 33:27.07 | 3:32.03 | 150532 | 166434
12 | 36:59.10 | 3:36.27 | 166435 | 182661
13 | 40:35.37 | 4:24.26 | 182662 | 202487
14 | 44:59.63 | 3:51.55 | 202488 | 219867
15 | 48:51.43 | 3:37.25 | 219868 | 236167
16 | 52:28.68 | 4:30.19 | 236168 | 256436
17 | 56:59.12 | 4:44.72 | 256437 | 277808
18 | 61:44.09 | 2:33.74 | 277809 | 289357
19 | 64:18.08 | 5:34.03 | 289358 | 314410
20 | 69:52.11 | 2:48.19 | 314411 | 327029
Range status and errors
Selected range
Filename C:\temp\Various - Sax & Sex vol. 10.wav
Peak level 100.0 %
Range quality 99.9 %
Test CRC 5352408E
Copy CRC 5352408E
Copy OK
No errors occurred
AccurateRip summary
Track 1 not present in database
Track 2 not present in database
Track 3 not present in database
Track 4 not present in database
Track 5 not present in database
Track 6 not present in database
Track 7 not present in database
Track 8 not present in database
Track 9 not present in database
Track 10 not present in database
Track 11 not present in database
Track 12 not present in database
Track 13 not present in database
Track 14 not present in database
Track 15 not present in database
Track 16 not present in database
Track 17 not present in database
Track 18 not present in database
Track 19 not present in database
Track 20 not present in database
None of the tracks are present in the AccurateRip database
End of status report
REM GENRE "Instrumental"
REM DATE 1995
REM DISCID 07110814
REM COMMENT "ExactAudioCopy v0.99pb5"
PERFORMER "Various"
TITLE "Sax & Sex vol. 10"
FILE "Various - Sax & Sex vol. 10 [1995].ape" WAVE
TRACK 01 AUDIO
TITLE "Killing Me Softly With This Song"
PERFORMER "Stuart McDonald"
INDEX 00 00:00:00
INDEX 01 00:00:30
TRACK 02 AUDIO
TITLE "Petite Fleur"
PERFORMER "George Saxon"
INDEX 01 03:18:14
TRACK 03 AUDIO
TITLE "Fascination"
PERFORMER "Fausto Papetti"
INDEX 01 06:02:33
TRACK 04 AUDIO
TITLE "As Time Goes By"
PERFORMER "Stuart McDonald"
INDEX 01 08:57:39
TRACK 05 AUDIO
TITLE "Theme From 'Thornbirds'"
PERFORMER "Georgio Parreira"
INDEX 01 11:57:56
TRACK 06 AUDIO
TITLE "Can You Feel The Love Tonight"
PERFORMER "The John Tesh Project"
INDEX 01 14:23:48
TRACK 07 AUDIO
TITLE "Old Folks"
PERFORMER "Ben Webster"
INDEX 01 19:46:42
TRACK 08 AUDIO
TITLE "Charm"
PERFORMER "George Saxon"
INDEX 01 22:42:43
TRACK 09 AUDIO
TITLE "The Windmills Of Your Mind"
PERFORMER "Fausto Papetti"
INDEX 01 25:32:66
TRACK 10 AUDIO
TITLE "My Funny Valentine"
PERFORMER "Gerry Mulligan Quartet"
INDEX 01 28:44:58
TRACK 11 AUDIO
TITLE "Saving All My Love For You"
PERFORMER "Stuart McDonald"
INDEX 01 33:27:07
TRACK 12 AUDIO
TITLE "Alone Again"
PERFORMER "Fausto Papetti"
INDEX 01 36:59:10
TRACK 13 AUDIO
TITLE "Come Rain Or Come Shine"
PERFORMER "Ben Webster"
INDEX 01 40:35:37
TRACK 14 AUDIO
TITLE "Sambario"
PERFORMER "George Saxon"
INDEX 01 44:59:63
TRACK 15 AUDIO
TITLE "Feelings"
PERFORMER "Fausto Papetti"
INDEX 01 48:51:43
TRACK 16 AUDIO
TITLE "Just The Way You Are"
PERFORMER "Stuart McDonald"
INDEX 01 52:28:68
TRACK 17 AUDIO
TITLE "Do Nothing Till You Hear From Me"
PERFORMER "Ben Webster"
INDEX 01 56:59:12
TRACK 18 AUDIO
TITLE "Lara's Theme From 'Dr. Zhivago'"
PERFORMER "Fausto Papetti"
INDEX 01 61:44:09
TRACK 19 AUDIO
TITLE "Serenity"
PERFORMER "Clarence Clemons"
INDEX 01 64:18:08
TRACK 20 AUDIO
TITLE "Summertime"
PERFORMER "Charlie Parker"
INDEX 01 69:52:11
Download / Скачать

Хотите скачать бесплатно? Зарегистрируйтесь на сайте (ссылка на регистрацию). Pirat.ca - самый быстрый торрент трекер в рунете!

Как скачивать  ·   Что такое торрент  ·   Рейтинг и ограничения

Боцман

1840

Пост 27-Ноя-2011 07:19 (спустя 29 дней)

[Q] 

В кильватере!!! Орудия товьсь!!!

_________________
не верь не бойся не проси не плачь...
[Профиль]  [ЛС] 

ska20

Шкипер

Пост 06-Янв-2012 01:14 (спустя 1 месяц 8 дней)

[Q] 

Koralina
Спасибо большое :dd ay
[Профиль]  [ЛС] 
Показать сообщения:    
Ответить на тему

Текущее время: Сегодня 15:54

Часовой пояс: GMT + 4



Вы не можете начинать темы
Вы не можете отвечать на сообщения
Вы не можете редактировать свои сообщения
Вы не можете удалять свои сообщения
Вы не можете голосовать в опросах
Вы не можете прикреплять файлы к сообщениям
Вы не можете скачивать файлы

Майнать ▼