Учитель / A Teacher (Ханна Фидель/Hannah Fidell) [2013 г., драма, WEB-DLRip] DVO [студия Elrom]

Ответить на тему
 
Автор
Сообщение

Пост 04-Янв-2014 12:25

[Q] 

valeryz777

Гроза морей

-Учитель / A Teacher-- Производство: США, Elrom
Год выпуска: 2013 г.
Жанр: драма
Продолжительность: 01:15:38
Мировая премьера: 20 января 2013
Перевод: Профессиональный (двухголосый, закадровый) [студия Elrom]
Режиссер: Ханна Фидель/Hannah Fidell-В ролях: Линдсэй Бердж, Уилл Бриттейн, Джули Делл Филлипс, Джонни Марс, Крис Доубек, Мэтью Джейнтемпо, Коди халтом, Робби Кинг, Ханна Дэннели, Марк Фарели-Описание: В фильме вы увидите историю, которая можно сказать, стара как мир. Это отношения молодой учительницы и ее ученика-старшеклассника. Такие вещи на первый взгляд неприемлемы в нашем обществе, но как говорится, сердцу не прикажешь...-
Качество видео: WEB-DLRip
Контейнер: AVI
Видео кодек: XviD
Аудио кодек: MP3
Видео: 672*272 pixel, 1238 kbps, 23,976 fps, 0.282 bit/pixel
Аудио: 128 kbps, 2 ch, 48,0 КГц
Cубтитры: отсутствуют
Бывает, что наше "Я" разделяется на двое. Одно "Я" говорит, что делать так нельзя, а второе кричит с глубокой дикой болью:"Да ладно! Я же чуть-чуть!!!"
valeryz777
Общее
Полное имя :Teacher.2013.WEBDLrip..avi
Формат : AVI
Формат/Информация : Audio Video Interleave
Размер файла : 744 Мбайт
Продолжительность : 1 ч. 15 м.
Общий поток : 1375 Кбит/сек
Название фильма : Uchitelnica.2013
Формат оригинала/Распространитель : A.Teacher.(2013).1080p.WEB-DL.mkv
Жанр : Drama
Правообладатель : 25KADR
Примечание : DVO (Elrom studio)
Видео
Идентификатор : 0
Формат : MPEG-4 Visual
Профиль формата : Advanced [email protected]
Параметр BVOP формата : 2
Параметр QPel формата : Нет
Параметр GMC формата : Без точки перехода
Параметр матрицы формата : Default (MPEG)
Идентификатор кодека : XVID
Идентификатор кодека/Подсказка : XviD
Продолжительность : 1 ч. 15 м.
Битрейт : 1238 Кбит/сек
Ширина : 672 пикселя
Высота : 272 пикселя
Соотношение сторон : 2,471
Частота кадров : 23,976 кадра/сек
Цветовое пространство : YUV
Субдискретизация насыщенности : 4:2:0
Битовая глубина : 8 бит
Тип развёртки : Прогрессивная
Метод сжатия : С потерями
Бит/(Пиксели*Кадры) : 0.282
Размер потока : 670 Мбайт (90%)
Библиотека кодирования : XviD 64
Аудио
Идентификатор : 1
Формат : MPEG Audio
Версия формата : Version 1
Профиль формата : Layer 3
Режим : Joint stereo
Идентификатор кодека : 55
Идентификатор кодека/Подсказка : MP3
Продолжительность : 1 ч. 15 м.
Вид битрейта : Постоянный
Битрейт : 128 Кбит/сек
Каналы : 2 канала
Частота : 48,0 КГц
Метод сжатия : С потерями
Размер потока : 69,3 Мбайт (9%)
Выравнивание : Соединение по промежуткам
Продолжительность промежутка : 42 мс. (1,00 видеокадр)
Время предзагрузки промежутка : 504 мс.
Язык : Russian
Внимание! Раздача ведется путем веб сидирования Подробнее здесь
Download / Скачать

Хотите скачать бесплатно? Зарегистрируйтесь на сайте (ссылка на регистрацию). Pirat.ca - самый быстрый торрент трекер в рунете!

Как скачивать  ·   Что такое торрент  ·   Рейтинг и ограничения

platon18

Гроза морей

Пост 04-Янв-2014 12:58 (спустя 33 минуты)

[Q] 

порнушка? качнем))))
[Профиль]  [ЛС] 

valeryz777 ®

Гроза морей

914

Пост 04-Янв-2014 13:15 (спустя 16 минут)

[Q] 

platon18, нет, это не порнушка! bj Это драма!

_________________
«Festina lente» что означает «Поспешай медленно»
[Профиль]  [ЛС] 

platon18

Гроза морей

Пост 04-Янв-2014 14:16 (спустя 1 час 1 минута)

[Q] 

эх bh , ну фсио равно качаю и посмотрю
[Профиль]  [ЛС] 

artem37

Шкипер

116

Пост 04-Янв-2014 16:06 (спустя 1 час 49 минут)

[Q] 

посмотрим ! Спасибо!!!

_________________
[Профиль]  [ЛС] 

Пост 04-Янв-2014 16:32 (спустя 25 минут)

Топик был перенесен из форума Зарубежное Кино (Трюм) в форум Арт-хаус и авторские работы
erchine
 

valeryz777 ®

Гроза морей

914

Пост 23-Фев-2014 06:57 (спустя 1 месяц 18 дней)

[Q] 

С Днём Защитника Отечества!!!!! Ура!!! bp

_________________
«Festina lente» что означает «Поспешай медленно»
[Профиль]  [ЛС] 

Skat.56

Легенда

453

Пост 07-Сен-2014 18:56 (спустя 6 месяцев 12 дней)

[Q] 

471531platon18, нет, это не порнушка! bj Это драма!
То есть в конце, не кончили?
Тут уж как в ст. 131 УК РФ засунул значит уже счастлив, независимо от окончания)))))

_________________
[Профиль]  [ЛС] 

Cepreu

Корсар

Пост 27-Сен-2014 14:15 (спустя 19 дней)

[Q] 

>>Это отношения молодой учительницы и ее ученика-старшеклассника.
>>сердцу не прикажешь...
Любовь, ага :)))
>>Производство: США
Ну, точно любовь :)
[Профиль]  [ЛС] 

valeryz777 ®

Гроза морей

914

Пост 23-Фев-2015 12:45 (спустя 4 месяца 25 дней)

[Q] 


_________________
«Festina lente» что означает «Поспешай медленно»
[Профиль]  [ЛС] 

valeryz777 ®

Гроза морей

914

Пост 08-Мар-2015 05:37 (спустя 12 дней)

[Q] 


_________________
«Festina lente» что означает «Поспешай медленно»
[Профиль]  [ЛС] 

xzxscorpxzx

Легенда

Пост 15-Фев-2016 03:09 (спустя 11 месяцев 6 дней)

[Q] 

глянем шо за зверь)
[Профиль]  [ЛС] 

valeryz777 ®

Гроза морей

914

Пост 23-Фев-2016 06:34 (спустя 8 дней)

[Q] 


_________________
«Festina lente» что означает «Поспешай медленно»
[Профиль]  [ЛС] 

valeryz777 ®

Гроза морей

914

Пост 08-Мар-2016 09:09 (спустя 14 дней)

[Q] 


_________________
«Festina lente» что означает «Поспешай медленно»
[Профиль]  [ЛС] 

valeryz777 ®

Гроза морей

914

Пост 17-Июн-2017 16:33 (спустя 1 год 3 месяца)

[Q] 

Наконец-то у меня скоростной интернет!!! Могу раздавать направо и налево!!! Пиратка рулит!

_________________
«Festina lente» что означает «Поспешай медленно»
[Профиль]  [ЛС] 

Кристина119

Гроза морей

Пост 18-Июн-2017 22:01 (спустя 1 день 5 часов)

[Q] 

спасибо, заценим Лови бочку
[Профиль]  [ЛС] 

Дэн

Гроза морей

Пост 19-Авг-2017 19:21 (спустя 2 месяца)

[Q] 

... Спасибо!!! ....
[Профиль]  [ЛС] 
Показать сообщения:    
Ответить на тему

Текущее время: Сегодня 00:10

Часовой пояс: GMT + 4



Вы не можете начинать темы
Вы не можете отвечать на сообщения
Вы не можете редактировать свои сообщения
Вы не можете удалять свои сообщения
Вы не можете голосовать в опросах
Вы не можете прикреплять файлы к сообщениям
Вы не можете скачивать файлы

Майнать ▼