(Sound Test 5.1) Тест звука для акустики 5.1 - Ac3, Dolby Digital, 5.1Ch.avi (2012) DVDRip

Ответить на тему
 
Автор
Сообщение

Пост 21-Янв-2012 04:22

[Q] 

Kote Makaradze

Тест звука для акустики 5.1.avi- -Год выпуска: 2012
Жанр: Sound Test 5.1 / Звуковой тест 5.1
Качество видео: DVDRip
Видеокодек: DivX 3
Битрейт видео: ~2 473 Kbps
Размер кадра: 576х432
Продолжительность: 00:00:49сек
Аудиокодек: AC3
Битрейт аудио: 448 Kbps
Количество каналов: 5.1
Продолжительность: 00:00:49
-Описание-Можно проверить громкость каждого отдельного канала и работу звуковых кодеков на разных плеерах.
Показано как должна располагаться акустика 5.1. И очень оригинальное оформление звука. Громкие пистолетные выстрелы и автоматная очередь по каждому отдельному каналу: центр, левый, правый, тыл правый, тыл левый, в сабе звук гранаты. В конце теста звучат все вместе каналы звука 5.1
-ВНИМАНИЕ!
Не все плеера корректно воспроизводят звуки по каналам. То есть, некоторые каналы могут не звучать. Или звучать сразу все вместе. Если при прослушивании не звучат некоторые каналы, это плохой декодер DOLBY
-

Sound Test.Ac3 Dolby Digital 5.1Ch.avi
Format : AVI
Format/Info : Audio Video Interleave
File size : 14.3 MiB
Duration : 48s 616ms
Overall bit rate : 2 473 Kbps
Writing application : Nandub v1.0rc2
Writing library : Nandub build 1853/release

Video
Format : MPEG-4 Visual
Codec ID : DIV3
Codec ID/Hint : DivX 3 Low
Duration : 48s 615ms
Bit rate : 2 012 Kbps
Width : 576 pixels
Height : 432 pixels
Display aspect ratio : 4:3
Frame rate : 29.970 fps
Color space : YUV
Chroma subsampling : 4:2:0
Bit depth : 8 bits
Compression mode : Lossy
Bits/(Pixel*Frame) : 0.270
Stream size : 11.7 MiB (81%)

Audio
Format : AC-3
Format/Info : Audio Coding 3
Mode extension : CM (complete main)
Codec ID : 2000
Duration : 48s 616ms
Bit rate mode : Constant
Bit rate : 448 Kbps
Channel(s) : 6 channels
Channel positions : Front: L C R, Side: L R, LFE
Sampling rate : 48.0 KHz
Bit depth : 16 bits
Compression mode : Lossy
Stream size : 2.60 MiB (18%)
Alignment : Split accross interleaves
Interleave, duration : 34 ms (1.01 video frame)
Interleave, preload duration : 500 ms
-

Download / Скачать

Хотите скачать бесплатно? Зарегистрируйтесь на сайте (ссылка на регистрацию). Pirat.ca - самый быстрый торрент трекер в рунете!

Как скачивать  ·   Что такое торрент  ·   Рейтинг и ограничения

sershius

Шкипер

Пост 22-Янв-2012 12:25 (спустя 1 день 8 часов)

[Q] 

интересно, может пригодится. Спасибо
[Профиль]  [ЛС] 

LETHIK2010

Морской Волк

Пост 05-Мар-2012 08:39 (спустя 1 месяц 13 дней)

[Q] 

Тест звука, замечательно.
[Профиль]  [ЛС] 

arturkazan

Штурман

Пост 21-Ноя-2012 19:46 (спустя 8 месяцев 16 дней)

[Q] 

Как раз это искал, спасибо
[Профиль]  [ЛС] 

banka

Лоцман

Пост 20-Дек-2012 16:55 (спустя 28 дней)

[Q] 

спасибо)
[Профиль]  [ЛС] 

maldavan

Пост 07-Янв-2013 17:57 (спустя 18 дней)

[Q] 

СПАСИБО !!!!
[Профиль]  [ЛС] 

popov234

Корсар

Пост 20-Янв-2013 22:06 (спустя 13 дней)

[Q] 

Спасибо.
[Профиль]  [ЛС] 

BoxSTerok

Морской Волк

Пост 22-Янв-2013 01:05 (спустя 1 день 2 часа)

[Q] 

Спасибо!! проверил!!
[Профиль]  [ЛС] 

Voldemartop

Легенда

1579

Пост 07-Май-2013 04:00 (спустя 3 месяца 16 дней)

[Q] 

Благо Дарю!!!
Нужный тест.

_________________


МОИ РАЗДАЧИ
[Профиль]  [ЛС] 

CHARLI2236

1218

Пост 17-Сен-2013 15:53 (спустя 4 месяца 10 дней)

[Q] 

подключусь AntiZip 101

_________________
[Профиль]  [ЛС] 

SrgWWW

Лоцман

Пост 29-Окт-2014 18:50 (спустя 1 год 1 месяц)

[Q] 

В кинотеатре штатный тест лучше
[Профиль]  [ЛС] 

leestan27

Корсар

Пост 27-Мар-2015 22:27 (спустя 4 месяца 29 дней)

[Q] 

Спасибо!!!
[Профиль]  [ЛС] 
Показать сообщения:    
Ответить на тему

Текущее время: Сегодня 10:36

Часовой пояс: GMT + 4



Вы не можете начинать темы
Вы не можете отвечать на сообщения
Вы не можете редактировать свои сообщения
Вы не можете удалять свои сообщения
Вы не можете голосовать в опросах
Вы не можете прикреплять файлы к сообщениям
Вы не можете скачивать файлы

Майнать ▼