Юнона и Авось / Московский театр имени Ленинского комсомола (Марк Захаров) [1983 г., мелодрама, мюзикл, DVDRip-AVC]

Ответить на тему
 
Автор
Сообщение

Пост 30-Мар-2012 21:00

[Q] 

hohol731

Лоцман

Юнона и Авось / Московский театр имени Ленинского комсомола
Страна: СССР
Жанр: мелодрама, мюзикл
Год выпуска: 1983
Продолжительность: 01:23:16
Режиссер: Марк Захаров
В ролях
Николай Караченцов, Елена Шанина, Александр Абдулов, Павел Смеян, Владимир Белоусов, Александр Садо, Радий Овчинников, Владимир Кузнецов, Сергей Греков, Ирина Алферова
Описание
В основу сюжета "Юноны и Авось" легла правдивая романтическая история любви русского графа Николая Резанова и Кончиты Аргуэлло. Как гласит история, в 1806 году Резанов предпринял морскую экспедицию с Аляски к берегам Калифорнии на кораблях Юнона и Авось с целью получения провианта для голодающих российских колоний в Америке. Прибыв в Калифорнию, он встретил в испанской колонии Сан-Франциско дочь местного губернатора, но их стремительно развивавшийся роман был прерван срочным отъездом графа в Россию. Не сумев добиться скорого разрешения на брак с католичкой, православный Резанов провел в его ожидании несколько лет и умер под Красноярском. Кончита ждала его 35 лет до тех пор, пока не получила достоверных сведений о его смерти, после чего удалилась в монастырь...
Источник/Качество: DVDRip-AVC
Формат: AVI
Видео кодек: DivX
Аудио кодек: AC3
Видео: 1899 Кбит/с, 528x400
Аудио: 6 ch, 448 Кбит/с, 48,0 КГц
Общее
Полное имя : Yunona.i.avos.1983.DivX.DVDRip.avi
Формат : AVI
Формат/Информация : Audio Video Interleave
Размер файла : 1,37 Гбайт
Продолжительность : 1 ч. 23 м.
Общий поток : 2352 Кбит/сек
Программа кодирования : VirtualDubMod 1.5.4.1 (build 2178/release)
Библиотека кодирования : VirtualDubMod build 2178/release
Видео
Идентификатор : 0
Формат : MPEG-4 Visual
Параметр BVOP формата : 1
Параметр QPel формата : Нет
Параметр GMC формата : Без точки перехода
Параметр матрицы формата : Default (H.263)
Режим смешивания : Сжатый битовый поток
Идентификатор кодека : DX50
Идентификатор кодека/Подсказка : DivX 5
Продолжительность : 1 ч. 23 м.
Битрейт : 1897 Кбит/сек
Ширина : 528 пикселей
Высота : 400 пикселей
Соотношение сторон : 4:3
Частота кадров : 25,000 кадров/сек
Цветовое пространство : YUV
Субдискретизация насыщенности : 4:2:0
Битовая глубина : 8 бит
Тип развёртки : Прогрессивная
Метод сжатия : С потерями
Бит/(Пиксели*Кадры) : 0.359
Размер потока : 1,10 Гбайт (81%)
Библиотека кодирования : DivX 5.2.1 (WaffleDay) (UTC 2004-09-08)
Аудио
Идентификатор : 1
Формат : AC-3
Формат/Информация : Audio Coding 3
Расширение режима : CM (complete main)
Идентификатор кодека : 2000
Продолжительность : 1 ч. 23 м.
Вид битрейта : Постоянный
Битрейт : 448 Кбит/сек
Каналы : 6 каналов
Расположение каналов : Front: L C R, Side: L R, LFE
Частота : 48,0 КГц
Битовая глубина : 16 бит
Метод сжатия : С потерями
Размер потока : 267 Мбайт (19%)
Выравнивание : Разделение по промежуткам
Продолжительность промежутка : 96 мс. (2,40 видеокадра)
Время предзагрузки промежутка : 96 мс.
Download / Скачать

Хотите скачать бесплатно? Зарегистрируйтесь на сайте (ссылка на регистрацию). Pirat.ca - самый быстрый торрент трекер в рунете!

Как скачивать  ·   Что такое торрент  ·   Рейтинг и ограничения

Пост 30-Мар-2012 21:45 (спустя 45 минут)

Топик был перенесен из форума Театр в форум Опера, балет, мюзикл

erchine
 

aleks_al

Штурман

Пост 31-Мар-2012 10:25 (спустя 13 часов)

[Q] 

Можно сто раз посмотреть и все равно интересно...
[Профиль]  [ЛС] 

pimienta.sib

Штурман

Пост 16-Авг-2012 18:22 (спустя 4 месяца 16 дней)

[Q] 

Это как приключения электроника - вечно.

_________________
Всегда выигрывает тот, - кто играет нечестно. Врите и лгите. Ваща жизнь будет красочнее и четче!
[Профиль]  [ЛС] 

Ikoka_Divo

470

Пост 27-Июл-2014 15:55 (спустя 1 год 11 месяцев)

[Q] 

и это не золотая раздача???? вопиющая несправедливость.
это неповторимо и вечно. красота музыки в чистом виде.

_________________

[Профиль]  [ЛС] 

moltchanov

Штурман

Пост 20-Май-2015 10:42 (спустя 9 месяцев 23 дня)

[Q] 

Респект! !COOL!
[Профиль]  [ЛС] 
Показать сообщения:    
Ответить на тему

Текущее время: Сегодня 17:55

Часовой пояс: GMT + 4



Вы не можете начинать темы
Вы не можете отвечать на сообщения
Вы не можете редактировать свои сообщения
Вы не можете удалять свои сообщения
Вы не можете голосовать в опросах
Вы не можете прикреплять файлы к сообщениям
Вы не можете скачивать файлы

Майнать ▼