Уважаемый Гость!
Вы можете поддержать проект и зарегистрироваться у наших партнеров - онлайн-стратегия MyLands. При регистрации в игре Вы получите код, который сможете активировать после регистрации на pirat.ca и получить 1000 дублонов.

Ваш код:
f0fd07852eba565c39fb4a6d5ce1a0542d556597
 
     

(Chanson) Трофим - Снегири (Легенды жанра) - 2004 [FLAC, image+.cue, lossless]

Ответить на тему
 
Автор
Сообщение

Пост 15-Мар-2013 15:39

[Q] 

Лоцмен

Шкипер

--Трофим - Снегири (Легенды жанра)-- Год издания: 2004
Страна: Russia
Жанр: Chanson
Продолжительность: 01:07:12-Лейбл издания: Монолит, Классик компани
Тип альбома: Компиляция, Официальный сборник
Страна-выпуска диска: Russia
Номер по каталогу: CC-CD-072/01
Источник (релизер): Собственный рип снят в режиме Test&Copy-Формат: FLAC
Битрейт аудио: lossless
Тип рипа: image+.cue
Наличие сканов в содержимом раздачи: да-
01 - Эх, дал бы кто взаймы
02 - Дальнобойная
03 - С добрым утром
04 - Судьба
05 - Снегири
06 - Поручик
07 - Горько
08 - Танька
09 - Фото южное
10 - Сантехник
11 - Аты-баты
12 - Непогода
13 - Крылья
14 - Налоговый инспектор
15 - Босота,.. или один день Мишаниной бригады
16 - Аристократия помойки
17 - Бьюсь как рыба
18 - Песня о Ленине
19 - Там, там, там...
20 - Рыбалка

Exact Audio Copy V1.0 beta 3 from 29. August 2011
Отчёт EAC об извлечении, выполненном 21. апреля 2012, 16:18
Трофим / Легенды жанра - Снегири
Дисковод: HL-DT-STDVDRAM GSA-T10N Adapter: 0 ID: 0
Режим чтения : Достоверность
Использование точного потока : Да
Отключение кэша аудио : Да
Использование указателей C2 : Нет
Коррекция смещения при чтении : 667
Способность читать области Lead-in и Lead-out : Нет
Заполнение пропущенных сэмплов тишиной : Да
Удаление блоков с тишиной в начале и конце : Нет
При вычислениях CRC использовались нулевые сэмплы : Да
Интерфейс : Установленный внешний ASPI-интерфейс
Выходной формат : Пользовательский кодировщик
Выбранный битрейт : 1024 kBit/s
Качество : Высокий
Добавление ID3-тега : Нет
Утилита сжатия : D:\Program Files\Exact Audio Copy\FLAC\FLAC.EXE
Дополнительные параметры : -V -8 -T "Date=%year%" -T "Genre=%genre%" %source%
TOC извлечённого CD
Трек | Старт | Длительность | Начальный сектор | Конечный сектор
---------------------------------------------------------------------
1 | 0:00.00 | 3:47.20 | 0 | 17044
2 | 3:47.20 | 3:15.04 | 17045 | 31673
3 | 7:02.24 | 3:17.40 | 31674 | 46488
4 | 10:19.64 | 3:29.69 | 46489 | 62232
5 | 13:49.58 | 2:59.42 | 62233 | 75699
6 | 16:49.25 | 2:34.06 | 75700 | 87255
7 | 19:23.31 | 4:26.69 | 87256 | 107274
8 | 23:50.25 | 4:32.12 | 107275 | 127686
9 | 28:22.37 | 2:02.09 | 127687 | 136845
10 | 30:24.46 | 3:22.29 | 136846 | 152024
11 | 33:47.00 | 2:06.53 | 152025 | 161527
12 | 35:53.53 | 3:26.10 | 161528 | 176987
13 | 39:19.63 | 4:45.33 | 176988 | 198395
14 | 44:05.21 | 2:52.57 | 198396 | 211352
15 | 46:58.03 | 3:38.05 | 211353 | 227707
16 | 50:36.08 | 3:17.08 | 227708 | 242490
17 | 53:53.16 | 2:43.36 | 242491 | 254751
18 | 56:36.52 | 3:38.20 | 254752 | 271121
19 | 60:14.72 | 3:54.02 | 271122 | 288673
20 | 64:08.74 | 3:03.18 | 288674 | 302416
Характеристики диапазона извлечения и сообщения об ошибках
Выбранный диапазон
Имя файла D:\Desktop\Трофим - Легенды жанра - Снегири.wav
Пиковый уровень 100.0 %
Скорость извлечения 3.9 X
Качество диапазона 100.0 %
CRC теста DC8DA39F
CRC копии DC8DA39F
Копирование... OK
Ошибок не произошло
AccurateRip: сводка
Трек 1 : извлечено точно (доверие 2) [1C3CA3B7] (AR v1)
Трек 2 : извлечено точно (доверие 2) [7C65076A] (AR v1)
Трек 3 : извлечено точно (доверие 2) [111BB09B] (AR v1)
Трек 4 : извлечено точно (доверие 2) [90031C36] (AR v1)
Трек 5 : извлечено точно (доверие 2) [504B260C] (AR v1)
Трек 6 : извлечено точно (доверие 2) [C4ADE2C1] (AR v1)
Трек 7 : извлечено точно (доверие 2) [CB15D3A1] (AR v1)
Трек 8 : извлечено точно (доверие 2) [8E1300CC] (AR v1)
Трек 9 : извлечено точно (доверие 2) [B91EB340] (AR v1)
Трек 10 : извлечено точно (доверие 2) [7D648A5E] (AR v1)
Трек 11 : извлечено точно (доверие 2) [8E8E5437] (AR v1)
Трек 12 : извлечено точно (доверие 2) [64A7A023] (AR v1)
Трек 13 : извлечено точно (доверие 2) [5CCF9064] (AR v1)
Трек 14 точность не определена (достоверность 2) [60D2F1A5], AccurateRip вернул [D1FB64E8] (AR v2)
Трек 15 : извлечено точно (доверие 2) [1F805F57] (AR v1)
Трек 16 : извлечено точно (доверие 2) [9504BF39] (AR v1)
Трек 17 : извлечено точно (доверие 2) [A5E9076A] (AR v1)
Трек 18 точность не определена (достоверность 2) [8773C8A5], AccurateRip вернул [EFDB0EFE] (AR v2)
Трек 19 точность не определена (достоверность 2) [9722BCD6], AccurateRip вернул [2DAF435A] (AR v2)
Трек 20 точность не определена (достоверность 2) [82CC78C9], AccurateRip вернул [D35E7810] (AR v2)
16 трек(и) скопированы точно
4 трек(и) не удалось проверить на точность
Некоторые треки не прошли проверку на точность
Конец отчёта
==== Контрольная сумма отчёта FCA280E3FDBD92865E75370AE7E29DA77DA63D63CE9F3BD30ECBB754C74B8F2A ====

REM GENRE Chanson
REM DATE 2004
REM DISCID FC0FC014
REM COMMENT "ExactAudioCopy v1.0b3"
PERFORMER "Трофим"
TITLE "Легенды жанра - Снегири"
FILE "Трофим - Легенды жанра - Снегири.flac" WAVE
TRACK 01 AUDIO
TITLE "Эх, дал бы кто взаймы"
PERFORMER "Трофим"
INDEX 01 00:00:00
TRACK 02 AUDIO
TITLE "Дальнобойная"
PERFORMER "Трофим"
INDEX 00 03:45:20
INDEX 01 03:47:20
TRACK 03 AUDIO
TITLE "С добрым утром"
PERFORMER "Трофим"
INDEX 00 07:00:24
INDEX 01 07:02:24
TRACK 04 AUDIO
TITLE "Судьба"
PERFORMER "Трофим"
INDEX 00 10:17:64
INDEX 01 10:19:64
TRACK 05 AUDIO
TITLE "Снегири"
PERFORMER "Трофим"
INDEX 00 13:47:58
INDEX 01 13:49:58
TRACK 06 AUDIO
TITLE "Поручик"
PERFORMER "Трофим"
INDEX 00 16:47:25
INDEX 01 16:49:25
TRACK 07 AUDIO
TITLE "Горько"
PERFORMER "Трофим"
INDEX 00 19:21:31
INDEX 01 19:23:31
TRACK 08 AUDIO
TITLE "Танька"
PERFORMER "Трофим"
INDEX 00 23:48:25
INDEX 01 23:50:25
TRACK 09 AUDIO
TITLE "Фото южное"
PERFORMER "Трофим"
INDEX 00 28:20:37
INDEX 01 28:22:37
TRACK 10 AUDIO
TITLE "Сантехник"
PERFORMER "Трофим"
INDEX 00 30:22:46
INDEX 01 30:24:46
TRACK 11 AUDIO
TITLE "Аты-баты"
PERFORMER "Трофим"
INDEX 00 33:45:00
INDEX 01 33:47:00
TRACK 12 AUDIO
TITLE "Непогода"
PERFORMER "Трофим"
INDEX 00 35:51:53
INDEX 01 35:53:53
TRACK 13 AUDIO
TITLE "Крылья"
PERFORMER "Трофим"
INDEX 00 39:17:63
INDEX 01 39:19:63
TRACK 14 AUDIO
TITLE "Налоговый инспектор"
PERFORMER "Трофим"
INDEX 00 44:03:21
INDEX 01 44:05:21
TRACK 15 AUDIO
TITLE "Босота,.. или один день Мишаниной бригады"
PERFORMER "Трофим"
INDEX 00 46:56:03
INDEX 01 46:58:03
TRACK 16 AUDIO
TITLE "Аристократия помойки"
PERFORMER "Трофим"
INDEX 00 50:34:08
INDEX 01 50:36:08
TRACK 17 AUDIO
TITLE "Бьюсь как рыба"
PERFORMER "Трофим"
INDEX 00 53:51:16
INDEX 01 53:53:16
TRACK 18 AUDIO
TITLE "Песня о Ленине"
PERFORMER "Трофим"
INDEX 00 56:34:52
INDEX 01 56:36:52
TRACK 19 AUDIO
TITLE "Там, там, там..."
PERFORMER "Трофим"
INDEX 00 60:12:72
INDEX 01 60:14:72
TRACK 20 AUDIO
TITLE "Рыбалка"
PERFORMER "Трофим"
INDEX 00 64:06:74
INDEX 01 64:08:74

Сергей Трофимов родился 4 ноября 1966 года в Москве. Под творческим псевдонимом Трофим Сергей начал свою деятельность в 1994 году, когда он написал песню «Вот и всё, сказал мудрец и в воду канул» и представил её Степану Разину, который стал его продюсером.
В 1994 году Сергей Трофимов начал сотрудничество с Александром Ивановым (Рондо) в работе над его дебютным сольным альбомом «Грешной души печаль», выпущенным в 1997 году.
Сергей Трофимов был одним из первых показанных по телевидению исполнителей в жанре русского шансона. В 1999 году в программе «Музыкальный ринг» он сразился с Михаилом Кругом.
В 2004 году Сергей Трофимов вместе со своими друзьями и участниками форума его официального сайта организовал и провёл первый некоммерческий фестиваль (в дальнейшем ставший ежегодным) «Сергей Трофимов собирает друзей». Проводится он в городе Навашино (Нижегородская область). Целью является живое общение Сергея Трофимова с поклонниками своего творчества. В рамках фестиваля талантливым, но не широко известным исполнителям предоставляется возможность выступить перед достаточно обширным кругом слушателей.
-
Download / Скачать

Хотите скачать бесплатно? Зарегистрируйтесь на сайте (ссылка на регистрацию). Pirat.ca - самый быстрый торрент трекер в рунете!

Как скачивать  ·   Что такое торрент  ·   Рейтинг и ограничения

lkas1010

Корсар

Пост 07-Дек-2014 21:01 (спустя 1 год 8 месяцев)

[Q] 

Спасибо! Супер!
[Профиль]  [ЛС] 

hakep

Штурман

Пост 20-Июл-2015 17:02 (спустя 7 месяцев 12 дней)

[Q] 

Спасибо, однако! Раздающему респект!
[Профиль]  [ЛС] 
Показать сообщения:    
Ответить на тему

Текущее время: Сегодня 08:08

Часовой пояс: GMT + 4



Вы не можете начинать темы
Вы не можете отвечать на сообщения
Вы не можете редактировать свои сообщения
Вы не можете удалять свои сообщения
Вы не можете голосовать в опросах
Вы не можете прикреплять файлы к сообщениям
Вы не можете скачивать файлы

▼ Вниз