(Crossbreed, Darkside, Drum & Bass, Hardcore) Switch Technique - Scars - 2015 [FLAC, tracks, lossless]

Ответить на тему
 
Автор
Сообщение

Пост 21-Ноя-2015 21:29

[Q] 

Ворон

-Switch Technique - Scars--
Год издания: 2015
Страна: Poland
Жанр: Crossbreed, Darkside, Drum & Bass, Hardcore
Продолжительность: 01:53:46-Лейбл издания: Union
Номер по каталогу: UNIONLP004
Формат: FLAC
Битрейт аудио: lossless
Тип рипа: tracks
Наличие сканов в содержимом раздачи: нет
-
CD 1
01. Switch Technique - Restored (6:04)
02. Switch Technique - Ghost Assassin (6:26)
03. Switch Technique - Climax (5:22)
04. Switch Technique - Experience (6:36)
05. Switch Technique - The Sun 6:20)
06. Switch Technique - Carnivore (5:14)
07. Switch Technique - Wandering Souls (6:04)
08. Switch Technique - The Last Judge (5:42)
09. Synthakt - The Plague (Switch Technique Remix) (5:42)
10. Dolphin - Dynamo (Switch Technique Remix) (5:29)
CD 2
01. Switch Technique & Eye-D - Technovore (5:20)
02. Switch Technique & C-Netik - Metadata (5:14)
03. Switch Technique & Brainpain - Fentanyl (5:11)
04. Switch Technique & Cooh - Zavod (4:52)
05. Switch Technique & DJ Hidden - Cellular Zombies (5:28)
06. Switch Technique & Deathmachine - Imaginary Time (5:42)
07. Switch Technique & Ambassador21 - Constant Contumacy (5:14)
08. Switch Technique & Hostage - Glasgow Smile (6:04)
09. Switch Technique & Synthakt - Deceased (5:31)
10. Switch Technique & Bratkilla - Twofold (6:02)
CD 1
Код:
Exact Audio Copy V1.1 from 23. June 2015
EAC extraction logfile from November 2015
Switch Technique / Scars
Used drive  : XXX  Adapter: 1  ID: 0
Read mode               : Secure
Utilize accurate stream : Yes
Defeat audio cache      : Yes
Make use of C2 pointers : No
Read offset correction                      : 6
Overread into Lead-In and Lead-Out          : No
Fill up missing offset samples with silence : Yes
Delete leading and trailing silent blocks   : No
Null samples used in CRC calculations       : Yes
Used interface                              : Native Win32 interface for Win NT & 2000
Gap handling                                : Not detected, thus appended to previous track
Used output format : Internal WAV Routines
Sample format      : 44.100 Hz; 16 Bit; Stereo
TOC of the extracted CD
     Track |   Start  |  Length  | Start sector | End sector
    ---------------------------------------------------------
        1  |  0:00.00 |  6:04.04 |         0    |    27303
        2  |  6:04.04 |  6:26.00 |     27304    |    56253
        3  | 12:30.04 |  5:22.71 |     56254    |    80474
        4  | 17:53.00 |  6:36.73 |     80475    |   110247
        5  | 24:29.73 |  6:20.00 |    110248    |   138747
        6  | 30:49.73 |  5:14.51 |    138748    |   162348
        7  | 36:04.49 |  6:04.08 |    162349    |   189656
        8  | 42:08.57 |  5:42.08 |    189657    |   215314
        9  | 47:50.65 |  5:42.60 |    215315    |   241024
       10  | 53:33.50 |  5:29.10 |    241025    |   265709
Track  1
     Filename C:\switch technique - scars\cd1\01 - Switch Technique - Restored.wav
     Peak level 100.0 %
     Extraction speed 4.1 X
     Track quality 100.0 %
     Copy CRC 3F3A7CA9
     Copy OK
Track  2
     Filename C:\switch technique - scars\cd1\02 - Switch Technique - Ghost Assassin.wav
     Peak level 100.0 %
     Extraction speed 5.2 X
     Track quality 100.0 %
     Copy CRC 2319B686
     Copy OK
Track  3
     Filename C:\switch technique - scars\cd1\03 - Switch Technique - Climax.wav
     Peak level 100.0 %
     Extraction speed 5.7 X
     Track quality 100.0 %
     Copy CRC 6C70E7D5
     Copy OK
Track  4
     Filename C:\switch technique - scars\cd1\04 - Switch Technique - Experience.wav
     Peak level 100.0 %
     Extraction speed 6.3 X
     Track quality 100.0 %
     Copy CRC 830EA884
     Copy OK
Track  5
     Filename C:\switch technique - scars\cd1\05 - Switch Technique - The Sun.wav
     Peak level 100.0 %
     Extraction speed 6.8 X
     Track quality 100.0 %
     Copy CRC 5E99B44C
     Copy OK
Track  6
     Filename C:\switch technique - scars\cd1\06 - Switch Technique - Carnivore.wav
     Peak level 100.0 %
     Extraction speed 7.2 X
     Track quality 100.0 %
     Copy CRC 03FD5D24
     Copy OK
Track  7
     Filename C:\switch technique - scars\cd1\07 - Switch Technique - Wandering Souls.wav
     Peak level 100.0 %
     Extraction speed 7.8 X
     Track quality 100.0 %
     Copy CRC 52C57297
     Copy OK
Track  8
     Filename C:\switch technique - scars\cd1\08 - Switch Technique - The Last Judge.wav
     Peak level 100.0 %
     Extraction speed 8.1 X
     Track quality 100.0 %
     Copy CRC C072092E
     Copy OK
Track  9
     Filename C:\switch technique - scars\cd1\09 - Synthakt - The Plague (Switch Technique Remix).wav
     Peak level 100.0 %
     Extraction speed 8.4 X
     Track quality 100.0 %
     Copy CRC 14186A24
     Copy OK
Track 10
     Filename C:\switch technique - scars\cd1\10 - Dolphin - Dynamo (Switch Technique Remix).wav
     Peak level 100.0 %
     Extraction speed 8.7 X
     Track quality 100.0 %
     Copy CRC F3B36DD9
     Copy OK
No errors occurred
End of status report
CD 2
Код:
Exact Audio Copy V1.1 from 23. June 2015
EAC extraction logfile from November 2015
Switch Technique / Scars
Used drive  : XXX  Adapter: 1  ID: 0
Read mode               : Secure
Utilize accurate stream : Yes
Defeat audio cache      : Yes
Make use of C2 pointers : No
Read offset correction                      : 6
Overread into Lead-In and Lead-Out          : No
Fill up missing offset samples with silence : Yes
Delete leading and trailing silent blocks   : No
Null samples used in CRC calculations       : Yes
Used interface                              : Native Win32 interface for Win NT & 2000
Gap handling                                : Not detected, thus appended to previous track
Used output format : Internal WAV Routines
Sample format      : 44.100 Hz; 16 Bit; Stereo
TOC of the extracted CD
     Track |   Start  |  Length  | Start sector | End sector
    ---------------------------------------------------------
        1  |  0:00.00 |  5:20.12 |         0    |    24011
        2  |  5:20.12 |  5:14.55 |     24012    |    47616
        3  | 10:34.67 |  5:11.71 |     47617    |    71012
        4  | 15:46.63 |  4:52.56 |     71013    |    92968
        5  | 20:39.44 |  5:28.30 |     92969    |   117598
        6  | 26:07.74 |  5:42.08 |    117599    |   143256
        7  | 31:50.07 |  5:14.52 |    143257    |   166858
        8  | 37:04.59 |  6:04.05 |    166859    |   194163
        9  | 43:08.64 |  5:31.10 |    194164    |   218998
       10  | 48:39.74 |  6:02.30 |    218999    |   246178
Track  1
     Filename C:\switch technique - scars\cd2\01 - Switch Technique & Eye-D - Technovore.wav
     Peak level 98.8 %
     Extraction speed 4.1 X
     Track quality 100.0 %
     Copy CRC 8B719D3A
     Copy OK
Track  2
     Filename C:\switch technique - scars\cd2\02 - Switch Technique & C-Netik - Metadata.wav
     Peak level 100.0 %
     Extraction speed 4.3 X
     Track quality 99.9 %
     Copy CRC 9ECA60D6
     Copy OK
Track  3
     Filename C:\switch technique - scars\cd2\03 - Switch Technique & Brainpain - Fentanyl.wav
     Peak level 100.0 %
     Extraction speed 5.5 X
     Track quality 100.0 %
     Copy CRC D690A8EA
     Copy OK
Track  4
     Filename C:\switch technique - scars\cd2\04 - Switch Technique & Cooh - Zavod.wav
     Peak level 99.9 %
     Extraction speed 5.9 X
     Track quality 100.0 %
     Copy CRC 1E8C3F30
     Copy OK
Track  5
     Filename C:\switch technique - scars\cd2\05 - Switch Technique & DJ Hidden - Cellular Zombies.wav
     Peak level 99.8 %
     Extraction speed 6.4 X
     Track quality 100.0 %
     Copy CRC B37887AF
     Copy OK
Track  6
     Filename C:\switch technique - scars\cd2\06 - Switch Technique & Deathmachine - Imaginary Time.wav
     Peak level 98.8 %
     Extraction speed 6.9 X
     Track quality 100.0 %
     Copy CRC 75C2E6A5
     Copy OK
Track  7
     Filename C:\switch technique - scars\cd2\07 - Switch Technique & Ambassador21 - Constant Contumacy.wav
     Peak level 100.0 %
     Extraction speed 6.1 X
     Track quality 99.9 %
     Copy CRC A52627F8
     Copy OK
Track  8
     Filename C:\switch technique - scars\cd2\08 - Switch Technique & Hostage - Glasgow Smile.wav
     Peak level 100.0 %
     Extraction speed 7.5 X
     Track quality 100.0 %
     Copy CRC 1BFA8EE1
     Copy OK
Track  9
     Filename C:\switch technique - scars\cd2\09 - Switch Technique & Synthakt - Deceased.wav
     Peak level 100.0 %
     Extraction speed 7.9 X
     Track quality 100.0 %
     Copy CRC 145C767A
     Copy OK
Track 10
     Filename C:\switch technique - scars\cd2\10 - Switch Technique & Bratkilla - Twofold.wav
     Peak level 100.0 %
     Extraction speed 8.3 X
     Track quality 100.0 %
     Copy CRC 0F15528D
     Copy OK
No errors occurred
End of status report
-    
Download / Скачать

Хотите скачать бесплатно? Зарегистрируйтесь на сайте (ссылка на регистрацию). Pirat.ca - самый быстрый торрент трекер в рунете!

Как скачивать  ·   Что такое торрент  ·   Рейтинг и ограничения

Показать сообщения:    
Ответить на тему

Текущее время: Сегодня 04:50

Часовой пояс: GMT + 4



Вы не можете начинать темы
Вы не можете отвечать на сообщения
Вы не можете редактировать свои сообщения
Вы не можете удалять свои сообщения
Вы не можете голосовать в опросах
Вы не можете прикреплять файлы к сообщениям
Вы не можете скачивать файлы

Майнать ▼