Норвегия - Россия / Чемпионат мира 2015 / Группа D / 1-й тур / Матч ТВ [05.12.2015 г., Гандбол / Женщины, IPTV]

Ответить на тему
 
Автор
Сообщение

Пост 07-Дек-2015 01:33

[Q] 

ribi

-Норвегия - Россия-- Год выпуска: 05.12.2015 г.
Вид спорта: Гандбол / Женщины
Продолжительность: 01:17:52
Комментарий: Профессиональный (двухголосый, закадровый)
Комментатор: А. Шмельков, С. Приголовкин
Язык комментариев: русский
Автор рипа / записи: A$taroth-
Качество видео: IPTV
Контейнер: TS
Видео кодек: MPEG2
Аудио кодек: MP3
Видео: 720 x 576 (1.778) at 25.000 fps 4431 Кбит/сек
Аудио: 2 канала, 48,0 КГц 192 Кбит/сек
Видео
Идентификатор : 67 (0x43)
Идентификатор меню : 1 (0x1)
Формат : MPEG Video
Версия формата : Version 2
Профиль формата : Main@Main
Параметр BVOP формата : Да
Параметр матрицы формата : Выборочная
Параметр GOP формата : M=3, N=33
Идентификатор кодека : 2
Продолжительность : 1 ч. 17 м.
Вид битрейта : Переменный
Битрейт : 4431 Кбит/сек
Максимальный битрейт : 15,0 Мбит/сек
Ширина : 720 пикселей
Высота : 576 пикселей
Соотношение сторон : 16:9
Частота кадров : 25,000 кадров/сек
Стандарт вещания : PAL
Цветовое пространство : YUV
Субдискретизация насыщенности : 4:2:0
Битовая глубина : 8 бит
Тип развёртки : Чересстрочная
Порядок развёртки : Верхнее поле первое
Метод сжатия : С потерями
Бит/(Пиксели*Кадры) : 0.427
Размер потока : 2,41 Гбайт (91%)
Аудио
Идентификатор : 68 (0x44)
Идентификатор меню : 1 (0x1)
Формат : MPEG Audio
Версия формата : Version 1
Профиль формата : Layer 2
Идентификатор кодека : 3
Продолжительность : 1 ч. 17 м.
Вид битрейта : Постоянный
Битрейт : 192 Кбит/сек
Каналы : 2 канала
Частота : 48,0 КГц
Метод сжатия : С потерями
Задержка видео : 4 мс.
Размер потока : 107 Мбайт (4%)
Язык : Russian
Download / Скачать

Хотите скачать бесплатно? Зарегистрируйтесь на сайте (ссылка на регистрацию). Pirat.ca - самый быстрый торрент трекер в рунете!

Как скачивать  ·   Что такое торрент  ·   Рейтинг и ограничения

ALEN SAN

5412

Пост 07-Дек-2015 14:34 (спустя 13 часов)

[Q] 

Надеюсь Россия победила!?

_________________
Исправили релиз? - напишите об этом в ЛС со ссылкой на него.
Правила оформления раздач в разделе "Приложения Android
[Профиль]  [ЛС] 
Показать сообщения:    
Ответить на тему

Текущее время: Сегодня 16:26

Часовой пояс: GMT + 4



Вы не можете начинать темы
Вы не можете отвечать на сообщения
Вы не можете редактировать свои сообщения
Вы не можете удалять свои сообщения
Вы не можете голосовать в опросах
Вы не можете прикреплять файлы к сообщениям
Вы не можете скачивать файлы

Майнать ▼