Настоящий детектив / True Detective (Кэри Фукунага / Cary Fukunaga) [2014 г., драма, криминал, детектив, WEB-DLRip] [1 сезон / 8 серий] AVO (Юрий Сербин)

Ответить на тему
 
Автор
Сообщение

Пост 05-Фев-2015 18:00

[Q] 

Voldun

Корсар

Настоящий детектив / True Detective Год выпуска: 2014
Производство: США
Жанр: драма, криминал, детектив
Сезон: 1 ( полный )
Серии: 8 из 8 серий
Продолжительность: ~ 00:59 мин серия
Перевод: Авторский (одноголосый, закадровый) Юрий Сербин
Субтитры: отсутствуют
Режиссер: Кэри Фукунага / Cary Fukunaga
В ролях: Мэттью МакКонахи, Вуди Харрельсон, Мишель Монахэн, Майкл Поттс, Тори Киттлз, Брюс Эллиотт
Описание: Главные герои — два детектива. В 2012 году в штате Луизиана повторно открывается дело о серийном убийстве в 1995 году. Детективы познакомились 17 лет назад, когда началось расследование, и с тех пор вместе охотились за киллером. Повествование будет вестись как в наше время, так и откатится назад, в середину девяностых.
Сэмпл , IMDB , КиноПоиск
Качество видео: WEB-DLRip
Контейнер: AVI
Видео кодек: XviD
Аудио кодек: AC3
Видео: Xvid 720x400 1499kbps 23.976fps
Аудио : Dolby AC3 48000Hz 6ch 448kbpsВнимание! Присутствует ненормативная лексика!Возрастное ограничение: 18+
01.Огромная яркая темнота (The Long Bright Dark)
02.Галлюцинации (Seeing Things)
03.Закрытая комната (The Locked Room)
04.Кто идёт (Who Goes There)
05.Тайный рок всей жизни (The Secret Fate of All Life )
06.Дома с привидениями (Haunted Houses)
07.После твоего ухода (After You've Gone)
08.Нечто и ничто (Form and Void)
Золотой глобус, 2015 год
Номинации (4):
Лучший актёр мини-сериала или фильма на ТВ (Мэттью МакКонахи)
Лучший актёр мини-сериала или фильма на ТВ (Вуди Харрельсон)
Лучшая актриса второго плана мини-сериала или фильма на ТВ (Мишель Монахэн)
Лучший мини-сериал или фильм на ТВ
Премия Гильдии актеров, 2015 год
Номинации (2):
Лучший актер драматического сериала (Вуди Харрельсон)
Лучший актер драматического сериала (Мэттью МакКонахи
Эмми, 2014 год
Номинации (3):
Лучший драматический сериал
Лучшая мужская роль в драматическом сериале (Мэттью МакКонахи)
Лучшая мужская роль в драматическом сериале (Вуди Харрельсон
Герои нашего времени
С первой серии понимаешь, что на экране далеко не штампованный сериальчик, а многосерийный арт-хаусный брат «большого» кино. Непрерывный поток философии поджидает зрителя не только на устах одного из главных героев, но и прячется в коротких репликах эпизодических, «мимо проходивших», персонажей.
Неторопливые, будто выцветшие сцены здорово умиротворяют и настраивают на вдумчивый философский лад. А вот заснуть помешают повороты сюжета, постоянные скачки во времени и вечные вопросы: «А кто же?.. Да неужели!».
Очень интересны главные герои. Они действительно герои, но не привычные нам лакированные супермены с чувством вины за промах прошлого, а люди, которых современное общество считает за негодяев. Наркоман, социопат, пьяница, гулящий муж, гневливый буян, неудачник с кризисом среднего возраста — вот неполный список отрицательных качеств, который детективы благополучно делят на двоих. Но он не мешает им быть отличными копами и настоящими героями.
Если хочется закрученной, небанальной детективной истории и маштабных рассуждений о Вселенной и нашем месте в ней — не проходите мимо, это то, что нужно. Определенно рекомендую для просмотра.
General
Полное имя : D:\Все мое\фильмы\True Detective (Serbin)[pirat.ca]\
Формат : AVI
Формат/Информация : Audio Video Interleave
Общий поток : 1 955 Kbps
Библиотека кодирования : VirtualDub build 35491/release
Video
Идентификатор : 0
Формат : MPEG-4 Visual
Профиль формата : Advanced Simple@L5
Параметр BVOP формата : 2
Параметр QPel формата : No
Параметр GMC формата : No warppoints
Параметр матрицы формата : Default (H.263)
Идентификатор кодека : XVID
Идентификатор кодека/Подсказка : XviD
Продолжительность : 57mn 27s
Битрейт : 1 499 Kbps
Ширина : 720 pixels
Высота : 400 pixels
Соотношение сторон : 16:9
Частота кадров : 23.976 fps
Цветовое пространство : YUV
Субдискретизация насыщенности : 4:2:0
Битовая глубина : 8 bits
Тип развёртки : Progressive
Метод сжатия : Lossy
Бит/(Пиксели*Кадры) : 0.217
Размер потока : 616 MiB (77%)
Библиотека кодирования : XviD 73
Audio
Идентификатор : 1
Формат : AC-3
Формат/Информация : Audio Coding 3
Расширение режима : CM (complete main)
Параметр Endianness формата : Big
Идентификатор кодека : 2000
Продолжительность : 57mn 27s
Вид битрейта : Constant
Битрейт : 448 Kbps
Каналы : 6 channels
Расположение каналов : Front: L C R, Side: L R, LFE
Частота : 48.0 KHz
Битовая глубина : 16 bits
Метод сжатия : Lossy
Размер потока : 184 MiB (23%)
Выравнивание : Aligned on interleaves
Продолжительность промежутка : 42 ms (1.00 video frame)
Время предзагрузки промежутка : 512 ms
Download / Скачать

Хотите скачать бесплатно? Зарегистрируйтесь на сайте (ссылка на регистрацию). Pirat.ca - самый быстрый торрент трекер в рунете!

Как скачивать  ·   Что такое торрент  ·   Рейтинг и ограничения

gross1978

7646

Пост 05-Фев-2015 22:39 (спустя 4 часа)

[Q] 

Voldun, Вынужден был заменить Ваш постер, реклама сторонних ресурсов ЗАПРЕЩЕНА!
Спасибо за релиз!!!

_________________
Употребляйте правильно слова, и вы избавите мир от половины недоразумений (Р.Декарт).
Если у Вас есть переводы в авторском, которых нет в моих раздачах и желание ими поделиться, пишите, добавим:)
[Профиль]  [ЛС] 

Пост 05-Фев-2015 23:30 (спустя 51 минута)

Топик был перенесен из форума Мультфильмы с Авторским переводом (рипы до 720р) в форум Сериалы с Авторским переводом (рипы до 720р)
gross1978
 

StyleXx

Штурман

Пост 19-Фев-2015 14:20 (спустя 13 дней)

[Q] 

спасибо, посмотрим в переводе Сербина
[Профиль]  [ЛС] 

Jankiss88

Морской Волк

Пост 20-Фев-2015 17:27 (спустя 1 день 3 часа)

[Q] 

Классный сериал, напряженный триллер в стиле Жана Гранже.
[Профиль]  [ЛС] 

adream

Лоцман

Пост 16-Мар-2015 22:21 (спустя 24 дня)

[Q] 

Спасибо! умру здесь наверное, пока скачивается... dk be пробовал смотреть в ином переводе - не получается.

_________________
בבקשה לתת לי מלפפון אחד יותר
[Профиль]  [ЛС] 

Drakongot

Юнга

Пост 13-Июн-2015 15:29 (спустя 2 месяца 27 дней)

[Q] 

Автору респект) Фильм отличный) стоит посмотреть)
[Профиль]  [ЛС] 

drtom

Морской Волк

36

Пост 30-Июн-2015 03:34 (спустя 16 дней)

[Q] 

Только у меня рассинхрон с тормозами?
[Профиль]  [ЛС] 

lightmaster

Гроза морей

Пост 06-Янв-2016 23:49 (спустя 6 месяцев 6 дней)

[Q] 

Держит в напряжении всего сериала Автору респект!!! и Лови бочку
[Профиль]  [ЛС] 
Показать сообщения:    
Ответить на тему

Текущее время: Сегодня 07:29

Часовой пояс: GMT + 4



Вы не можете начинать темы
Вы не можете отвечать на сообщения
Вы не можете редактировать свои сообщения
Вы не можете удалять свои сообщения
Вы не можете голосовать в опросах
Вы не можете прикреплять файлы к сообщениям
Вы не можете скачивать файлы

Майнать ▼