Система Спецназ: Техника нанесения ударов. Болевые точки [2007 г., DVDRip]

Ответить на тему
 
Автор
Сообщение

Пост 03-Ноя-2011 22:48

[Q] 

Виктор33

Штурман

Год выпуска: 2007
Вид спорта: рукопашный бой
Участники: В. Старов, В. Варламов, К. Чеканов.
Продолжительность: 01:22:43
Язык: Русский
Описание: Боевая система Спецназ: НКВД - КГБ. Фильм познакомит Вас с программой обучения, касаясь всех разделов - от специальной физподготовки и боевой акробатики до защиты от вооруженного соперника и использования резервных возможностей человеческого тела и психики, Этот фильм поможет Вам освоить в кратчайшие сроки уникальные приемы Самозащиты под руководством президента Центра Русский Стиль Вадима Старова и ведущих инструкторов по рукопашному бою; методы тренировки телохранителей и бойцов спецподразделений по захватам, огневой и тактической подготовке.
Видеофильм о том как спомощью простых ударов "в определённые места" можно обезоружить, обездвижить любого противника, не смотря на его физическое превосходство перед Вами.Этот фильм поможет Вам освоить в кратчайшие сроки уникальные приемы cамозащиты, методы тренировки телохранителей и бойцов cпецподразделений по захватам, огневой и тактической подготовке.
Качество: DVDRip
Формат: AVI
Видео кодек: MPEG-4 Visual (DivX 5)
Аудио кодек: MPEG Audio (MP3)
Видео: MPEG-4 Visual at 1664 Кбит/сек 720 x 576 (1.250) at 25.000 fps
Аудио: MPEG Audio at 160 Кбит/сек 2 канала, 44,1 КГц
Формат : AVI
Формат/Информация : Audio Video Interleave
Размер файла : 1,06 Гбайт
Продолжительность : 1 ч. 22 м.
Общий поток : 1829 Кбит/сек
Библиотека кодирования : MPlayer
Видео
Идентификатор : 0
Формат : MPEG-4 Visual
Профиль формата : Simple@L1
Параметр BVOP формата : Нет
Параметр QPel формата : Нет
Параметр GMC формата : Без точки перехода
Параметр матрицы формата : Default (H.263)
Идентификатор кодека : DX50
Идентификатор кодека/Подсказка : DivX 5
Продолжительность : 1 ч. 22 м.
Битрейт : 1664 Кбит/сек
Ширина : 720 пикселей
Высота : 576 пикселей
Соотношение сторон : 5:4
Частота кадров : 25,000 кадров/сек
Стандарт вещания : PAL
Цветовое пространство : YUV
Субдискретизация насыщенности : 4:2:0
Битовая глубина : 8 бит
Тип развёртки : Чересстрочная
Порядок развёртки : Верхнее поле первое
Метод сжатия : С потерями
Бит/(Пиксели*Кадры) : 0.160
Размер потока : 985 Мбайт (91%)
Библиотека кодирования : Lavc52.0.0
Аудио
Идентификатор : 1
Формат : MPEG Audio
Версия формата : Version 1
Профиль формата : Layer 3
Режим : Joint stereo
Расширение режима : MS Stereo
Идентификатор кодека : 55
Идентификатор кодека/Подсказка : MP3
Продолжительность : 1 ч. 22 м.
Вид битрейта : Постоянный
Битрейт : 160 Кбит/сек
Каналы : 2 канала
Частота : 44,1 КГц
Метод сжатия : С потерями
Размер потока : 94,7 Мбайт (9%)
Выравнивание : Разделение по промежуткам
Продолжительность промежутка : 500 мс. (12,50 видеокадров)
Время предзагрузки промежутка : 500 мс.




Download / Скачать

Хотите скачать бесплатно? Зарегистрируйтесь на сайте (ссылка на регистрацию). Pirat.ca - самый быстрый торрент трекер в рунете!

Как скачивать  ·   Что такое торрент  ·   Рейтинг и ограничения



Последний раз редактировалось: Виктор33 (2011-11-07 01:36), всего редактировалось 4 раз(а)

Пост 03-Ноя-2011 23:46 (спустя 57 минут)

Топик был перенесен из форума Обучающие видео в форум Рукопашный бой

CaptRom
 

ParMarVarKar

Шкипер

Пост 04-Ноя-2011 21:49 (спустя 23 часа)

[Q] 

Респект раздающему!
Респект Пиратке!
[Профиль]  [ЛС] 

Виктор33 ®

Штурман

615

Пост 07-Ноя-2011 01:40 (спустя 2 дня 3 часа)

[Q] 

Торрент файл был изменен в соответствии с рекомендациями:
Внимание! Просьба перезалить торрент файлы за последнюю неделю.
[Профиль]  [ЛС] 

U-858

Флибустьер

Пост 28-Янв-2012 23:40 (спустя 2 месяца 21 день)

[Q] 

СПАСИБО.
[Профиль]  [ЛС] 

UncleTim

Корсар

Пост 03-Фев-2012 15:27 (спустя 5 дней)

[Q] 

[Профиль]  [ЛС] 

FlameSerafim

Лоцман

Пост 04-Мар-2012 00:23 (спустя 1 месяц)

[Q] 

[Профиль]  [ЛС] 

Langaff

Морской Волк

1

Пост 30-Ноя-2013 15:18 (спустя 1 год 8 месяцев)

[Q] 

Спасибо!!! Лови бочку Спасибо )
[Профиль]  [ЛС] 

nickos1

Легенда

Пост 28-Мар-2014 18:35 (спустя 3 месяца 28 дней)

[Q] 

спасибо посмотрим
[Профиль]  [ЛС] 

vpadina

Легенда

91

Пост 06-Июл-2014 22:17 (спустя 3 месяца 9 дней)

[Q] 

Очень познавательно!!! СПАСИБО!
[Профиль]  [ЛС] 

vinibek2

Морской Волк

Пост 12-Июл-2014 10:44 (спустя 5 дней)

[Q] 

познавательно, спасибо Лови бочку Всем качать!!!
[Профиль]  [ЛС] 

rvaklin

Штурман

Пост 23-Июл-2014 23:23 (спустя 11 дней)

[Q] 

Супер! будем изучать
[Профиль]  [ЛС] 

Goodwin277

Корсар

Пост 21-Янв-2015 20:43 (спустя 5 месяцев 28 дней)

[Q] 

познавательно, спасибо Спасибо!!!
[Профиль]  [ЛС] 

Hypsea3

Морской Волк

Пост 13-Янв-2016 13:04 (спустя 11 месяцев 22 дня)

[Q] 

необходимо! Автору респект!
[Профиль]  [ЛС] 
Показать сообщения:    
Ответить на тему

Текущее время: Сегодня 12:15

Часовой пояс: GMT + 4



Вы не можете начинать темы
Вы не можете отвечать на сообщения
Вы не можете редактировать свои сообщения
Вы не можете удалять свои сообщения
Вы не можете голосовать в опросах
Вы не можете прикреплять файлы к сообщениям
Вы не можете скачивать файлы

Майнать ▼