(Drum & Bass, House, Progressive, Trance) Faithless - Faithless 2.0 - 2015 [Flac, image+.cue, Lossless]

Ответить на тему
 
Автор
Сообщение

Пост 11-Окт-2015 22:21

[Q] 

Ворон

-Faithless - Faithless 2.0--
Год издания: 2015
Лейбл: Sony Music
Жанр: Drum & Bass, House, Progressive, Trance
Продолжительность: 02:34:30
Формат: FLAC
Битрейт аудио: lossless
Тип рипа: image+.cue
Наличие сканов в содержимом раздачи: да-Трэклист:
CD1 Remixes
01. Insomnia 2.0 (Avicii Extended Remix) 6:13
02. We Come 1 2.0 (Armin Van Buuren Remix) 5:26
03. God Is a DJ 2.0 (Tiesto Remix) 4:27
04. Muhammad Ali 2.0 (High Contrast Remix) 4:43
05. Salva Mea 2.0 (Above & Beyond Remix) 7:02
06. Not Going Home 2.0 (Eric Prydz Remix) [Remastered] 8:56
07. Music Matters 2.0 (Axwell Remix) [Remastered] 8:23
08. I Was There 6:42
09. Miss U Less, See U More 2.0 (Purple Disco Machine Remix) 6:40
10. Tarantula 2.0 (Booka Shade Remix) 7:40
11. Bombs 2.0 (feat. Harry Collier) [Claptone Remix] 6:58
12. Drifting Away 2.0 (Autograf Remix) 5:50
13. Don't Leave 2.0 (Until the Ribbon Breaks Remix) 3:33
14. Insomnia 2.0 (Avicii Remix) [Radio Edit] 3:04
Код:
Exact Audio Copy V1.1 from 23. June 2015
EAC extraction logfile from 10. October 2015, 16:12
Faithless / 2.0 Remixes & Hits
Used drive  : hp      CDDVDW SH-216DB   Adapter: 1  ID: 0
Read mode               : Secure
Utilize accurate stream : Yes
Defeat audio cache      : Yes
Make use of C2 pointers : No
Read offset correction                      : 6
Overread into Lead-In and Lead-Out          : No
Fill up missing offset samples with silence : Yes
Delete leading and trailing silent blocks   : No
Null samples used in CRC calculations       : Yes
Used interface                              : Native Win32 interface for Win NT & 2000
Used output format : Internal WAV Routines
Sample format      : 44.100 Hz; 16 Bit; Stereo
TOC of the extracted CD
     Track |   Start  |  Length  | Start sector | End sector
    ---------------------------------------------------------
        1  |  0:00.00 |  6:17.10 |         0    |    28284
        2  |  6:17.10 |  4:40.13 |     28285    |    49297
        3  | 10:57.23 |  4:21.71 |     49298    |    68943
        4  | 15:19.19 |  4:33.06 |     68944    |    89424
        5  | 19:52.25 |  5:53.05 |     89425    |   115904
        6  | 25:45.30 |  8:00.00 |    115905    |   151904
        7  | 33:45.30 |  7:37.62 |    151905    |   186241
        8  | 41:23.17 |  5:34.49 |    186242    |   211340
        9  | 46:57.66 |  6:47.01 |    211341    |   241866
       10  | 53:44.67 |  6:04.13 |    241867    |   269179
       11  | 59:49.05 |  5:19.70 |    269180    |   293174
       12  | 65:09.00 |  5:31.27 |    293175    |   318026
       13  | 70:40.27 |  3:28.65 |    318027    |   333691
       14  | 74:09.17 |  3:05.00 |    333692    |   347566
Range status and errors
Selected range
     Filename E:\POST\Post Nieuw\Faithless 2.0 - Remixes & Hits (EAC)\CD1 (Remixes)\Faithless - 2.0 Remixes & Hits.wav
     Peak level 98.8 %
     Extraction speed 8.0 X
     Range quality 100.0 %
     Test CRC 5240B4B6
     Copy CRC 5240B4B6
     Copy OK
No errors occurred
AccurateRip summary
Track  1  not present in database
Track  2  not present in database
Track  3  not present in database
Track  4  not present in database
Track  5  not present in database
Track  6  not present in database
Track  7  not present in database
Track  8  not present in database
Track  9  not present in database
Track 10  not present in database
Track 11  not present in database
Track 12  not present in database
Track 13  not present in database
Track 14  not present in database
None of the tracks are present in the AccurateRip database
End of status report
Код:
REM GENRE Dance
REM DATE 2015
REM DISCID CE121A0E
REM COMMENT ExactAudioCopy v1.1
PERFORMER "Faithless"
TITLE "2.0 Remixes (CD1)"
FILE "Faithless - 2.0 Remixes & Hits.flac" WAVE
  TRACK 01 AUDIO
    TITLE "Insomnia 2.0 (Avicii Extended Remix)"
    INDEX 01 00:00:00
  TRACK 02 AUDIO
    TITLE "We Come 1 2.0 (Armin van Buuren Remix)"
    INDEX 01 06:17:10
  TRACK 03 AUDIO
    TITLE "God Is A DJ 2.0 (Tiesto & Faithless Remix)"
    INDEX 01 10:57:23
  TRACK 04 AUDIO
    TITLE "Muhammad Ali 2.0 (High Contrast Remix)"
    INDEX 01 15:19:19
  TRACK 05 AUDIO
    TITLE "Salva Mea 2.0 (Above & Beyond Remix)"
    INDEX 01 19:52:25
  TRACK 06 AUDIO
    TITLE "Not Going Home 2.0 (Eric Prydz Remix)"
    INDEX 01 25:45:30
  TRACK 07 AUDIO
    TITLE "Music Matters 2.0 (feat. Cass Fox) (Axwell Remix)"
    INDEX 01 33:45:30
  TRACK 08 AUDIO
    TITLE "I Was There"
    INDEX 01 41:23:17
  TRACK 09 AUDIO
    TITLE "Miss U Less, See U More 2.0 (Purple Disco Machine Remix)"
    INDEX 01 46:57:66
  TRACK 10 AUDIO
    TITLE "Tarantula 2.0 (Booka Shade Remix)"
    INDEX 01 53:44:67
  TRACK 11 AUDIO
    TITLE "Bombs 2.0 (feat. Harry Collier) (Claptone Remix)"
    INDEX 01 59:49:05
  TRACK 12 AUDIO
    TITLE "Drifting Away 2.0 (Autograf Remix)"
    INDEX 01 65:09:00
  TRACK 13 AUDIO
    TITLE "Don't Leave 2.0 (Until The Ribbon Breaks Remix)"
    INDEX 01 70:40:27
  TRACK 14 AUDIO
    TITLE "Insomnia 2.0 (Avicii Remix) (Radio Edit)"
    INDEX 01 74:09:17
CD2 Greatest Hits
01. Insomnia (Monster Mix) 8:38
02. Mass Destruction (Single Version) 3:31
03. God Is a DJ 7:55
04. Don't Leave 3:59
05. Muhammad Ali (Radio Edit) 3:29
06. We Come 1 (Radio Edit) 3:42
07. Reverence 7:37
08. Salva Mea 10:40
09. One Step Too Far (feat. Dido) [Radio Edit] 3:23
10. Bring My Family Back 6:15
11. Tarantula 6:38
12. Bombs 4:55
13. Feelin Good (feat. Dido) 3:13
14. Not Going Home (Radio Edit) 3:12
Код:
Exact Audio Copy V1.1 from 23. June 2015
EAC extraction logfile from 10. October 2015, 17:14
Faithless / 2.0 Remixes & Hits (CD2)
Used drive  : hp      CDDVDW SH-216DB   Adapter: 1  ID: 0
Read mode               : Secure
Utilize accurate stream : Yes
Defeat audio cache      : Yes
Make use of C2 pointers : No
Read offset correction                      : 6
Overread into Lead-In and Lead-Out          : No
Fill up missing offset samples with silence : Yes
Delete leading and trailing silent blocks   : No
Null samples used in CRC calculations       : Yes
Used interface                              : Native Win32 interface for Win NT & 2000
Used output format : Internal WAV Routines
Sample format      : 44.100 Hz; 16 Bit; Stereo
TOC of the extracted CD
     Track |   Start  |  Length  | Start sector | End sector
    ---------------------------------------------------------
        1  |  0:00.00 |  8:38.16 |         0    |    38865
        2  |  8:38.16 |  3:31.30 |     38866    |    54720
        3  | 12:09.46 |  7:55.59 |     54721    |    90404
        4  | 20:05.30 |  3:59.15 |     90405    |   108344
        5  | 24:04.45 |  3:29.54 |    108345    |   124073
        6  | 27:34.24 |  3:42.33 |    124074    |   140756
        7  | 31:16.57 |  7:37.34 |    140757    |   175065
        8  | 38:54.16 | 10:40.34 |    175066    |   223099
        9  | 49:34.50 |  3:23.52 |    223100    |   238376
       10  | 52:58.27 |  6:15.31 |    238377    |   266532
       11  | 59:13.58 |  6:38.11 |    266533    |   296393
       12  | 65:51.69 |  4:55.61 |    296394    |   318579
       13  | 70:47.55 |  3:14.00 |    318580    |   333129
       14  | 74:01.55 |  3:12.73 |    333130    |   347602
Range status and errors
Selected range
     Filename E:\POST\Post Nieuw\Faithless 2.0 - Remixes & Hits (EAC)\CD2 (Hits)\Faithless - 2.0 Remixes & Hits (CD2).wav
     Peak level 98.8 %
     Extraction speed 3.4 X
     Range quality 99.9 %
     Test CRC AB8EAA1F
     Copy CRC AB8EAA1F
     Copy OK
No errors occurred
AccurateRip summary
Track  1  not present in database
Track  2  not present in database
Track  3  not present in database
Track  4  not present in database
Track  5  not present in database
Track  6  not present in database
Track  7  not present in database
Track  8  not present in database
Track  9  not present in database
Track 10  not present in database
Track 11  not present in database
Track 12  not present in database
Track 13  not present in database
Track 14  not present in database
None of the tracks are present in the AccurateRip database
End of status report
Код:
REM GENRE Dance
REM DATE 2015
REM DISCID D1121A0E
REM COMMENT ExactAudioCopy v1.1
PERFORMER "Faithless"
TITLE "2.0 Hits (CD2)"
FILE "Faithless - 2.0 Remixes & Hits (CD2).flac" WAVE
  TRACK 01 AUDIO
    TITLE "Insomnia"
    INDEX 01 00:00:00
  TRACK 02 AUDIO
    TITLE "Mass Destruction"
    INDEX 01 08:38:16
  TRACK 03 AUDIO
    TITLE "God Is A DJ"
    INDEX 01 12:09:46
  TRACK 04 AUDIO
    TITLE "Don't Leave"
    INDEX 01 20:05:30
  TRACK 05 AUDIO
    TITLE "Muhammad Ali"
    INDEX 01 24:04:45
  TRACK 06 AUDIO
    TITLE "We Come 1"
    INDEX 01 27:34:24
  TRACK 07 AUDIO
    TITLE "Reverence"
    INDEX 01 31:16:57
  TRACK 08 AUDIO
    TITLE "Salva Mea"
    INDEX 01 38:54:16
  TRACK 09 AUDIO
    TITLE "One Step Too Far (feat. Dido)"
    INDEX 01 49:34:50
  TRACK 10 AUDIO
    TITLE "Bring My Family Back"
    INDEX 01 52:58:27
  TRACK 11 AUDIO
    TITLE "Tarantula"
    INDEX 01 59:13:58
  TRACK 12 AUDIO
    TITLE "Bombs (feat. Harry Collier)"
    INDEX 01 65:51:69
  TRACK 13 AUDIO
    TITLE "Feelin' Good (feat. Dido)"
    INDEX 01 70:47:55
  TRACK 14 AUDIO
    TITLE "Not Going Home"
    INDEX 01 74:01:55
-    
Download / Скачать

Хотите скачать бесплатно? Зарегистрируйтесь на сайте (ссылка на регистрацию). Pirat.ca - самый быстрый торрент трекер в рунете!

Как скачивать  ·   Что такое торрент  ·   Рейтинг и ограничения

truck

Морской Волк

Пост 23-Окт-2015 17:13 (спустя 11 дней)

[Q] 

!COOL! Спасибо!!!
[Профиль]  [ЛС] 

shayhi79

Морской Волк

Пост 10-Мар-2016 16:30 (спустя 4 месяца 17 дней)

[Q] 

Спасибо!!! Раздавать будем или как?
[Профиль]  [ЛС] 
Показать сообщения:    
Ответить на тему

Текущее время: Сегодня 13:39

Часовой пояс: GMT + 4



Вы не можете начинать темы
Вы не можете отвечать на сообщения
Вы не можете редактировать свои сообщения
Вы не можете удалять свои сообщения
Вы не можете голосовать в опросах
Вы не можете прикреплять файлы к сообщениям
Вы не можете скачивать файлы

Майнать ▼