Дикари (Виктор Шамиров) [2006 г., драма, мелодрама, комедия, DVDRip]

Ответить на тему
 
Автор
Сообщение

Пост 29-Апр-2013 23:40

[Q] 

ribi

-Дикари-- Производство: Россия
Год выпуска: 2006 г.
Жанр: драма, мелодрама, комедия
Продолжительность: 01:40
Перевод: Не требуется
Режиссер: Виктор Шамиров-В ролях: Гоша Куценко
Марат Башаров
Константин Юшкевич
Эвклид Кюрдзидис
Тихон Жизневский
Анна Небогатова
Владислав Галкин
Алексей Горбунов
Ирина Новак
Александр Гришаев-Описание: Море, август… Интересы людей просты: позагорать, поплавать, поиграть в волейбол, баскетбол, выпить, потанцевать вечером, найти партнера ночью… Многие вышли из студенческого возраста, могут позволить себе более комфортабельный отдых, но кончается июль, они кидают в багажник солидного автомобиля старую палатку и едут сюда.
Здесь не говорят о работе, здесь не важно, сколько у тебя денег… Множество человеческих историй, ценных, смешных и грустных. Внимание переходит от одного героя к другому, затем к третьему, возвращается к первому и цепляет на исходе эпизода четвертого, который был главный в предыдущем эпизоде. Рассказ строится скорее как музыка, чем как конструкция. И ритм, настроение повествования задает именно место действия.-
Качество видео: DVDRip
Контейнер: MPEG
Видео кодек: H.264
Аудио кодек: AAC
Видео: 480 x 256 (1.875) at 25.000 fps 569 Кбит/сек
Аудио: 2 канала, 48,0 КГц 128 Кбит/сек
Cубтитры: отсутствуют
Формат : MPEG-4
Профиль формата : Base Media
Идентификатор кодека : isom
Размер файла : 539 Мбайт
Продолжительность : 1 ч. 47 м.
Режим общего битрейта : Переменный
Общий поток : 700 Кбит/сек
Дата кодирования : UTC 2010-03-29 21:51:28
Дата пометки : UTC 2010-03-29 21:51:28
Видео
Идентификатор : 1
Формат : AVC
Формат/Информация : Advanced Video Codec
Профиль формата : Baseline@L3.0
Параметр CABAC формата : Нет
Параметр ReFrames формата : 6 кадров
Идентификатор кодека : avc1
Идентификатор кодека/Информация : Advanced Video Coding
Продолжительность : 1 ч. 47 м.
Битрейт : 569 Кбит/сек
Максимальный битрейт : 2583 Кбит/сек
Ширина : 480 пикселей
Высота : 256 пикселей
Соотношение сторон : 1,875
Режим частоты кадров : Постоянный
Частота кадров : 25,000 кадров/сек
Цветовое пространство : YUV
Субдискретизация насыщенности : 4:2:0
Битовая глубина : 8 бит
Тип развёртки : Прогрессивная
Бит/(Пиксели*Кадры) : 0.185
Размер потока : 439 Мбайт (81%)
Заголовок : Imported with GPAC 0.4.6-DEV (build 1)
Библиотека кодирования : x264 core 92 r1510 33d382a
Настройки программы : cabac=0 / ref=6 / deblock=1:0:0 / analyse=0x1:0x11 / me=umh / subme=7 / psy=1 / psy_rd=1.00:0.00 / mixed_ref=1 / me_range=16 / chroma_me=1 / trellis=0 / 8x8dct=0 / cqm=0 / deadzone=21,11 / fast_pskip=1 / chroma_qp_offset=-2 / threads=1 / sliced_threads=0 / nr=0 / decimate=1 / interlaced=0 / constrained_intra=0 / bframes=0 / wpredp=0 / keyint=250 / keyint_min=25 / scenecut=40 / intra_refresh=0 / rc_lookahead=60 / rc=crf / mbtree=1 / crf=21.0 / qcomp=0.60 / qpmin=10 / qpmax=51 / qpstep=4 / ip_ratio=1.40 / aq=1:1.00
Дата кодирования : UTC 2010-03-29 21:51:28
Дата пометки : UTC 2010-03-29 21:52:29
Аудио
Идентификатор : 2
Формат : AAC
Формат/Информация : Advanced Audio Codec
Профиль формата : LC
Идентификатор кодека : 40
Продолжительность : 1 ч. 47 м.
Вид битрейта : Переменный
Битрейт : 128 Кбит/сек
Максимальный битрейт : 167 Кбит/сек
Каналы : 2 канала
Расположение каналов : Front: L R
Частота : 48,0 КГц
Метод сжатия : С потерями
Размер потока : 98,7 Мбайт (18%)
Дата кодирования : UTC 2010-03-29 21:52:21
Дата пометки : UTC 2010-03-29 21:52:29
Download / Скачать

Хотите скачать бесплатно? Зарегистрируйтесь на сайте (ссылка на регистрацию). Pirat.ca - самый быстрый торрент трекер в рунете!

Как скачивать  ·   Что такое торрент  ·   Рейтинг и ограничения

litti

Флибустьер

Пост 11-Май-2013 22:40 (спустя 11 дней)

[Q] 

Фильм прикольный, только качество не оч

_________________
Маньяком быть ты не обязан,
но сексуальным должен быть...
[Профиль]  [ЛС] 

redgans5

Лоцман

Пост 29-Авг-2015 02:39 (спустя 2 года 3 месяца)

[Q] 

отдайте текст плз!!!!
[Профиль]  [ЛС] 

Hippopotam

Флибустьер

Пост 24-Май-2016 11:26 (спустя 8 месяцев 26 дней)

[Q] 

Не зацепила фильма совсем. Скукота Отказать
[Профиль]  [ЛС] 
Показать сообщения:    
Ответить на тему

Текущее время: Сегодня 21:41

Часовой пояс: GMT + 4



Вы не можете начинать темы
Вы не можете отвечать на сообщения
Вы не можете редактировать свои сообщения
Вы не можете удалять свои сообщения
Вы не можете голосовать в опросах
Вы не можете прикреплять файлы к сообщениям
Вы не можете скачивать файлы

Майнать ▼