(Jazz) Louis Armstrong - Greatest Hits (2CD), FLAC (tracks+cue) - 2008, lossless

Ответить на тему
 
Автор
Сообщение

Пост 06-Апр-2012 08:06

[Q] 

CHARLI2236

Louis Armstrong - Greatest Hits (2CD)
Год выпуска альбома: 2008
Страна: США
Жанр: Jazz
Лейбл издания: SONY-BMG
Продолжительность: 2:39:15
Формат: FLAC
Битрейт аудио: lossless
Тип рипа: tracks+.cue
Источник (релизер): диск CDDA
Наличие сканов в содержимом раздачи: да
Трэклист
01 - Louis Armstrong , What a Wonderful World. (2:21)
02 - Louis Armstrong , Go Down, Moses. (3:43)
03 - Louis Armstrong , Hello, Dolly!. (2:29)
04 - Louis Armstrong , Cabaret. (2:49)
05 - Louis Armstrong , Summertime. (4:59)
06 - Louis Armstrong , Mack the Knife. (3:27)
07 - Louis Armstrong , Georgia on My Mind. (3:28)
08 - Louis Armstrong , A Kiss to Build a Dream On. (3:06)
09 - Louis Armstrong , Dream a Little Dream of Me. (3:07)
10 - Louis Armstrong , C'Est Si Bon. (3:06)
11 - Louis Armstrong , Everybody Love My Baby. (3:42)
12 - Louis Armstrong , Some Of These Days. (3:07)
13 - Louis Armstrong , Nobody Knows the Trouble I've Seen. (4:56)
14 - Louis Armstrong , Ain't Misbehavin'. (4:03)
15 - Louis Armstrong , Under a Blanket of Blue. (4:19)
16 - Louis Armstrong , La Vie En Rose. (3:26)
17 - Louis Armstrong , Moon River. (3:00)
18 - Louis Armstrong , Makin' Whoopee. (4:01)
19 - Louis Armstrong , I Gotta Right to Sing the Blues. (4:02)
20 - Louis Armstrong , If I Could Be with You (One Hour Tonight). (3:22)
21 - Louis Armstrong , You Rascal You. (3:07)
22 - Louis Armstrong , Blueberry Hill. (2:56)
23 - Louis Armstrong , When the Saints Go Marching In. (2:40)
”Отчет ЕАС”
Отчёт EAC об извлечении, выполненном 2. апреля 2012, 22:46 для диска:
Louis Armstrong / Louis Armstrong - Greatest Hits CD1
Дисковод: TSSTcorpCDDVDW SH-222AB Adapter: 0 ID: 0
Режим чтения: Достоверный (C2: нет, Точный поток: да, Отключение кэша: да)
Коррекция смещения при чтении: 6
Способность читать области Lead-in и Lead-out : Нет
Выходной формат: C:\Program Files (x86)\FLAC\flac.exe (Пользовательский кодировщик)
128 kBit/s
Дополнительные параметры: -8 -V -T "ARTIST=%a" -T "TITLE=%t" -T "ALBUM=%g" -T "DATE=%y" -T "TRACKNUMBER=%n" -T "GENRE=%m" -T "COMMENT=EAC FLAC -8" %s
Другие параметры:
Заполнение пропущенных сэмплов тишиной : Да
Удаление блоков с тишиной в начале и конце : Нет
Встроенный Win32-интерфейс для Win NT/2000
Трек 1
Имя файла C:\Sergei\новая папка\01 - Louis Armstrong , What a Wonderful World.wav
Длина предзазора 0:00:02.00
Пиковый уровень 91.1 %
Качество трека 100.0 %
CRC теста 8D2440FA
CRC копии 8D2440FA
Копирование... OK
Трек 2
Имя файла C:\Sergei\новая папка\02 - Louis Armstrong , Go Down, Moses.wav
Пиковый уровень 100.0 %
Качество трека 100.0 %
CRC теста 8D646381
CRC копии 8D646381
Копирование... OK
Трек 3
Имя файла C:\Sergei\новая папка\03 - Louis Armstrong , Hello, Dolly!.wav
Пиковый уровень 100.0 %
Качество трека 99.9 %
CRC теста 8B1D9450
CRC копии 8B1D9450
Копирование... OK
Трек 4
Имя файла C:\Sergei\новая папка\04 - Louis Armstrong , Cabaret.wav
Пиковый уровень 100.0 %
Качество трека 99.9 %
CRC теста 812EC703
CRC копии 812EC703
Копирование... OK
Трек 5
Имя файла C:\Sergei\новая папка\05 - Louis Armstrong , Summertime.wav
Пиковый уровень 100.0 %
Качество трека 99.9 %
CRC теста 9B138D62
CRC копии 9B138D62
Копирование... OK
Трек 6
Имя файла C:\Sergei\новая папка\06 - Louis Armstrong , Mack the Knife.wav
Пиковый уровень 100.0 %
Качество трека 100.0 %
CRC теста CF2663AB
CRC копии CF2663AB
Копирование... OK
Трек 7
Имя файла C:\Sergei\новая папка\07 - Louis Armstrong , Georgia on My Mind.wav
Пиковый уровень 98.5 %
Качество трека 100.0 %
CRC теста 0F5A9313
CRC копии 0F5A9313
Копирование... OK
Трек 8
Имя файла C:\Sergei\новая папка\08 - Louis Armstrong , A Kiss to Build a Dream On.wav
Пиковый уровень 100.0 %
Качество трека 100.0 %
CRC теста A3911C5B
CRC копии A3911C5B
Копирование... OK
Трек 9
Имя файла C:\Sergei\новая папка\09 - Louis Armstrong , Dream a Little Dream of Me.wav
Пиковый уровень 100.0 %
Качество трека 100.0 %
CRC теста E6D19BB3
CRC копии E6D19BB3
Копирование... OK
Трек 10
Имя файла C:\Sergei\новая папка\10 - Louis Armstrong , C'Est Si Bon.wav
Пиковый уровень 100.0 %
Качество трека 99.9 %
CRC теста FC6BD622
CRC копии FC6BD622
Копирование... OK
Трек 11
Имя файла C:\Sergei\новая папка\11 - Louis Armstrong , Everybody Love My Baby.wav
Пиковый уровень 100.0 %
Качество трека 100.0 %
CRC теста 1CD1B381
CRC копии 1CD1B381
Копирование... OK
Трек 12
Имя файла C:\Sergei\новая папка\12 - Louis Armstrong , Some Of These Days.wav
Пиковый уровень 100.0 %
Качество трека 100.0 %
CRC теста 23EC1D16
CRC копии 23EC1D16
Копирование... OK
Трек 13
Имя файла C:\Sergei\новая папка\13 - Louis Armstrong , Nobody Knows the Trouble I've Seen.wav
Пиковый уровень 100.0 %
Качество трека 100.0 %
CRC теста F1BC3477
CRC копии F1BC3477
Копирование... OK
Трек 14
Имя файла C:\Sergei\новая папка\14 - Louis Armstrong , Ain't Misbehavin'.wav
Пиковый уровень 100.0 %
Качество трека 100.0 %
CRC теста 3CBCF419
CRC копии 3CBCF419
Копирование... OK
Трек 15
Имя файла C:\Sergei\новая папка\15 - Louis Armstrong , Under a Blanket of Blue.wav
Пиковый уровень 100.0 %
Качество трека 100.0 %
CRC теста C2B7A352
CRC копии C2B7A352
Копирование... OK
Трек 16
Имя файла C:\Sergei\новая папка\16 - Louis Armstrong , La Vie En Rose.wav
Пиковый уровень 100.0 %
Качество трека 100.0 %
CRC теста AD45544A
CRC копии AD45544A
Копирование... OK
Трек 17
Имя файла C:\Sergei\новая папка\17 - Louis Armstrong , Moon River.wav
Пиковый уровень 100.0 %
Качество трека 100.0 %
CRC теста 12DE1AAD
CRC копии 12DE1AAD
Копирование... OK
Трек 18
Имя файла C:\Sergei\новая папка\18 - Louis Armstrong , Makin' Whoopee.wav
Пиковый уровень 100.0 %
Качество трека 100.0 %
CRC теста 2CBEE737
CRC копии 2CBEE737
Копирование... OK
Трек 19
Имя файла C:\Sergei\новая папка\19 - Louis Armstrong , I Gotta Right to Sing the Blues.wav
Пиковый уровень 100.0 %
Качество трека 100.0 %
CRC теста E61B591B
CRC копии E61B591B
Копирование... OK
Трек 20
Имя файла C:\Sergei\новая папка\20 - Louis Armstrong , If I Could Be with You (One Hour Tonight).wav
Пиковый уровень 100.0 %
Качество трека 100.0 %
CRC теста E6A24101
CRC копии E6A24101
Копирование... OK
Трек 21
Имя файла C:\Sergei\новая папка\21 - Louis Armstrong , You Rascal You.wav
Пиковый уровень 100.0 %
Качество трека 100.0 %
CRC теста CC35A177
CRC копии CC35A177
Копирование... OK
Трек 22
Имя файла C:\Sergei\новая папка\22 - Louis Armstrong , Blueberry Hill.wav
Пиковый уровень 100.0 %
Качество трека 100.0 %
CRC теста 29A88819
CRC копии 29A88819
Копирование... OK
Трек 23
Имя файла C:\Sergei\новая папка\23 - Louis Armstrong , When the Saints Go Marching In.wav
Пиковый уровень 100.0 %
Качество трека 99.9 %
CRC теста EA95D562
CRC копии EA95D562
Копирование... OK
Ошибок не произошло
Конец отчёта
"Non-compilant CUE"
REM GENRE Jazz
REM DATE 2008
REM DISCID 59129D17
REM COMMENT "ExactAudioCopy v0.95b3"
PERFORMER "Louis Armstrong"
TITLE "Louis Armstrong - Greatest Hits CD1"
FILE "01 - Louis Armstrong , What a Wonderful World.wav" WAVE
TRACK 01 AUDIO
TITLE "Louis Armstrong / What a Wonderful World"
PERFORMER "Louis Armstrong"
INDEX 01 00:00:00
FILE "02 - Louis Armstrong , Go Down, Moses.wav" WAVE
TRACK 02 AUDIO
TITLE "Louis Armstrong / Go Down, Moses"
PERFORMER "Louis Armstrong"
INDEX 01 00:00:00
FILE "03 - Louis Armstrong , Hello, Dolly!.wav" WAVE
TRACK 03 AUDIO
TITLE "Louis Armstrong / Hello, Dolly!"
PERFORMER "Louis Armstrong"
INDEX 01 00:00:00
FILE "04 - Louis Armstrong , Cabaret.wav" WAVE
TRACK 04 AUDIO
TITLE "Louis Armstrong / Cabaret"
PERFORMER "Louis Armstrong"
INDEX 01 00:00:00
FILE "05 - Louis Armstrong , Summertime.wav" WAVE
TRACK 05 AUDIO
TITLE "Louis Armstrong / Summertime"
PERFORMER "Louis Armstrong"
INDEX 01 00:00:00
FILE "06 - Louis Armstrong , Mack the Knife.wav" WAVE
TRACK 06 AUDIO
TITLE "Louis Armstrong / Mack the Knife"
PERFORMER "Louis Armstrong"
INDEX 01 00:00:00
FILE "07 - Louis Armstrong , Georgia on My Mind.wav" WAVE
TRACK 07 AUDIO
TITLE "Louis Armstrong / Georgia on My Mind"
PERFORMER "Louis Armstrong"
INDEX 01 00:00:00
FILE "08 - Louis Armstrong , A Kiss to Build a Dream On.wav" WAVE
TRACK 08 AUDIO
TITLE "Louis Armstrong / A Kiss to Build a Dream On"
PERFORMER "Louis Armstrong"
INDEX 01 00:00:00
FILE "09 - Louis Armstrong , Dream a Little Dream of Me.wav" WAVE
TRACK 09 AUDIO
TITLE "Louis Armstrong / Dream a Little Dream of Me"
PERFORMER "Louis Armstrong"
INDEX 01 00:00:00
FILE "10 - Louis Armstrong , C'Est Si Bon.wav" WAVE
TRACK 10 AUDIO
TITLE "Louis Armstrong / C'Est Si Bon"
PERFORMER "Louis Armstrong"
INDEX 01 00:00:00
FILE "11 - Louis Armstrong , Everybody Love My Baby.wav" WAVE
TRACK 11 AUDIO
TITLE "Louis Armstrong / Everybody Love My Baby"
PERFORMER "Louis Armstrong"
INDEX 01 00:00:00
FILE "12 - Louis Armstrong , Some Of These Days.wav" WAVE
TRACK 12 AUDIO
TITLE "Louis Armstrong / Some Of These Days"
PERFORMER "Louis Armstrong"
INDEX 01 00:00:00
FILE "13 - Louis Armstrong , Nobody Knows the Trouble I've Seen.wav" WAVE
TRACK 13 AUDIO
TITLE "Louis Armstrong / Nobody Knows the Trouble I've Seen"
PERFORMER "Louis Armstrong"
INDEX 01 00:00:00
FILE "14 - Louis Armstrong , Ain't Misbehavin'.wav" WAVE
TRACK 14 AUDIO
TITLE "Louis Armstrong / Ain't Misbehavin'"
PERFORMER "Louis Armstrong"
INDEX 01 00:00:00
FILE "15 - Louis Armstrong , Under a Blanket of Blue.wav" WAVE
TRACK 15 AUDIO
TITLE "Louis Armstrong / Under a Blanket of Blue"
PERFORMER "Louis Armstrong"
INDEX 01 00:00:00
FILE "16 - Louis Armstrong , La Vie En Rose.wav" WAVE
TRACK 16 AUDIO
TITLE "Louis Armstrong / La Vie En Rose"
PERFORMER "Louis Armstrong"
INDEX 01 00:00:00
FILE "17 - Louis Armstrong , Moon River.wav" WAVE
TRACK 17 AUDIO
TITLE "Louis Armstrong / Moon River"
PERFORMER "Louis Armstrong"
INDEX 01 00:00:00
FILE "18 - Louis Armstrong , Makin' Whoopee.wav" WAVE
TRACK 18 AUDIO
TITLE "Louis Armstrong / Makin' Whoopee"
PERFORMER "Louis Armstrong"
INDEX 01 00:00:00
FILE "19 - Louis Armstrong , I Gotta Right to Sing the Blues.wav" WAVE
TRACK 19 AUDIO
TITLE "Louis Armstrong / I Gotta Right to Sing the Blues"
PERFORMER "Louis Armstrong"
INDEX 01 00:00:00
FILE "20 - Louis Armstrong , If I Could Be with You (One Hour Tonight).wav" WAVE
TRACK 20 AUDIO
TITLE "Louis Armstrong / If I Could Be with You (One Hour Tonight)"
PERFORMER "Louis Armstrong"
INDEX 01 00:00:00
FILE "21 - Louis Armstrong , You Rascal You.wav" WAVE
TRACK 21 AUDIO
TITLE "Louis Armstrong / You Rascal You"
PERFORMER "Louis Armstrong"
INDEX 01 00:00:00
FILE "22 - Louis Armstrong , Blueberry Hill.wav" WAVE
TRACK 22 AUDIO
TITLE "Louis Armstrong / Blueberry Hill"
PERFORMER "Louis Armstrong"
INDEX 01 00:00:00
FILE "23 - Louis Armstrong , When the Saints Go Marching In.wav" WAVE
TRACK 23 AUDIO
TITLE "Louis Armstrong / When the Saints Go Marching In"
PERFORMER "Louis Armstrong"
INDEX 01 00:00:00
"Лог Audiochecker"
AUDIOCHECKER v2.0 beta (build 457) - by Dester - [email protected]
~~~~~~~~~~~~~~~~~~~~~~~~~~~~~~~~~~
-=== НЕ РЕДАКТИРУЙТЕ ЭТОТ ФАЙЛ! ===-
Путь: ...\Disk One
01 -=- 01 - Louis Armstrong , What a Wonderful World.flac -=- CDDA (100%)
02 -=- 02 - Louis Armstrong , Go Down, Moses.flac -=- CDDA (99%)
03 -=- 03 - Louis Armstrong , Hello, Dolly!.flac -=- CDDA (100%)
04 -=- 04 - Louis Armstrong , Cabaret.flac -=- CDDA (100%)
05 -=- 05 - Louis Armstrong , Summertime.flac -=- CDDA (100%)
06 -=- 06 - Louis Armstrong , Mack the Knife.flac -=- CDDA (99%)
07 -=- 07 - Louis Armstrong , Georgia on My Mind.flac -=- CDDA (100%)
08 -=- 08 - Louis Armstrong , A Kiss to Build a Dream On.flac -=- CDDA (100%)
09 -=- 09 - Louis Armstrong , Dream a Little Dream of Me.flac -=- CDDA (100%)
10 -=- 10 - Louis Armstrong , C'Est Si Bon.flac -=- CDDA (100%)
11 -=- 11 - Louis Armstrong , Everybody Love My Baby.flac -=- CDDA (100%)
12 -=- 12 - Louis Armstrong , Some Of These Days.flac -=- CDDA (100%)
13 -=- 13 - Louis Armstrong , Nobody Knows the Trouble I've Seen.flac -=- CDDA (100%)
14 -=- 14 - Louis Armstrong , Ain't Misbehavin'.flac -=- CDDA (100%)
15 -=- 15 - Louis Armstrong , Under a Blanket of Blue.flac -=- CDDA (100%)
16 -=- 16 - Louis Armstrong , La Vie En Rose.flac -=- CDDA (100%)
17 -=- 17 - Louis Armstrong , Moon River.flac -=- CDDA (100%)
18 -=- 18 - Louis Armstrong , Makin' Whoopee.flac -=- CDDA (100%)
19 -=- 19 - Louis Armstrong , I Gotta Right to Sing the Blues.flac -=- CDDA (100%)
20 -=- 20 - Louis Armstrong , If I Could Be with You (One Hour Tonight).flac -=- CDDA (100%)
21 -=- 21 - Louis Armstrong , You Rascal You.flac -=- CDDA (100%)
22 -=- 22 - Louis Armstrong , Blueberry Hill.flac -=- CDDA (100%)
23 -=- 23 - Louis Armstrong , When the Saints Go Marching In.flac -=- CDDA (100%)
Сводка 99,91% CDDA
248954916
Трэклист
01 - Louis Armstrong , When It's Sleepy Time Down South. (3:26)
02 - Louis Armstrong , On The Sunny Side Of The Street. (5:50)
03 - Louis Armstrong , When You're Smiling. (4:02)
04 - Louis Armstrong , Down By the Riverside. (3:10)
05 - Louis Armstrong , On My Way. (3:05)
06 - Louis Armstrong , Stormy Weather. (4:17)
07 - Louis Armstrong , Shadrack. (2:46)
08 - Louis Armstrong , (What Did I Do to Be So) Black and Blue. (4:39)
09 - Louis Armstrong , I Can't Give You Anything But Love new. (4:21)
10 - Louis Armstrong , Summer Song. (3:16)
11 - Louis Armstrong , Ezekiel Saw De Wheel. (2:33)
12 - Louis Armstrong , Hellza Poppin. (2:34)
13 - Louis Armstrong , Jeepers Creepers. (4:41)
14 - Louis Armstrong , This Train. (2:31)
15 - Louis Armstrong , Your Cheatin' Heart. (2:45)
16 - Louis Armstrong , I Wonder. (2:59)
17 - Louis Armstrong , The Gypsy. (3:18)
18 - Louis Armstrong , There Must Be A Way. (3:04)
19 - Louis Armstrong , Basin Street Blues. (3:51)
20 - Louis Armstrong , Do You Know What It Means to Miss New Orleans. (3:01)
21 - Louis Armstrong , I've Got the World on a String. (3:17)
22 - Louis Armstrong , Someday You'll Be Sorry. (3:13)
23 - Louis Armstrong , Lazy River. (3:03)
”Отчет ЕАС”
Отчёт EAC об извлечении, выполненном 3. апреля 2012, 7:07 для диска:
Louis Armstrong / Louis Armstrong - Greatest Hits CD2
Дисковод: TSSTcorpCDDVDW SH-222AB Adapter: 0 ID: 0
Режим чтения: Достоверный (C2: нет, Точный поток: да, Отключение кэша: да)
Коррекция смещения при чтении: 6
Способность читать области Lead-in и Lead-out : Нет
Выходной формат: C:\Program Files (x86)\FLAC\flac.exe (Пользовательский кодировщик)
128 kBit/s
Дополнительные параметры: -8 -V -T "ARTIST=%a" -T "TITLE=%t" -T "ALBUM=%g" -T "DATE=%y" -T "TRACKNUMBER=%n" -T "GENRE=%m" -T "COMMENT=EAC FLAC -8" %s
Другие параметры:
Заполнение пропущенных сэмплов тишиной : Да
Удаление блоков с тишиной в начале и конце : Нет
Встроенный Win32-интерфейс для Win NT/2000
Трек 1
Имя файла C:\Sergei\новая папка\01 - Louis Armstrong , When It's Sleepy Time Down South.wav
Длина предзазора 0:00:02.00
Пиковый уровень 100.0 %
Качество трека 100.0 %
CRC теста 2EBBDC58
CRC копии 2EBBDC58
Копирование... OK
Трек 2
Имя файла C:\Sergei\новая папка\02 - Louis Armstrong , On The Sunny Side Of The Street.wav
Пиковый уровень 100.0 %
Качество трека 99.9 %
CRC теста 1D94F0CD
CRC копии 1D94F0CD
Копирование... OK
Трек 3
Имя файла C:\Sergei\новая папка\03 - Louis Armstrong , When You're Smiling.wav
Пиковый уровень 100.0 %
Качество трека 100.0 %
CRC теста D6301BAB
CRC копии D6301BAB
Копирование... OK
Трек 4
Имя файла C:\Sergei\новая папка\04 - Louis Armstrong , Down By the Riverside.wav
Пиковый уровень 100.0 %
Качество трека 100.0 %
CRC теста DFB77BC1
CRC копии DFB77BC1
Копирование... OK
Трек 5
Имя файла C:\Sergei\новая папка\05 - Louis Armstrong , On My Way.wav
Пиковый уровень 100.0 %
Качество трека 99.9 %
CRC теста A006B011
CRC копии A006B011
Копирование... OK
Трек 6
Имя файла C:\Sergei\новая папка\06 - Louis Armstrong , Stormy Weather.wav
Пиковый уровень 100.0 %
Качество трека 100.0 %
CRC теста E23F60C9
CRC копии E23F60C9
Копирование... OK
Трек 7
Имя файла C:\Sergei\новая папка\07 - Louis Armstrong , Shadrack.wav
Пиковый уровень 100.0 %
Качество трека 99.9 %
CRC теста AC979164
CRC копии AC979164
Копирование... OK
Трек 8
Имя файла C:\Sergei\новая папка\08 - Louis Armstrong , (What Did I Do to Be So) Black and Blue.wav
Пиковый уровень 100.0 %
Качество трека 100.0 %
CRC теста 92552B1E
CRC копии 92552B1E
Копирование... OK
Трек 9
Имя файла C:\Sergei\новая папка\09 - Louis Armstrong , I Can't Give You Anything But Love new.wav
Пиковый уровень 100.0 %
Качество трека 100.0 %
CRC теста 85C9E6BD
CRC копии 85C9E6BD
Копирование... OK
Трек 10
Имя файла C:\Sergei\новая папка\10 - Louis Armstrong , Summer Song.wav
Пиковый уровень 100.0 %
Качество трека 100.0 %
CRC теста 792CE71A
CRC копии 792CE71A
Копирование... OK
Трек 11
Имя файла C:\Sergei\новая папка\11 - Louis Armstrong , Ezekiel Saw De Wheel.wav
Пиковый уровень 100.0 %
Качество трека 100.0 %
CRC теста BD8C09CD
CRC копии BD8C09CD
Копирование... OK
Трек 12
Имя файла C:\Sergei\новая папка\12 - Louis Armstrong , Hellza Poppin.wav
Пиковый уровень 100.0 %
Качество трека 100.0 %
CRC теста B1203565
CRC копии B1203565
Копирование... OK
Трек 13
Имя файла C:\Sergei\новая папка\13 - Louis Armstrong , Jeepers Creepers.wav
Пиковый уровень 100.0 %
Качество трека 99.9 %
CRC теста 8D7B74EB
CRC копии 8D7B74EB
Копирование... OK
Трек 14
Имя файла C:\Sergei\новая папка\14 - Louis Armstrong , This Train.wav
Пиковый уровень 100.0 %
Качество трека 100.0 %
CRC теста F0216A52
CRC копии F0216A52
Копирование... OK
Трек 15
Имя файла C:\Sergei\новая папка\15 - Louis Armstrong , Your Cheatin' Heart.wav
Пиковый уровень 100.0 %
Качество трека 100.0 %
CRC теста F5878B6A
CRC копии F5878B6A
Копирование... OK
Трек 16
Имя файла C:\Sergei\новая папка\16 - Louis Armstrong , I Wonder.wav
Пиковый уровень 100.0 %
Качество трека 100.0 %
CRC теста B25C5B62
CRC копии B25C5B62
Копирование... OK
Трек 17
Имя файла C:\Sergei\новая папка\17 - Louis Armstrong , The Gypsy.wav
Пиковый уровень 100.0 %
Качество трека 100.0 %
CRC теста 85AA12E5
CRC копии 85AA12E5
Копирование... OK
Трек 18
Имя файла C:\Sergei\новая папка\18 - Louis Armstrong , There Must Be A Way.wav
Пиковый уровень 100.0 %
Качество трека 100.0 %
CRC теста E1E3A31B
CRC копии E1E3A31B
Копирование... OK
Трек 19
Имя файла C:\Sergei\новая папка\19 - Louis Armstrong , Basin Street Blues.wav
Пиковый уровень 100.0 %
Качество трека 100.0 %
CRC теста C99273F8
CRC копии C99273F8
Копирование... OK
Трек 20
Имя файла C:\Sergei\новая папка\20 - Louis Armstrong , Do You Know What It Means to Miss New Orleans.wav
Пиковый уровень 100.0 %
Качество трека 100.0 %
CRC теста D1DB2578
CRC копии D1DB2578
Копирование... OK
Трек 21
Имя файла C:\Sergei\новая папка\21 - Louis Armstrong , I've Got the World on a String.wav
Пиковый уровень 100.0 %
Качество трека 100.0 %
CRC теста B976C021
CRC копии B976C021
Копирование... OK
Трек 22
Имя файла C:\Sergei\новая папка\22 - Louis Armstrong , Someday You'll Be Sorry.wav
Подозрительная позиция 0:03:07
Подозрительная позиция 0:03:12
Пиковый уровень 100.0 %
Качество трека 97.9 %
CRC теста 1289F227
CRC копии 6FB33F22
Копирование завершено
Трек 23
Имя файла C:\Sergei\новая папка\23 - Louis Armstrong , Lazy River.wav
Подозрительная позиция 0:00:00
Подозрительная позиция 0:00:05 - 0:00:06
Подозрительная позиция 0:00:08
Подозрительная позиция 0:00:10 - 0:00:17
Подозрительная позиция 0:00:26
Подозрительная позиция 0:00:30
Подозрительная позиция 0:00:33
Подозрительная позиция 0:00:36 - 0:00:38
Подозрительная позиция 0:00:41
Подозрительная позиция 0:00:48
Подозрительная позиция 0:00:51
Подозрительная позиция 0:00:53
Подозрительная позиция 0:00:57
Подозрительная позиция 0:00:59 - 0:01:01
Подозрительная позиция 0:01:04
Подозрительная позиция 0:01:06
Подозрительная позиция 0:01:09
Подозрительная позиция 0:01:12 - 0:01:14
Подозрительная позиция 0:01:16
Подозрительная позиция 0:01:18
Подозрительная позиция 0:01:22 - 0:01:26
Подозрительная позиция 0:01:29 - 0:01:32
Подозрительная позиция 0:01:35
Подозрительная позиция 0:01:37 - 0:01:38
Подозрительная позиция 0:01:40
Подозрительная позиция 0:01:42 - 0:01:43
Подозрительная позиция 0:01:45
Подозрительная позиция 0:02:05
Подозрительная позиция 0:02:14 - 0:02:15
Подозрительная позиция 0:02:18
Подозрительная позиция 0:02:20 - 0:02:21
Подозрительная позиция 0:02:23 - 0:02:24
Подозрительная позиция 0:02:30 - 0:02:31
Пиковый уровень 100.0 %
Качество трека 96.0 %
CRC теста D8DBA0ED
CRC копии 438AE7DF
Копирование завершено
Были ошибки
Конец отчёта
"Non-compilant CUE"
REM GENRE Jazz
REM DATE 2008
REM DISCID 3F12B617
REM COMMENT "ExactAudioCopy v0.95b3"
PERFORMER "Louis Armstrong"
TITLE "Louis Armstrong - Greatest Hits CD2"
FILE "01 - Louis Armstrong , When It's Sleepy Time Down South.wav" WAVE
TRACK 01 AUDIO
TITLE "Louis Armstrong / When It's Sleepy Time Down South"
PERFORMER "Louis Armstrong"
FLAGS DCP
INDEX 01 00:00:00
FILE "02 - Louis Armstrong , On The Sunny Side Of The Street.wav" WAVE
TRACK 02 AUDIO
TITLE "Louis Armstrong / On The Sunny Side Of The Street"
PERFORMER "Louis Armstrong"
FLAGS DCP
INDEX 01 00:00:00
FILE "03 - Louis Armstrong , When You're Smiling.wav" WAVE
TRACK 03 AUDIO
TITLE "Louis Armstrong / When You're Smiling"
PERFORMER "Louis Armstrong"
FLAGS DCP
INDEX 01 00:00:00
FILE "04 - Louis Armstrong , Down By the Riverside.wav" WAVE
TRACK 04 AUDIO
TITLE "Louis Armstrong / Down By the Riverside"
PERFORMER "Louis Armstrong"
FLAGS DCP
INDEX 01 00:00:00
FILE "05 - Louis Armstrong , On My Way.wav" WAVE
TRACK 05 AUDIO
TITLE "Louis Armstrong / On My Way"
PERFORMER "Louis Armstrong"
FLAGS DCP
INDEX 01 00:00:00
FILE "06 - Louis Armstrong , Stormy Weather.wav" WAVE
TRACK 06 AUDIO
TITLE "Louis Armstrong / Stormy Weather"
PERFORMER "Louis Armstrong"
FLAGS DCP
INDEX 01 00:00:00
FILE "07 - Louis Armstrong , Shadrack.wav" WAVE
TRACK 07 AUDIO
TITLE "Louis Armstrong / Shadrack"
PERFORMER "Louis Armstrong"
FLAGS DCP
INDEX 01 00:00:00
FILE "08 - Louis Armstrong , (What Did I Do to Be So) Black and Blue.wav" WAVE
TRACK 08 AUDIO
TITLE "Louis Armstrong / (What Did I Do to Be So) Black and Blue"
PERFORMER "Louis Armstrong"
FLAGS DCP
INDEX 01 00:00:00
FILE "09 - Louis Armstrong , I Can't Give You Anything But Love new.wav" WAVE
TRACK 09 AUDIO
TITLE "Louis Armstrong / I Can't Give You Anything But Love new"
PERFORMER "Louis Armstrong"
FLAGS DCP
INDEX 01 00:00:00
FILE "10 - Louis Armstrong , Summer Song.wav" WAVE
TRACK 10 AUDIO
TITLE "Louis Armstrong / Summer Song"
PERFORMER "Louis Armstrong"
FLAGS DCP
INDEX 01 00:00:00
FILE "11 - Louis Armstrong , Ezekiel Saw De Wheel.wav" WAVE
TRACK 11 AUDIO
TITLE "Louis Armstrong / Ezekiel Saw De Wheel"
PERFORMER "Louis Armstrong"
FLAGS DCP
INDEX 01 00:00:00
FILE "12 - Louis Armstrong , Hellza Poppin.wav" WAVE
TRACK 12 AUDIO
TITLE "Louis Armstrong / Hellza Poppin"
PERFORMER "Louis Armstrong"
FLAGS DCP
INDEX 01 00:00:00
FILE "13 - Louis Armstrong , Jeepers Creepers.wav" WAVE
TRACK 13 AUDIO
TITLE "Louis Armstrong / Jeepers Creepers"
PERFORMER "Louis Armstrong"
FLAGS DCP
INDEX 01 00:00:00
FILE "14 - Louis Armstrong , This Train.wav" WAVE
TRACK 14 AUDIO
TITLE "Louis Armstrong / This Train"
PERFORMER "Louis Armstrong"
FLAGS DCP
INDEX 01 00:00:00
FILE "15 - Louis Armstrong , Your Cheatin' Heart.wav" WAVE
TRACK 15 AUDIO
TITLE "Louis Armstrong / Your Cheatin' Heart"
PERFORMER "Louis Armstrong"
FLAGS DCP
INDEX 01 00:00:00
FILE "16 - Louis Armstrong , I Wonder.wav" WAVE
TRACK 16 AUDIO
TITLE "Louis Armstrong / I Wonder"
PERFORMER "Louis Armstrong"
FLAGS DCP
INDEX 01 00:00:00
FILE "17 - Louis Armstrong , The Gypsy.wav" WAVE
TRACK 17 AUDIO
TITLE "Louis Armstrong / The Gypsy"
PERFORMER "Louis Armstrong"
FLAGS DCP
INDEX 01 00:00:00
FILE "18 - Louis Armstrong , There Must Be A Way.wav" WAVE
TRACK 18 AUDIO
TITLE "Louis Armstrong / There Must Be A Way"
PERFORMER "Louis Armstrong"
FLAGS DCP
INDEX 01 00:00:00
FILE "19 - Louis Armstrong , Basin Street Blues.wav" WAVE
TRACK 19 AUDIO
TITLE "Louis Armstrong / Basin Street Blues"
PERFORMER "Louis Armstrong"
FLAGS DCP
INDEX 01 00:00:00
FILE "20 - Louis Armstrong , Do You Know What It Means to Miss New Orleans.wav" WAVE
TRACK 20 AUDIO
TITLE "Louis Armstrong / Do You Know What It Means to Miss New Orleans"
PERFORMER "Louis Armstrong"
FLAGS DCP
INDEX 01 00:00:00
FILE "21 - Louis Armstrong , I've Got the World on a String.wav" WAVE
TRACK 21 AUDIO
TITLE "Louis Armstrong / I've Got the World on a String"
PERFORMER "Louis Armstrong"
FLAGS DCP
INDEX 01 00:00:00
FILE "22 - Louis Armstrong , Someday You'll Be Sorry.wav" WAVE
TRACK 22 AUDIO
TITLE "Louis Armstrong / Someday You'll Be Sorry"
PERFORMER "Louis Armstrong"
FLAGS DCP
INDEX 01 00:00:00
FILE "23 - Louis Armstrong , Lazy River.wav" WAVE
TRACK 23 AUDIO
TITLE "Louis Armstrong / Lazy River"
PERFORMER "Louis Armstrong"
FLAGS DCP
INDEX 01 00:00:00
"Лог Audiochecker"
AUDIOCHECKER v2.0 beta (build 457) - by Dester - [email protected]
~~~~~~~~~~~~~~~~~~~~~~~~~~~~~~~~~~
-=== НЕ РЕДАКТИРУЙТЕ ЭТОТ ФАЙЛ! ===-
Путь: ...\Disk Two
01 -=- 01 - Louis Armstrong , When It's Sleepy Time Down South.flac -=- CDDA (100%)
02 -=- 02 - Louis Armstrong , On The Sunny Side Of The Street.flac -=- CDDA (100%)
03 -=- 03 - Louis Armstrong , When You're Smiling.flac -=- CDDA (100%)
04 -=- 04 - Louis Armstrong , Down By the Riverside.flac -=- CDDA (100%)
05 -=- 05 - Louis Armstrong , On My Way.flac -=- CDDA (100%)
06 -=- 06 - Louis Armstrong , Stormy Weather.flac -=- CDDA (100%)
07 -=- 07 - Louis Armstrong , Shadrack.flac -=- CDDA (99%)
08 -=- 08 - Louis Armstrong , (What Did I Do to Be So) Black and Blue.flac -=- CDDA (100%)
09 -=- 09 - Louis Armstrong , I Can't Give You Anything But Love new.flac -=- CDDA (100%)
10 -=- 10 - Louis Armstrong , Summer Song.flac -=- CDDA (100%)
11 -=- 11 - Louis Armstrong , Ezekiel Saw De Wheel.flac -=- CDDA (99%)
12 -=- 12 - Louis Armstrong , Hellza Poppin.flac -=- CDDA (100%)
13 -=- 13 - Louis Armstrong , Jeepers Creepers.flac -=- CDDA (100%)
14 -=- 14 - Louis Armstrong , This Train.flac -=- CDDA (100%)
15 -=- 15 - Louis Armstrong , Your Cheatin' Heart.flac -=- CDDA (100%)
16 -=- 16 - Louis Armstrong , I Wonder.flac -=- CDDA (100%)
17 -=- 17 - Louis Armstrong , The Gypsy.flac -=- CDDA (99%)
18 -=- 18 - Louis Armstrong , There Must Be A Way.flac -=- CDDA (100%)
19 -=- 19 - Louis Armstrong , Basin Street Blues.flac -=- CDDA (100%)
20 -=- 20 - Louis Armstrong , Do You Know What It Means to Miss New Orleans.flac -=- CDDA (94%)
21 -=- 21 - Louis Armstrong , I've Got the World on a String.flac -=- CDDA (100%)
22 -=- 22 - Louis Armstrong , Someday You'll Be Sorry.flac -=- CDDA (92%)
23 -=- 23 - Louis Armstrong , Lazy River.flac -=- CDDA (100%)
Сводка 99,26% CDDA
228899588
Мы помогаем людям, чтобы они, в свою очередь, помогли нам; таким образом, наши услуги сводятся просто к благодеяниям, которые мы загодя оказываем самим себе. (Франсуа де Ларошфуко)
Download / Скачать

Хотите скачать бесплатно? Зарегистрируйтесь на сайте (ссылка на регистрацию). Pirat.ca - самый быстрый торрент трекер в рунете!

Как скачивать  ·   Что такое торрент  ·   Рейтинг и ограничения



Последний раз редактировалось: CHARLI2236 (2012-06-30 20:28), всего редактировалось 2 раз(а)

PashaBlink

Штурман

Пост 17-Апр-2012 13:05 (спустя 11 дней)

[Q] 

[Профиль]  [ЛС] 

UncleTim

Корсар

Пост 18-Апр-2012 11:38 (спустя 22 часа)

[Q] 

[Профиль]  [ЛС] 

Madarashi

Корсар

Пост 14-Ноя-2012 18:52 (спустя 6 месяцев 26 дней)

[Q] 

[Профиль]  [ЛС] 

dronofill

Корсар

Пост 27-Май-2015 21:39 (спустя 2 года 6 месяцев)

[Q] 

ДАйте скорости пожалуйста

_________________
Мира и добра)
[Профиль]  [ЛС] 

daemon_chiff

Шкипер

Пост 07-Авг-2016 20:30 (спустя 1 год 2 месяца)

[Q] 

!COOL! Спасибо!!! Послушаем с удовольствием!
[Профиль]  [ЛС] 
Показать сообщения:    
Ответить на тему

Текущее время: Сегодня 14:14

Часовой пояс: GMT + 4



Вы не можете начинать темы
Вы не можете отвечать на сообщения
Вы не можете редактировать свои сообщения
Вы не можете удалять свои сообщения
Вы не можете голосовать в опросах
Вы не можете прикреплять файлы к сообщениям
Вы не можете скачивать файлы

Майнать ▼