Байки из склепа / Tales from the Crypt (2 сезона, серии 24 из 24) (Роберт Земекис / Robert Zemeckis и др) [1989-1990, ужасы, комедия, DVDRip] AVO (Антон Карповский)

Ответить на тему
 
Автор
Сообщение

Пост 02-Мар-2013 09:50

[Q] 

Wolf_Larsen

Флибустьер

Байки из склепа / Tales from the Crypt (сериал (1-й сезон 6 из 6)(2-й сезон 18 из 18)
Год выпуска: 1989-1990
Производство: США, Home Box Office (HBO)
Жанр: ужасы, комедия, триллер
Продолжительность: 26 минут серия
Перевод: Авторский (одноголосый, закадровый) Антон Карповский
Субтитры: отсутствуют
Режиссер: Роберт Земекис / Robert Zemeckis
В ролях: Уильям Сэдлер, Джо Понтольяно, Роберт Вул, Ларри Дрэйк, Маршалл Белл, Лиа Томпсон, Аманда Пламмер, М. Эммет Уолш
Описание: «Байки из склепа» — телесериал, созданный по мотивам комиксов Уильяма М. Гейнса, составленный из более чем полусотни сюжетов, представляющих собой короткие страшно юморные истории, рассказанные от лица симпатичного обитателя склепа, сопровождаемые его едкими, зловонными комментариями. Помните — смех продлевает жизнь, а постоянный страх сделает вас бессмертным.
За перевод у Карповского говорим спасибо Wolf_Larsen, feldeger, dunhill200, TOMAN, vik19662007, Dr. Destructo, drtom, Linnan и конечно большое спасибо Самому А. Карповскому за прекрасный перевод!
За рипы большое спасибо feldeger
1. The man who wa death / Человек который был смертью
Режиссёр:Уолтер Хилл / Walter Hill
2. And all through the house / Мирно дремлет старый дом
Режиссёр:Роберт Земекис / Robert Zemeckis
3. Dig that cat....he's real come / Откопайте этого кота... он и в правду сдох
Режиссёр: Ричард Доннер / Richard Donner
4. Only sin deep / Всего лишь глубина греха
Режиссёр: Ховард Дойч / Howard Deutch
5. Lover come yack to me / Любовничик, приходи ко мне на раскрамсалки
Режиссёр: Том Холланд / Tom Holland
6. Collection completed / Коллекция собранаполностью
Режиссёр:Мэри Ламберт / Mary Lambert
1. Dead Right / Смертельное право
Режиссёр: Ховард Дойч / Howard Deutch
2. The Switch / Подмена
Режиссёр: Арнольд Шварценеггер / Arnold Schwarzenegger
3. Cutting Cards / Потрясая картами
Режиссёр: Уолтер Хилл / Walter Hill
4. 'Til Death / До самой смерти
Режиссёр: Крис Уолас / Chris Walas
5. Three's a Crowd / Трое это уже толпа
Режиссёр: Дэвид Бартон Моррис / David Burton Morris
6. The Thing From the Grave / Нечто из могилы
Режиссёр: Фрэд Дэккер / Fred Dekker
7. The Sacrifice / Жертва
Режиссёр: Richard Greenberg / Ричард Гринберг
8. For Cryin' Out Loud / Чтобы крикнуть во всю мощь
Режиссёр: Jeffrey Price / Джефри Прайс
9. Four-Sided Triangle / Четырёхсторонний треугольник
Режиссёр: Tom Holland / Том Холланд
10. The Ventriloquist's Dummy / Кукла чревовещателя
Режиссёр: Richard Donner / Ричард Доннер
11. Judy, You're not Yourself Today / Джоди ты сегодня сама не своя
Режиссёр: Randa Haines / Рэнда Хайнс
12. Fitting Punishment / Подгонка наказания
Режиссёр:Jack Sholder / Джек Шолдер
13. Korman's Kalamity / Бедствие Кормана
Режиссёр: Rowdy Herrington / Роди Хэррингтон
14. Lower Berth / Низкое происхождение
Режиссёр: Kevin Yagher / Кевин Ягер
15. Mute Witness to Murder / Немой свидетель убийства
Режиссёр: Jim Simpson / Джим Симпсон
16. Television Terror / Теле-террор
Режиссёр: Charles Picerni / Чарли Пичерни
17. My Brother's Keeper / Мой брат хранитель
Режиссёр: Peter S. Seaman / Питер С. Симен
18. The Secret / Тайна
Режиссёр: Michael Riva / Майкл Рива
IMDB , КиноПоиск
Источник/Качество: DVDRip
Контейнер: AVI
Видео кодек: XviD
Аудио кодек: AC3
Видео: 704x528 (1.33:1), 23.976 fps, XviD build 64, 1361 kbps avg, 0.15 bit/pixel
Аудио : 48 kHz, AC3 Dolby Digital, 2/0 (L,R) Surround Encoded ch, 192 kbps - Карповский
Внимание торент перезалит 28 мая 2013 года теперь второй сезон полный
General
Complete name : G:\Downloads\Байки от Карповского (1-й сезон)\01.04. Байки из склепа (Карповский).avi
Format : AVI
Format/Info : Audio Video Interleave
File size : 305 MiB
Duration : 27mn 17s
Overall bit rate : 1 563 Kbps
Writing application : VirtualDubMod 1.5.10.2 (build 2540/release)
Writing library : VirtualDubMod build 2540/release
Video
ID : 0
Format : MPEG-4 Visual
Format profile : Advanced [email protected]
Format settings, BVOP : 2
Format settings, QPel : No
Format settings, GMC : No warppoints
Format settings, Matrix : Default (MPEG)
Codec ID : XVID
Codec ID/Hint : XviD
Duration : 27mn 17s
Bit rate : 1 361 Kbps
Width : 704 pixels
Height : 528 pixels
Display aspect ratio : 4:3
Frame rate : 23.976 fps
Color space : YUV
Chroma subsampling : 4:2:0
Bit depth : 8 bits
Scan type : Progressive
Compression mode : Lossy
Bits/(Pixel*Frame) : 0.153
Stream size : 266 MiB (87%)
Writing library : XviD 64
Audio
ID : 1
Format : AC-3
Format/Info : Audio Coding 3
Format profile : Dolby Digital
Mode extension : CM (complete main)
Format settings, Endianness : Big
Codec ID : 2000
Duration : 27mn 17s
Bit rate mode : Constant
Bit rate : 192 Kbps
Channel(s) : 2 channels
Channel positions : Front: L R
Sampling rate : 48.0 KHz
Bit depth : 16 bits
Compression mode : Lossy
Delay relative to video : 29ms
Stream size : 37.5 MiB (12%)
Alignment : Split accross interleaves
Interleave, duration : 42 ms (1.00 video frame)
Interleave, preload duration : 500 ms
Если вам понравилось проспонсируйте пожалуйста кто сколько может, чтоб можно было б насладится и остальными сериями в этом переводе загляните в эту тему -->Байки из склепа от Карповского.
Download / Скачать

Хотите скачать бесплатно? Зарегистрируйтесь на сайте (ссылка на регистрацию). Pirat.ca - самый быстрый торрент трекер в рунете!

Как скачивать  ·   Что такое торрент  ·   Рейтинг и ограничения



Последний раз редактировалось: Wolf_Larsen (2013-05-28 17:11), всего редактировалось 5 раз(а)

Linnan

2683

Пост 19-Мар-2013 11:32 (спустя 17 дней)

[Q] 

Wolf_Larsen,
заголовок и оформление я тебе подправила, потом таким же образом при пополнении подправляй

_________________

По ночам не раздаю
[Профиль]  [ЛС] 

Wolf_Larsen ®

Флибустьер

1334

Пост 19-Мар-2013 12:19 (спустя 47 минут)

[Q] 

Linnan, bs
[Профиль]  [ЛС] 

Dr. Destructo

Корсар

373

Пост 25-Мар-2013 20:10 (спустя 6 дней)

[Q] 

В первом сезоне 5 серия - в файл попали 30 секунд предыдущей серии (конечные титры). Это легко лечится - отрезаем виртуалдабом.
[Профиль]  [ЛС] 

Wolf_Larsen ®

Флибустьер

1334

Пост 06-Апр-2013 13:54 (спустя 11 дней)

[Q] 

Торент перезалит теперь второй сезон полный
[Профиль]  [ЛС] 

tantal008

Штурман

Пост 28-Июл-2013 19:20 (спустя 3 месяца 22 дня)

[Q] 

Господа, третий день скорости нет (((
[Профиль]  [ЛС] 

hanpahan

Шкипер

Пост 10-Авг-2013 09:30 (спустя 12 дней)

[Q] 

Крутейший сериал,еще на видеокассетах его смотрел) Всем качать!!!
[Профиль]  [ЛС] 

UnSlayeR

Флибустьер

4995

Пост 11-Авг-2013 16:03 (спустя 1 день 6 часов)

[Q] 

Дайте скачать... скорость совсем низкая 20-30 Кб
[Профиль]  [ЛС] 

LEMKE

Легенда

Пост 11-Авг-2013 19:20 (спустя 3 часа)

[Q] 

Так не сваливайте после скачивания, вот скорость и появится...
[Профиль]  [ЛС] 

Luzhok

Легенда

Пост 28-Авг-2014 23:46 (спустя 1 год)

[Q] 

друзья мои, я так понимаю, во 2 сезоне 24 серии, так?
вот мне интересно, где взять серии 19 - 24?
в профильной теме уже писал, кажется
ну... даже не знаю...
может, сделает кто рип оставшихся серий, а?
ну пожаааааааалста

пардон, камрады
разобрался
[Профиль]  [ЛС] 

ivanvasssin22

Пост 05-Сен-2016 13:33 (спустя 2 года)

[Q] 

Отличная подборка сериалов. Радует, что можно найти все, что люблю. Теперь жду продолжение любимого сериала. http://god-2017.ru/fizruk-4-season-2017/
[Профиль]  [ЛС] 
Показать сообщения:    
Ответить на тему

Текущее время: Сегодня 19:44

Часовой пояс: GMT + 4



Вы не можете начинать темы
Вы не можете отвечать на сообщения
Вы не можете редактировать свои сообщения
Вы не можете удалять свои сообщения
Вы не можете голосовать в опросах
Вы не можете прикреплять файлы к сообщениям
Вы не можете скачивать файлы

Майнать ▼