Лиллехаммер / Lilyhammer / Сезон: Сезон 1 / Серии: 8 из 8 (Гер Хеннинг Хопланд / Geir Henning Hopland, ...) [2013 г., драма, комедия, криминал, ..., WEB-DLRip] AVO (Ю. Сербин)

Ответить на тему
 
Автор
Сообщение

Пост 25-Ноя-2013 20:09

[Q] 

kugesan

-Лиллехаммер / Lilyhammer -- Название: Лиллехаммер
Оригинальное название: Lilyhammer
Производство: США, Норвегия
Жанр: драма, комедия, криминал, ...
Год выпуска: 2013 г.
Продолжительность: 00:45:00
Мировая премьера: 25 января 2012, ...
Российская премьера: 5 марта 2013
Дата выхода DVD: 21 мая 2013, «Парадиз / Активижен», ...-Релиз от:
Перевод: Авторский (одноголосый, закадровый) [Ю. Сербин]
При поддержке: HDClub
Перевод Ю.Сербина осуществлен в рамках сервиса "Озвучивание".
Спонсоры: HPotter, ClubMember, Vikachka, dementeb, SpartsDR, r3ap3r, rubak, demonx.-Режиссер: Гер Хеннинг Хопланд / Geir Henning Hopland, Симен Альсвик / Simen Alsvik , Лиза Мари Гамлем / Lisa Marie Gamlem-В ролях: Стив Ван Зандт, Мариан Саастад Оттесен, Тронд Фауса Аурвааг, Стейнар Саген, Энн Кригсволл, Фридтьов Сохейм, Томми Карлсен, Микаэль Акснес-Персон, Свен Нордин, Роберт Скйэрстад ...-Описание:
Тальяно сдал своего босса федералам, и теперь, в рамках программы по защите свидетелей, он переезжает в Лиллехаммер, небольшой норвежский городок, когда-то приютивший зимние олимпийские игры. Сам Фрэнк называет его Лилихэммером, отсюда и название сериала. Фрэнк мечтает о рае с «чистым воздухом, белым снегом и клевыми телками», вдали от соблазнов Нью-Йорка и от карателей мафии. Реальность, конечно же, оказывается не такой, как мечты.-Качество видео: WEB-DLRip
Контейнер: AVI
Видео кодек: XviD
Аудио кодек: AC3
Видео: MPEG-4 Visual at 1331 Кбит/сек: 720 x 400 (1.800) at 25.000 fps, 0.185 Бит/Пиксели
Аудио Rus: AC-3 at 192 Кбит/сек: 2 канала, 48,0 КГц |Ю. Сербин]|
Аудио Eng: AC-3 at 192 Кбит/сек: 2 канала, 48,0 КГц |Original|
Cубтитры: английские (вшитые,на норвежскую речь)- -Внимание! Присутствует ненормативная лексика!
Возрастное ограничение: 18+

-Сериал "Лиллехаммер / Lilyhammer" на треке Pirat.ca-
  • Reality Check / Проверка Реальности
  • The Flamingo / Фламинго
  • Guantanamo Blues / Блюз по Гуантанамо
  • The Midwife / Повитуха
  • My Kind of Town / Такой Город Мне По Вкусу
  • Pack Your Lederhosen / Пакуйте Кожаные Штаны
  • The Babysitter / Нянька
  • Trolls / Тролли
-
Код:
Общее
Полное имя                               : E:\uTorDown\uTorrent\Lilyhammer (Ю.Сербин)\lilyhammer.s01e01.webdl.rus.eng.avi
Формат                                   : AVI
Формат/Информация                        : Audio Video Interleave
Размер файла                             : 559 Мбайт
Продолжительность                        : 45 м.
Общий поток                              : 1729 Кбит/сек
Программа кодирования                    : VirtualDubMod 1.5.10.2 (build 2542/release)
Библиотека кодирования                   : VirtualDubMod build 2542/release
Видео
Идентификатор                            : 0
Формат                                   : MPEG-4 Visual
Профиль формата                          : Advanced [email protected]
Параметр BVOP формата                    : 2
Параметр QPel формата                    : Нет
Параметр GMC формата                     : Без точки перехода
Параметр матрицы формата                 : Default (H.263)
Режим смешивания                         : Сжатый битовый поток
Идентификатор кодека                     : XVID
Идентификатор кодека/Подсказка           : XviD
Продолжительность                        : 45 м.
Битрейт                                  : 1331 Кбит/сек
Ширина                                   : 720 пикселей
Высота                                   : 400 пикселей
Соотношение сторон                       : 16:9
Частота кадров                           : 25,000 кадров/сек
Цветовое пространство                    : YUV
Субдискретизация насыщенности            : 4:2:0
Битовая глубина                          : 8 бит
Тип развёртки                            : Прогрессивная
Метод сжатия                             : С потерями
Бит/(Пиксели*Кадры)                      : 0.185
Размер потока                            : 430 Мбайт (77%)
Библиотека кодирования                   : XviD 64
Аудио #1
Идентификатор                            : 1
Формат                                   : AC-3
Формат/Информация                        : Audio Coding 3
Расширение режима                        : CM (complete main)
Параметр Endianness формата              : Big
Идентификатор кодека                     : 2000
Продолжительность                        : 45 м.
Вид битрейта                             : Постоянный
Битрейт                                  : 192 Кбит/сек
Каналы                                   : 2 канала
Расположение каналов                     : Front: L R
Частота                                  : 48,0 КГц
Битовая глубина                          : 16 бит
Метод сжатия                             : С потерями
Размер потока                            : 62,0 Мбайт (11%)
Выравнивание                             : Разделение по промежуткам
Продолжительность промежутка             : 40  мс. (1,00 видеокадр)
Время предзагрузки промежутка            : 500  мс.
Аудио #2
Идентификатор                            : 2
Формат                                   : AC-3
Формат/Информация                        : Audio Coding 3
Расширение режима                        : CM (complete main)
Параметр Endianness формата              : Big
Идентификатор кодека                     : 2000
Продолжительность                        : 45 м.
Вид битрейта                             : Постоянный
Битрейт                                  : 192 Кбит/сек
Каналы                                   : 2 канала
Расположение каналов                     : Front: L R
Частота                                  : 48,0 КГц
Битовая глубина                          : 16 бит
Метод сжатия                             : С потерями
Размер потока                            : 62,0 Мбайт (11%)
Выравнивание                             : Разделение по промежуткам
Продолжительность промежутка             : 40  мс. (1,00 видеокадр)
Время предзагрузки промежутка            : 500  мс.
Скриншоты:
Download / Скачать

Хотите скачать бесплатно? Зарегистрируйтесь на сайте (ссылка на регистрацию). Pirat.ca - самый быстрый торрент трекер в рунете!

Как скачивать  ·   Что такое торрент  ·   Рейтинг и ограничения

AmoZ

Флибустьер

3325

Пост 23-Дек-2013 22:22 (спустя 28 дней)

[Q] 

Всем качать!!!
Качают ВСЕ!!!
[Профиль]  [ЛС] 

kugesan ®

62860

Пост 23-Дек-2013 22:32 (спустя 10 минут)

[Q] 

Приятного просмотра!!!

_________________
В мире две бесконечности: вселенная и человеческая глупость - Альберт Эйнштен
«Можно вытащить человека из грязи, но нельзя вытащить грязь из человека»!
[Профиль]  [ЛС] 

Alexlogin

Гроза морей

106

Пост 28-Янв-2014 05:17 (спустя 1 месяц 4 дня)

[Q] 

Щас оценим rum
[Профиль]  [ЛС] 

anton966

10875

Пост 13-Фев-2014 04:27 (спустя 15 дней)

[Q] 

Женя, спасибо и надо переезжать.

_________________
" ...потому что во многой мудрости много печали; и кто умножает познания, умножает скорбь" ( Еккл 1:17,18)
[Профиль]  [ЛС] 

Ahzool

Корсар

Пост 28-Ноя-2014 11:24 (спустя 9 месяцев 15 дней)

[Q] 

мерсиба...останусь на раздаче........kugesan aa Лови бочку

_________________
Si non es occupatus quid natum moriendo occupatus es,beauty creatur vultus.
[Профиль]  [ЛС] 

balamutych 8

Корсар

Пост 23-Сен-2016 16:13 (спустя 1 год 9 месяцев)

[Q] 

Спасибо большое
[Профиль]  [ЛС] 
Показать сообщения:    
Ответить на тему

Текущее время: Сегодня 09:35

Часовой пояс: GMT + 4



Вы не можете начинать темы
Вы не можете отвечать на сообщения
Вы не можете редактировать свои сообщения
Вы не можете удалять свои сообщения
Вы не можете голосовать в опросах
Вы не можете прикреплять файлы к сообщениям
Вы не можете скачивать файлы

Майнать ▼