Сексуальные приключения трех мушкетеров / Die Sex-Abenteuer der drei Musketiere (Эрвин С. Дитрих / Erwin C. Dietrich) [1971 г., комедия, 16+, BDRip, 720p] VO + Original (Eng)

Ответить на тему
 
Автор
Сообщение

Пост 07-Ноя-2016 19:41

[Q] 

somik

-Сексуальные приключения трех мушкетеров / Die Sex-Abenteuer der drei Musketiere-- Производство: Германия (ФРГ), Avco Produktion
Год выпуска: 1971 г.
Жанр: комедия, 16+
Продолжительность: 01:21:03
Мировая премьера: 16 февраля 1971
Перевод: Любительский (одноголосый, закадровый)
Оригинальный аудиопоток: английский
Режиссер: Эрвин С. Дитрих / Erwin C. Dietrich-В ролях: Питер Граф, Ингрид Штегер, Надя Пилар, Ли Хубер, Рико Питер, Альфред Кодона, Лони Грюнвольд, Ивонн Соллин, Рафаэль Бриттен, Ахим Хаммер, Йюрг Корэ, Томас Лариш-Описание: Эротические похождения легендарных героев романа Александра Дюма "Три Мушкетера" в прочтении немецкого классика эротических фильмов эпохи 70-х...80-х годов Эрвина С. Дитриха.-
Качество видео: BDRip
Контейнер: MKV
Стандарт разрешения: 720p
Видео кодек: MPEG4 AVC
Аудио кодек: AC3
Видео: 5730 Кбит/с, 1280x696, 24,000 кадра/сек
Аудио: AC3, 6 ch, 640 Кбит/с, 48,0 КГц
Аудио #2: AC3, 6 ch, 640 Кбит/с, 48,0 КГц
Cубтитры: отсутствуют
Общее
Уникальный идентификатор : 190578493418937384763410609035763763571 (0x8F60152D588DC787B13334C6464FC973)
Полное имя : F:\Сексуальные приключения трех мушкетеров Die Sex-Abenteuer der drei Musketiere (1971)\Die Sexabenteuer der drei Musketiere.1971.BDRip.720p.[pirat.ca].mkv
Формат : Matroska
Версия формата : Version 2
Размер файла : 3,97 Гбайт
Продолжительность : 1 ч. 21 м.
Общий поток : 7012 Кбит/сек
Название фильма : Die.Sexabenteuer.der.drei.Musketiere.1971.BDRip.720p
Дата кодирования : UTC 2016-11-07 15:14:33
Программа кодирования : mkvmerge v5.3.0 ('I could have danced') built on Feb 9 2012 10:38:07
Библиотека кодирования : libebml v1.2.3 + libmatroska v1.3.0
Видео
Идентификатор : 1
Формат : AVC
Формат/Информация : Advanced Video Codec
Профиль формата : High@L4.1
Параметр CABAC формата : Да
Параметр ReFrames формата : 9 кадров
Идентификатор кодека : V_MPEG4/ISO/AVC
Продолжительность : 1 ч. 21 м.
Битрейт : 5730 Кбит/сек
Ширина : 1280 пикселей
Высота : 696 пикселей
Соотношение сторон : 1,85:1
Режим частоты кадров : Постоянный
Частота кадров : 24,000 кадра/сек
Цветовое пространство : YUV
Субдискретизация насыщенности : 4:2:0
Битовая глубина : 8 бит
Тип развёртки : Прогрессивная
Бит/(Пиксели*Кадры) : 0.268
Размер потока : 3,17 Гбайт (80%)
Заголовок : Die.Sexabenteuer.der.drei.Musketiere.1971.BDRip.720p
Библиотека кодирования : x264 core 129 r2230 1cffe9f
Настройки программы : cabac=1 / ref=9 / deblock=1:-3:-3 / analyse=0x3:0x133 / me=umh / subme=11 / psy=1 / psy_rd=1.00:0.15 / mixed_ref=1 / me_range=32 / chroma_me=1 / trellis=2 / 8x8dct=1 / cqm=0 / deadzone=21,11 / fast_pskip=1 / chroma_qp_offset=-5 / threads=12 / lookahead_threads=2 / sliced_threads=0 / nr=0 / decimate=1 / interlaced=0 / bluray_compat=0 / constrained_intra=0 / bframes=11 / b_pyramid=2 / b_adapt=2 / b_bias=0 / direct=2 / weightb=1 / open_gop=0 / weightp=2 / keyint=240 / keyint_min=23 / scenecut=40 / intra_refresh=0 / rc_lookahead=60 / rc=2pass / mbtree=1 / bitrate=5730 / ratetol=1.0 / qcomp=0.60 / qpmin=0 / qpmax=69 / qpstep=4 / cplxblur=20.0 / qblur=0.5 / ip_ratio=1.40 / aq=1:1.00
Язык : German
Default : Да
Forced : Да
Аудио #1
Идентификатор : 2
Формат : AC-3
Формат/Информация : Audio Coding 3
Расширение режима : CM (complete main)
Параметр Endianness формата : Big
Идентификатор кодека : A_AC3
Продолжительность : 1 ч. 21 м.
Вид битрейта : Постоянный
Битрейт : 640 Кбит/сек
Каналы : 6 каналов
Расположение каналов : Front: L C R, Side: L R, LFE
Частота : 48,0 КГц
Частота кадров : 31,250 кадров/сек (1536 spf)
Метод сжатия : С потерями
Размер потока : 371 Мбайт (9%)
Заголовок : AVO (Дольский) (AC3 5.1 640 kbps)
Язык : Russian
Default : Да
Forced : Да
Аудио #2
Идентификатор : 3
Формат : AC-3
Формат/Информация : Audio Coding 3
Расширение режима : CM (complete main)
Параметр Endianness формата : Big
Идентификатор кодека : A_AC3
Продолжительность : 1 ч. 21 м.
Вид битрейта : Постоянный
Битрейт : 640 Кбит/сек
Каналы : 6 каналов
Расположение каналов : Front: L C R, Side: L R, LFE
Частота : 48,0 КГц
Частота кадров : 31,250 кадров/сек (1536 spf)
Метод сжатия : С потерями
Размер потока : 371 Мбайт (9%)
Заголовок : AC3 5.1 640 kbps
Язык : English
Default : Нет
Forced : Нет
Download / Скачать

Хотите скачать бесплатно? Зарегистрируйтесь на сайте (ссылка на регистрацию). Pirat.ca - самый быстрый торрент трекер в рунете!

Как скачивать  ·   Что такое торрент  ·   Рейтинг и ограничения

balamutych 8

Корсар

Пост 08-Ноя-2016 18:14 (спустя 22 часа)

[Q] 

Спасибо-заценим
[Профиль]  [ЛС] 
Показать сообщения:    
Ответить на тему

Текущее время: Сегодня 21:46

Часовой пояс: GMT + 4



Вы не можете начинать темы
Вы не можете отвечать на сообщения
Вы не можете редактировать свои сообщения
Вы не можете удалять свои сообщения
Вы не можете голосовать в опросах
Вы не можете прикреплять файлы к сообщениям
Вы не можете скачивать файлы

Майнать ▼