И твою маму тоже / Y tu mamá también (Альфонсо Куарон / Alfonso Cuarn) [2001 г., драма, мелодрама, комедия, приключения, 18+, BDRip] DVO + VO + Sub (Rus, Eng)

Ответить на тему
 
Автор
Сообщение

Пост 07-Ноя-2016 18:44

[Q] 

somik

-И твою маму тоже / Y tu mamá también-- Производство: Мексика
Год выпуска: 2001 г.
Жанр: драма, мелодрама, комедия, приключения, 18+
Продолжительность: 01:45:38
Мировая премьера: 8 июня 2001
Российская премьера: 7 марта 2002
Перевод: Профессиональный (двухголосый, закадровый)
Перевод 2: Профессиональный (одноголосый, закадровый)
Режиссер: Альфонсо Куарон / Alfonso Cuarn-В ролях: Диего Луна, Гаэль Гарсиа Берналь, Марибель Верду, Ана Лопез Меркадо, Даниэль Хименес Качо, Нэйтан Гринбер, Вероника Ланхер, Мария Аура, Жизелль Одри, Артуро Риос-Описание: Двое друзей, не обремененных моральными принципами и мучимые подростковыми гормонами, ищут под жарким солнцем Мексики приключений. Ищут — и находят.
Познакомившись на празднике с испанской красоткой Луизой, чье сердце безнадежно разбито, они приглашают ее отправиться в поездку на мифический пляж с романтическим названием «Небесные уста» — в мир фантазий и грез, где исполняются мечты.
Луиза, решив развеяться и заодно излечить свое разбитое сердце, принимает приглашение мальчиков. Они еще не знают самого главного…-
Качество видео: BDRip
Контейнер: AVI
Видео кодек: XviD
Аудио кодек: AC3
Видео: 704x384 (1.83:1), 24 fps, XviD build 65 ~1979 kbps avg, 0.30 bit/pixel
Аудио: 48 kHz, AC3 Dolby Digital, 3/2 (L,C,R,l,r) + LFE ch, ~384 kbps
Аудио #2: 48 kHz, AC3 Dolby Digital, 2/0 (L,R) ch, ~192
Cубтитры: русские, английские
Формат субтитров: softsub (SRT)
Доп. информация о субтитрах: внешние
Фамилии героев фильма совпадают с фамилиями известных исторических деятелей Мексики: Эрнан Кортес (1485-1547) — испанский конкистадор, покоритель Мексики, Эмилиано Сапата (1879-1919) — один из лидеров Мексиканской революции 1910-1917, Агустин Итурбиде (1783-1824) — император Мексики (1822-1823).
Как заявил в одном из интервью исполнитель роли Хулио Сапато Гаэль Гарсиа Берналь, в сцене мастурбации для имитации спермы был использован шампунь известной марки.
Оскар, 2003 год
Номинации (1):
Лучший оригинальный сценарий
Британская академия, 2003 год
Номинации (2):
Лучший фильм на иностранном языке
Лучший оригинальный сценарий
Золотой глобус, 2002 год
Номинации (1):
Лучший фильм на иностранном языке — «Мексика»
Венецианский кинофестиваль, 2001 год
Победитель (2):
Премия Марчелло Мастрояни
Лучший сценарий
Номинации (1):
Золотой лев
Европейская киноакадемия, 2001 год
Номинации (1):
Премия Screen International Award
Первое впечатление — самое яркое. Посмотрев, спустя лет шесть, «И твою маму тоже», я в этом окончательно убедилась. Для этого фильма, в силу его откровенности, интимности, нужна и соответствующая атмосфера вокруг зрителя. Ни в коем случае нельзя смотреть его в компании или с близким человеком. Только одному. Поздней ночью. В тишине. Когда всё самое откровенное, задавленное бытом и буднями раскрывается, и в этом нет ни капли пошлости. Это Истина.
Кто не знаком с творчеством народного артиста Берналя, советую начать знакомство именно с этой картины. Его последние работы не идут ни в какое сравнение с мексикано-испанским мощным прорывом.
Так вот, это впечатление не от первого, а от второго просмотра. Когда уже знаешь завязку и тем более кульминацию, обращаешь внимание на мелочи, на недосказанности, размытые намеки. Начинаешь сомневаться — а действительно в картине две линии — Луиза и мальчики? Или всё же одна — мальчики?
Действие разбавляется закадровыми комментариями внутренних, скрытых от глаз, впечатлений от путешествия. Или это рассказ одного из путешественников? Вначале думаешь, что это Тенок — ведь он хотел быть писателем, но, приближаясь к концу уверен уже в другом — этот рассказчик Хулио. В его пользу всё решил последний кадр в кафе. Хотя я могу и ошибаться.
Бывает так — в жизни появляются случайные люди, либо происходят случайности, которые открывают друзьям или любовникам глаза друг на друга. Что есть дружба, любовь? — череда обманов, уверток, притворств. И лишь вдали от дома, в непривычной обстановке, среди незнакомых людей раскрывается Истина. И это уже твое дело, как ты ее воспримешь. Тенок и Хулио поступили вполне обыденно, предсказуемо. Случившееся с ними — правило. Возможно, и случаются исключения, но в них труднее поверить.
А Луиза? Она катализатор. Лакмусовая бумажка для этих мальчиков. Ее история увлекает только при первом просмотре, когда не поймешь — от чего эта молодая женщина плачет, когда остается одна? Она — часть истории, приключение. И глаза у Берналя грустные не из-за Луизы.
Наконец я добралась до этого фильма, который скачала, потому что там играет Гаэль Гарсия Берналь (сильно он мне запомнился по фильму «Дурное воспитание» Педро Альмодовара).
Нажимаю кнопку play и… сразу Секс! Понятно, что фильм будет откровенный. Так и оказалось, но это не откровеннее секса, это откровение чувств, эмоции, желаний… жизни. Уехать с двумя молодыми парнями полными жизни и готовыми на приключения и осознать, что и ты готова броситься в волну приключений. Позволить себе всё, что так хотелось, но всегда тобой останавливалось. Луиза не боится сказать что-то не то, не боится высказать своё мнение. Живя с мужем она не высказывала всего чего хотела…особенно в его компании «интеллектуалов». Но тут вдали от прежней жизни с двумя прожигателями жизни… можно всё (говорить, спрашивать, мечтать, действовать, кричать, убегать — жить!)
Конец…что же готовит режиссёр? А он показывает реальность (чего лично мне не хотелось, чтобы произошло с героями особенно с Луизой). Когда вместе прожигаешь жизнь легко оставаться друзьями. Но приехав обратно и изменив свою жизнь…их общение стало не реальным. Кроме секса, травки и листка с правилами в их дружбе не было ничего!
Не перестаю поражаться силой киноискусства!
10 из 10
бщее
Полное имя : F:\И твою маму тоже Y tu mamá también (2001)\I Tvoju Mamu Tozhe.2001.BDRip.[pirat.ca]\I Tvoju Mamu Tozhe.2001.BDRip.[pirat.ca].avi
Формат : AVI
Формат/Информация : Audio Video Interleave
Размер файла : 1,90 Гбайт
Продолжительность : 1 ч. 45 м.
Общий поток : 2570 Кбит/сек
Программа кодирования : VirtualDubMod 1.5.10.3 (build 2550/release)
Видео
Идентификатор : 0
Формат : MPEG-4 Visual
Профиль формата : Advanced [email protected]
Параметр BVOP формата : 1
Параметр QPel формата : Нет
Параметр GMC формата : Без точки перехода
Параметр матрицы формата : Выборочная
Идентификатор кодека : XVID
Идентификатор кодека/Подсказка : XviD
Продолжительность : 1 ч. 45 м.
Битрейт : 1980 Кбит/сек
Ширина : 704 пикселя
Высота : 384 пикселя
Соотношение сторон : 1,85:1
Частота кадров : 24,000 кадра/сек
Цветовое пространство : YUV
Субдискретизация насыщенности : 4:2:0
Битовая глубина : 8 бит
Тип развёртки : Прогрессивная
Метод сжатия : С потерями
Бит/(Пиксели*Кадры) : 0.305
Размер потока : 1,46 Гбайт (77%)
Библиотека кодирования : XviD 65
Аудио #1
Идентификатор : 1
Формат : AC-3
Формат/Информация : Audio Coding 3
Расширение режима : CM (complete main)
Параметр Endianness формата : Big
Идентификатор кодека : 2000
Продолжительность : 1 ч. 45 м.
Вид битрейта : Постоянный
Битрейт : 384 Кбит/сек
Каналы : 6 каналов
Расположение каналов : Front: L C R, Side: L R, LFE
Частота : 48,0 КГц
Частота кадров : 31,250 кадров/сек (1536 spf)
Метод сжатия : С потерями
Размер потока : 290 Мбайт (15%)
Выравнивание : Разделение по промежуткам
Продолжительность промежутка : 42 мс. (1,00 видеокадр)
Время предзагрузки промежутка : 500 мс.
Аудио #2
Идентификатор : 2
Формат : AC-3
Формат/Информация : Audio Coding 3
Расширение режима : CM (complete main)
Параметр Endianness формата : Big
Идентификатор кодека : 2000
Продолжительность : 1 ч. 45 м.
Вид битрейта : Постоянный
Битрейт : 192 Кбит/сек
Каналы : 2 канала
Расположение каналов : Front: L R
Частота : 48,0 КГц
Частота кадров : 31,250 кадров/сек (1536 spf)
Метод сжатия : С потерями
Размер потока : 145 Мбайт (7%)
Выравнивание : Разделение по промежуткам
Продолжительность промежутка : 42 мс. (1,00 видеокадр)
Время предзагрузки промежутка : 500 мс.
Download / Скачать

Хотите скачать бесплатно? Зарегистрируйтесь на сайте (ссылка на регистрацию). Pirat.ca - самый быстрый торрент трекер в рунете!

Как скачивать  ·   Что такое торрент  ·   Рейтинг и ограничения

alex11959

Гроза морей

Пост 10-Ноя-2016 02:18 (спустя 2 дня 7 часов)

[Q] 

!COOL! !!!!!!!!!!!!!!
[Профиль]  [ЛС] 
Показать сообщения:    
Ответить на тему

Текущее время: Сегодня 16:42

Часовой пояс: GMT + 4



Вы не можете начинать темы
Вы не можете отвечать на сообщения
Вы не можете редактировать свои сообщения
Вы не можете удалять свои сообщения
Вы не можете голосовать в опросах
Вы не можете прикреплять файлы к сообщениям
Вы не можете скачивать файлы

Майнать ▼