(Traditional Electronic) Jean-Michel Jarre - Oxygene 3 - 2016 [FLAC, image +.cue, lossless]

Ответить на тему
 
Автор
Сообщение

Пост 02-Дек-2016 08:39

[Q] 

sergej644

-Jean-Michel Jarre - Oxygene 3--
Год издания: 2016
Страна: France
Жанр: Traditional Electronic
Продолжительность: 00:39:52-Лейбл издания: Columbia Records / Sony Music
Страна-выпуска диска: EU
Номер по каталогу: 88985361882-Формат: FLAC
Битрейт аудио: Lossless
Тип рипа: image +.cue
Наличие сканов в содержимом раздачи: да
-Новый альбом французского композитора, мультиинструменталиста, одного из пионеров электронной музыки, Жан-Мишеля Жарра.

01. Oxygene (Part 14) (5:28)
02. Oxygene (Part 15) (6:40)
03. Oxygene (Part 16) (6:50)
04. Oxygene (Part 17) (4:21)
05. Oxygene (Part 18) (2:49)
06. Oxygene (Part 19) (5:45)
07. Oxygene (Part 20) (7:59)
-
Код:
Exact Audio Copy V1.1 from 23. June 2015
EAC extraction logfile from 1. December 2016, 17:44
Jean Michel Jarre / Oxygene 3
Used drive  : Pioneer BDR-209DBK   Adapter: 0  ID: 0
Read mode               : Secure
Utilize accurate stream : Yes
Defeat audio cache      : Yes
Make use of C2 pointers : No
Read offset correction                      : 6
Overread into Lead-In and Lead-Out          : No
Fill up missing offset samples with silence : Yes
Delete leading and trailing silent blocks   : No
Null samples used in CRC calculations       : Yes
Used interface                              : Installed external ASPI interface
Used output format : Internal WAV Routines
Sample format      : 44.100 Hz; 16 Bit; Stereo
TOC of the extracted CD
     Track |   Start  |  Length  | Start sector | End sector
    ---------------------------------------------------------
        1  |  0:00.00 |  5:27.58 |         0    |    24582
        2  |  5:27.58 |  6:40.37 |     24583    |    54619
        3  | 12:08.20 |  6:50.19 |     54620    |    85388
        4  | 18:58.39 |  4:20.38 |     85389    |   104926
        5  | 23:19.02 |  2:48.56 |    104927    |   117582
        6  | 26:07.58 |  5:45.14 |    117583    |   143471
        7  | 31:52.72 |  7:59.37 |    143472    |   179433
Range status and errors
Selected range
     Filename H:\Spotnet\Jean Michel Jarre - Oxygene 3 (EAC)\Jean Michel Jarre - Oxygene 3.wav
     Peak level 97.9 %
     Extraction speed 6.8 X
     Range quality 100.0 %
     Test CRC 37D5A479
     Copy CRC 37D5A479
     Copy OK
No errors occurred
AccurateRip summary
Track  1  not present in database
Track  2  not present in database
Track  3  not present in database
Track  4  not present in database
Track  5  not present in database
Track  6  not present in database
Track  7  not present in database
None of the tracks are present in the AccurateRip database
End of status report
Код:
REM GENRE Electronic
REM DATE 2016
REM DISCID 4A095807
REM COMMENT "ExactAudioCopy v1.1"
PERFORMER "Jean-Michel Jarre"
TITLE "Oxygene 3"
FILE "Jean-Michel Jarre - Oxygene 3.flac" WAVE
  TRACK 01 AUDIO
    TITLE "Oxygene (Part 14)"
    PERFORMER "Jean-Michel Jarre"
    INDEX 01 00:00:00
  TRACK 02 AUDIO
    TITLE "Oxygene (Part 15)"
    PERFORMER "Jean-Michel Jarre"
    INDEX 01 05:27:58
  TRACK 03 AUDIO
    TITLE "Oxygene (Part 16)"
    PERFORMER "Jean-Michel Jarre"
    INDEX 01 12:08:20
  TRACK 04 AUDIO
    TITLE "Oxygene (Part 17)"
    PERFORMER "Jean-Michel Jarre"
    INDEX 01 18:58:39
  TRACK 05 AUDIO
    TITLE "Oxygene (Part 18)"
    PERFORMER "Jean-Michel Jarre"
    INDEX 01 23:19:02
  TRACK 06 AUDIO
    TITLE "Oxygene (Part 19)"
    PERFORMER "Jean-Michel Jarre"
    INDEX 01 26:07:58
  TRACK 07 AUDIO
    TITLE "Oxygene (Part 20)"
    PERFORMER "Jean-Michel Jarre"
    INDEX 01 31:52:72
--
Download / Скачать

Хотите скачать бесплатно? Зарегистрируйтесь на сайте (ссылка на регистрацию). Pirat.ca - самый быстрый торрент трекер в рунете!

Как скачивать  ·   Что такое торрент  ·   Рейтинг и ограничения

Показать сообщения:    
Ответить на тему

Текущее время: Сегодня 04:04

Часовой пояс: GMT + 4



Вы не можете начинать темы
Вы не можете отвечать на сообщения
Вы не можете редактировать свои сообщения
Вы не можете удалять свои сообщения
Вы не можете голосовать в опросах
Вы не можете прикреплять файлы к сообщениям
Вы не можете скачивать файлы

Майнать ▼