Уважаемый Гость!
Вы можете поддержать проект и зарегистрироваться у наших партнеров - онлайн-стратегия MyLands. При регистрации в игре Вы получите код, который сможете активировать после регистрации на pirat.ca и получить 1000 дублонов.

Ваш код:
ec290ec549f2f2f89d4dac9cc791f2318d3b9b40
 
     

Бруклинские полицейские / Brooklyn's Finest (Антуан Фукуа / Antoine Fuqua) [2009 г., Боевик, триллер, драма, криминал, BDRip, 720р] Dub + MVO (CP-Digital) + AVO (Немахов, Дольский, Иванов) + Original (Eng)

Ответить на тему
 
Автор
Сообщение

Пост 18-Май-2015 08:33

[Q] 

gross1978

-Бруклинские полицейские / Brooklyn's Finest
«Это - война. Это - Бруклин.»
-- Год выпуска: 2009 г.
Мировая премьера: 16 января 2009
Дата выхода DVD: 1 июля 2010, «CP-Digital»
Производство: США, Millennium Films
Жанр: Боевик, триллер, драма, криминал
Продолжительность: 02:12:39
Перевод 1: Профессиональный (дублированный) Рен ТВ
Перевод 2: Профессиональный (многоголосый, закадровый) CP-Digital
Перевод 3: Авторский (одноголосый, закадровый) Немахов
Перевод 4: Авторский (одноголосый, закадровый) Дольский
Перевод 5: Авторский (одноголосый, закадровый) Иванов
Оригинальный аудиопоток: Английский
Режиссер: Антуан Фукуа / Antoine Fuqua
В ролях: Ричард Гир, Дон Чидл, Этан Хоук, Уэсли Снайпс, Винсент Д`Онофрио, Брайан Ф. О’Бирн, Уилл Пэттон, Лили Тейлор, Эллен Баркин, Джесси Уильямс
Описание: Фильм повествует о трех никак между собой не связанных бруклинских полицейских, которые оказываются в одной судьбоносной сюжетной точке, несмотря на совершенно разные карьеры: один — работает под прикрытием в среде наркомафии, второй — коррумпирован по самое не балуйся, третий — всегда играл по правилам и теперь хочет только спокойно дожить до почетной отставки.
-
Качество видео: BDRip 720р
Формат видео: MKV
Видео кодек: H.264
Аудио кодек: AC3
Видео: 1280x536, 23.976 fps, 3 478 Kbps, 0.211 bt/px
Аудио #1: 48 kHz, AC3 Dolby Digital, 2/0 (L,R) ch, 224 kbps avg – дубляж
Аудио #2: 48 kHz, AC3 Dolby Digital, 3/2 (L,C,R,l,r) + LFE ch, 448 kbps avg – CP Digital
Аудио #3: 48 kHz, AC3 Dolby Digital, 3/2 (L,C,R,l,r) + LFE ch, 448 kbps avg – Немахов
Аудио #4: 48 kHz, AC3 Dolby Digital, 3/2 (L,C,R,l,r) + LFE ch, 448 kbps avg – Дольский
Аудио #5: 48 kHz, AC3 Dolby Digital, 3/2 (L,C,R,l,r) + LFE ch, 448 kbps avg – Иванов
Аудио #6: 48 kHz, AC3 Dolby Digital, 3/2 (L,C,R,l,r) + LFE ch, 448 kbps avg – оригинал
Автор рипа:
За перевод Дольского большое спасибо пользователям форума hdtracker.org:
Jiraya87,WUSA,Sonny,Tagansky,KpucTo161,budulaj965,ZeRoNe,ylnian,fly32,maximus1099
kolibri2,Shumway,Gross1978,_MyxAmoP_,kleberson,Brown15,Dr. Destructo,vovyanskiy, karantin66
timur,edsz
Перевод Иванова с раздачи DeASS. Спасибо!
x264 [info]: frame I:1158 Avg QP:14.30 size:102078
x264 [info]: frame P:41064 Avg QP:15.73 size: 40517
x264 [info]: frame B:148602 Avg QP:18.78 size: 12025
x264 [info]: consecutive B-frames: 1.7% 2.6% 8.9% 13.8% 24.5% 40.9% 5.2% 1.6% 0.6% 0.4%
x264 [info]: mb I I16..4: 8.2% 79.1% 12.8%
x264 [info]: mb P I16..4: 0.3% 13.9% 0.9% P16..4: 26.9% 38.0% 16.1% 2.6% 0.1% skip: 1.3%
x264 [info]: mb B I16..4: 0.0% 1.2% 0.1% B16..8: 37.1% 23.8% 4.6% direct: 4.2% skip:29.0% L0:42.6% L1:45.9% BI:11.5%
x264 [info]: 8x8 transform intra:91.1% inter:55.6%
x264 [info]: coded y,uvDC,uvAC intra: 97.5% 84.9% 74.9% inter: 24.0% 15.2% 4.7%
x264 [info]: i16 v,h,dc,p: 8% 8% 20% 65%
x264 [info]: i8 v,h,dc,ddl,ddr,vr,hd,vl,hu: 11% 8% 17% 9% 12% 11% 11% 10% 12%
x264 [info]: i4 v,h,dc,ddl,ddr,vr,hd,vl,hu: 14% 8% 3% 9% 15% 14% 14% 11% 12%
x264 [info]: i8c dc,h,v,p: 47% 23% 15% 15%
x264 [info]: Weighted P-Frames: Y:11.7% UV:8.8%
x264 [info]: ref P L0: 43.2% 7.5% 17.8% 7.3% 6.5% 4.6% 4.4% 2.2% 2.3% 1.9% 2.0% 0.4% 0.1%
x264 [info]: ref B L0: 73.1% 10.6% 5.3% 3.2% 2.2% 2.0% 1.6% 1.0% 0.6% 0.4%
x264 [info]: ref B L1: 94.0% 6.0%
x264 [info]: kb/s:3587.42
encoded 190824 frames, 2.91 fps, 3587.42 kb/s
General
Unique ID : 228537364045607672248746461643060072078 (0xABEEB1FE0BA4098C9FA779CDE4ECCE8E)
Complete name : G:\фильмы HD\! новое\Бруклинские полицейские (Brooklyn's Finest, 2009, BDRip, 720p) dub-pm-Nemaxov-Dolsky-Ivanov-eng.mkv
Format : Matroska
Format version : Version 2
File size : 5.61 GiB
Duration : 2h 12mn
Overall bit rate : 6 054 Kbps
Movie name : rip by Gross
Encoded date : UTC 2015-05-18 04:09:54
Writing application : mkvmerge v4.7.0 ('Just Like You Imagined') сборка от Apr 21 2011 01:13:14
Writing library : libebml v1.2.0 + libmatroska v1.1.0
Video
ID : 1
Format : AVC
Format/Info : Advanced Video Codec
Format profile : [email protected]
Format settings, CABAC : Yes
Format settings, ReFrames : 11 frames
Codec ID : V_MPEG4/ISO/AVC
Duration : 2h 12mn
Bit rate : 3 470 Kbps
Width : 1 280 pixels
Height : 536 pixels
Display aspect ratio : 2.40:1
Frame rate mode : Constant
Frame rate : 23.976 fps
Color space : YUV
Chroma subsampling : 4:2:0
Bit depth : 8 bits
Scan type : Progressive
Bits/(Pixel*Frame) : 0.211
Stream size : 3.21 GiB (57%)
Writing library : x264 core 142 r2431 ac76440
Encoding settings : cabac=1 / ref=11 / deblock=1:-3:-3 / analyse=0x3:0x133 / me=umh / subme=11 / psy=1 / psy_rd=1.00:0.05 / mixed_ref=1 / me_range=32 / chroma_me=1 / trellis=2 / 8x8dct=1 / cqm=0 / deadzone=21,11 / fast_pskip=0 / chroma_qp_offset=-3 / threads=9 / lookahead_threads=2 / sliced_threads=0 / nr=0 / decimate=1 / interlaced=0 / bluray_compat=0 / constrained_intra=0 / bframes=9 / b_pyramid=2 / b_adapt=2 / b_bias=0 / direct=1 / weightb=1 / open_gop=0 / weightp=2 / keyint=250 / keyint_min=23 / scenecut=40 / intra_refresh=0 / rc=crf / mbtree=0 / crf=17.5 / qcomp=0.60 / qpmin=0 / qpmax=69 / qpstep=4 / ip_ratio=1.40 / pb_ratio=1.30 / aq=1:1.00
Language : English
Default : Yes
Forced : No
Audio #1
ID : 2
Format : AC-3
Format/Info : Audio Coding 3
Mode extension : CM (complete main)
Format settings, Endianness : Big
Codec ID : A_AC3
Duration : 2h 12mn
Bit rate mode : Constant
Bit rate : 224 Kbps
Channel count : 2 channels
Channel positions : Front: L R
Sampling rate : 48.0 KHz
Bit depth : 16 bits
Compression mode : Lossy
Stream size : 213 MiB (4%)
Title : dub (Ren-TV)
Language : Russian
Default : Yes
Forced : No
Audio #2
ID : 3
Format : AC-3
Format/Info : Audio Coding 3
Mode extension : CM (complete main)
Format settings, Endianness : Big
Codec ID : A_AC3
Duration : 2h 12mn
Bit rate mode : Constant
Bit rate : 448 Kbps
Channel count : 6 channels
Channel positions : Front: L C R, Side: L R, LFE
Sampling rate : 48.0 KHz
Bit depth : 16 bits
Compression mode : Lossy
Stream size : 425 MiB (7%)
Title : pm (SP Digital / R5)
Language : Russian
Default : No
Forced : No
Audio #3
ID : 4
Format : AC-3
Format/Info : Audio Coding 3
Mode extension : CM (complete main)
Format settings, Endianness : Big
Codec ID : A_AC3
Duration : 2h 12mn
Bit rate mode : Constant
Bit rate : 448 Kbps
Channel count : 6 channels
Channel positions : Front: L C R, Side: L R, LFE
Sampling rate : 48.0 KHz
Bit depth : 16 bits
Compression mode : Lossy
Stream size : 425 MiB (7%)
Title : A1 (Nemaxov)
Language : Russian
Default : No
Forced : No
Audio #4
ID : 5
Format : AC-3
Format/Info : Audio Coding 3
Mode extension : CM (complete main)
Format settings, Endianness : Big
Codec ID : A_AC3
Duration : 2h 12mn
Bit rate mode : Constant
Bit rate : 448 Kbps
Channel count : 6 channels
Channel positions : Front: L C R, Side: L R, LFE
Sampling rate : 48.0 KHz
Bit depth : 16 bits
Compression mode : Lossy
Stream size : 425 MiB (7%)
Title : A1 (Dolsky)
Language : Russian
Default : No
Forced : No
Audio #5
ID : 6
Format : AC-3
Format/Info : Audio Coding 3
Mode extension : CM (complete main)
Format settings, Endianness : Big
Codec ID : A_AC3
Duration : 2h 12mn
Bit rate mode : Constant
Bit rate : 448 Kbps
Channel count : 6 channels
Channel positions : Front: L C R, Side: L R, LFE
Sampling rate : 48.0 KHz
Bit depth : 16 bits
Compression mode : Lossy
Stream size : 425 MiB (7%)
Title : A1 (Ivanov)
Language : Russian
Default : No
Forced : No
Audio #6
ID : 7
Format : AC-3
Format/Info : Audio Coding 3
Mode extension : CM (complete main)
Format settings, Endianness : Big
Codec ID : A_AC3
Duration : 2h 12mn
Bit rate mode : Constant
Bit rate : 448 Kbps
Channel count : 6 channels
Channel positions : Front: L C R, Side: L R, LFE
Sampling rate : 48.0 KHz
Bit depth : 16 bits
Compression mode : Lossy
Stream size : 425 MiB (7%)
Title : original
Language : Russian
Default : No
Forced : No
Text #1
ID : 8
Format : UTF-8
Codec ID : S_TEXT/UTF8
Codec ID/Info : UTF-8 Plain Text
Language : Russian
Default : Yes
Forced : No
Text #2
ID : 9
Format : UTF-8
Codec ID : S_TEXT/UTF8
Codec ID/Info : UTF-8 Plain Text
Language : English
Default : No
Forced : No
- -
Download / Скачать

Хотите скачать бесплатно? Зарегистрируйтесь на сайте (ссылка на регистрацию). Pirat.ca - самый быстрый торрент трекер в рунете!

Как скачивать  ·   Что такое торрент  ·   Рейтинг и ограничения

anton966

10209

Пост 18-Май-2015 20:51 (спустя 12 часов)

[Q] 

Спасибо, Сергей! А ведь и не смотрел вроде.

_________________
" ...потому что во многой мудрости много печали; и кто умножает познания, умножает скорбь" ( Еккл 1:17,18)
[Профиль]  [ЛС] 

doorg

Шкипер

Пост 18-Май-2015 21:54 (спустя 1 час 3 минуты)

[Q] 

спасибо раздающему !
фильм действительно отличный ! как говаривал мой старшина - каждый человек сам кузнец своего счастья и вершитель своей судьбы .
[Профиль]  [ЛС] 

landsir

Шкипер

Пост 19-Май-2015 13:55 (спустя 16 часов)

[Q] 

спасибо за фильм. Автору респект!!!
[Профиль]  [ЛС] 

gross1978 ®

7580

Пост 19-Май-2015 23:11 (спустя 9 часов)

[Q] 

всем пожалуйста, мне понравилось, отличная драма.

_________________
Употребляйте правильно слова, и вы избавите мир от половины недоразумений (Р.Декарт).
Если у Вас есть переводы в авторском, которых нет в моих раздачах и желание ими поделиться, пишите, добавим:)
[Профиль]  [ЛС] 

moltchanov

Штурман

Пост 20-Май-2015 05:19 (спустя 6 часов)

[Q] 

Спасибо за раздачу! Смотрел когда-то, с удовольствием пересмотрю
[Профиль]  [ЛС] 

gross1978 ®

7580

Пост 15-Авг-2015 17:25 (спустя 2 месяца 26 дней)

[Q] 

Пожалуйста! Спасибо за Спасибо

_________________
Употребляйте правильно слова, и вы избавите мир от половины недоразумений (Р.Декарт).
Если у Вас есть переводы в авторском, которых нет в моих раздачах и желание ими поделиться, пишите, добавим:)
[Профиль]  [ЛС] 

Energonn

Штурман

Пост 22-Ноя-2016 21:15 (спустя 1 год 3 месяца)

[Q] 

Супер! Огромное спасибо!!!
[Профиль]  [ЛС] 

gross1978 ®

7580

Пост 24-Ноя-2016 23:50 (спустя 2 дня 2 часа)

[Q] 

Energonn, не за что. Приятного просмотра!

_________________
Употребляйте правильно слова, и вы избавите мир от половины недоразумений (Р.Декарт).
Если у Вас есть переводы в авторском, которых нет в моих раздачах и желание ими поделиться, пишите, добавим:)
[Профиль]  [ЛС] 

Voldun

Корсар

359

Пост 05-Дек-2016 02:23 (спустя 10 дней)

[Q] 

Фильм шикарнейший ! Значительно больше других засыпающих переводчиков понравился перевод Юрия Немахова ! Зуб даю...
[Профиль]  [ЛС] 
Показать сообщения:    
Ответить на тему

Текущее время: Сегодня 23:25

Часовой пояс: GMT + 4



Вы не можете начинать темы
Вы не можете отвечать на сообщения
Вы не можете редактировать свои сообщения
Вы не можете удалять свои сообщения
Вы не можете голосовать в опросах
Вы не можете прикреплять файлы к сообщениям
Вы не можете скачивать файлы

▼ Вниз