Уважаемый Гость!
Вы можете поддержать проект и зарегистрироваться у наших партнеров - онлайн-стратегия MyLands. При регистрации в игре Вы получите код, который сможете активировать после регистрации на pirat.ca и получить 1000 дублонов.

Ваш код:
6cecbff440d0683ee7a93ed2f99efe6b63f73abb
 
     

Русский рукопашный бой по системе А. Кадочникова [2005 г., Боевые искусства, CamRip]

Ответить на тему
 
Автор
Сообщение

Пост 06-Ноя-2011 21:34

[Q] 

Thyrane

Лоцман

Русский рукопашный бой по системе А. Кадочникова
Год выпуска: 2005
Жанр: Боевые искусства
Продолжительность: 09:20:00
В ролях: А.Кадочников
Описание: Учебные фильмы по семинарам А.Кадочникова
Работа с предметами
Основы скоростной стрельбы
Самозащита в автомобиле
Доп. информация: Язык русский
Формат: AVI
Видео кодек: DivX Codec 5.2.1 build 1328
Аудио кодек: MPEG Layer 3
Видео: 512x384 (1.35:1), 25 fps, DivX Codec 5.2.1 build 1328 ~1964 kbps avg, 0.57 bit/pixel
Аудио: 48 kHz, MPEG Layer 3, 2 ch, ~128.55 kbps avg
Общее
Полное имя : C:\Users\Dimon\Downloads\Russkiy.rukopashniy.boy[pirat.ca]\Russkiy.Rukopashniy.boy.0-10.(Russian).[pirat.ca].avi
Формат : AVI
Формат/Информация : Audio Video Interleave
Размер файла : 389 Мбайт
Продолжительность : 1 ч. 1 м.
Общий поток : 884 Кбит/сек
Видео
Идентификатор : 0
Формат : MPEG-4 Visual
Параметр BVOP формата : 1
Параметр QPel формата : Нет
Параметр GMC формата : Без точки перехода
Параметр матрицы формата : Default (H.263)
Режим смешивания : Сжатый битовый поток
Идентификатор кодека : DX50
Идентификатор кодека/Подсказка : DivX 5
Продолжительность : 1 ч. 1 м.
Битрейт : 779 Кбит/сек
Ширина : 512 пикселей
Высота : 384 пикселя
Соотношение сторон : 4:3
Частота кадров : 25,000 кадров/сек
Цветовое пространство : YUV
Субдискретизация насыщенности : 4:2:0
Битовая глубина : 8 бит
Тип развёртки : Прогрессивная
Метод сжатия : С потерями
Бит/(Пиксели*Кадры) : 0.158
Размер потока : 342 Мбайт (88%)
Библиотека кодирования : DivX 5.2.1 (WaffleDay) (UTC 2004-09-08)
Аудио
Идентификатор : 1
Формат : MPEG Audio
Версия формата : Version 1
Профиль формата : Layer 3
Идентификатор кодека : 55
Идентификатор кодека/Подсказка : MP3
Продолжительность : 1 ч. 1 м.
Вид битрейта : Постоянный
Битрейт : 96,0 Кбит/сек
Каналы : 2 канала
Частота : 44,1 КГц
Метод сжатия : С потерями
Задержка видео : 26 мс.
Размер потока : 42,2 Мбайт (11%)
Выравнивание : Разделение по промежуткам
Продолжительность промежутка : 40 мс. (1,00 видеокадр)
Заголовок : Audio Stream
Общее
Полное имя : C:\Users\Dimon\Downloads\Russkiy.rukopashniy.boy[pirat.ca]\Russkiy.Rukopashniy.boy.1-10.(Russian).[pirat.ca].avi
Формат : AVI
Формат/Информация : Audio Video Interleave
Размер файла : 700 Мбайт
Продолжительность : 46 м.
Режим общего битрейта : Переменный
Общий поток : 2107 Кбит/сек
Программа кодирования : VirtualDubMod 1.5.4.1 (build 2178/release)
Библиотека кодирования : VirtualDubMod build 2178/release
Видео
Идентификатор : 0
Формат : MPEG-4 Visual
Параметр BVOP формата : 1
Параметр QPel формата : Нет
Параметр GMC формата : Без точки перехода
Параметр матрицы формата : Default (H.263)
Режим смешивания : Сжатый битовый поток
Идентификатор кодека : DX50
Идентификатор кодека/Подсказка : DivX 5
Продолжительность : 46 м.
Битрейт : 1965 Кбит/сек
Ширина : 512 пикселя
Высота : 384 пикселей
Соотношение сторон : 4:3
Частота кадров : 25,000 кадров/сек
Цветовое пространство : YUV
Субдискретизация насыщенности : 4:2:0
Битовая глубина : 8 бит
Тип развёртки : Прогрессивная
Метод сжатия : С потерями
Бит/(Пиксели*Кадры) : 0.569
Размер потока : 653 Мбайт (93%)
Библиотека кодирования : DivX 5.2.1 (WaffleDay) (UTC 2004-09-08)
Аудио
Идентификатор : 1
Формат : MPEG Audio
Версия формата : Version 1
Профиль формата : Layer 3
Режим : Joint stereo
Расширение режима : MS Stereo
Идентификатор кодека : 55
Идентификатор кодека/Подсказка : MP3
Продолжительность : 46 м.
Вид битрейта : Переменный
Битрейт : 128 Кбит/сек
Каналы : 2 канала
Частота : 48,0 КГц
Метод сжатия : С потерями
Размер потока : 42,7 Мбайт (6%)
Выравнивание : Соединение по промежуткам
Продолжительность промежутка : 24 мс. (0,60 видеокадр)
Время предзагрузки промежутка : 143 мс.
Библиотека кодирования : LAME3.96r
Настройки программы : -m j -V 4 -q 2 -lowpass 17.5 --abr 128
Общее
Полное имя : C:\Users\Dimon\Downloads\Russkiy.rukopashniy.boy[pirat.ca]\Russkiy.Rukopashniy.boy.2-10.(Russian).[pirat.ca].avi
Формат : AVI
Формат/Информация : Audio Video Interleave
Размер файла : 347 Мбайт
Продолжительность : 54 м.
Общий поток : 884 Кбит/сек
Видео
Идентификатор : 0
Формат : MPEG-4 Visual
Параметр BVOP формата : 1
Параметр QPel формата : Нет
Параметр GMC формата : Без точки перехода
Параметр матрицы формата : Default (H.263)
Режим смешивания : Сжатый битовый поток
Идентификатор кодека : DX50
Идентификатор кодека/Подсказка : DivX 5
Продолжительность : 54 м.
Битрейт : 779 Кбит/сек
Ширина : 512 пикселей
Высота : 384 пикселя
Соотношение сторон : 4:3
Частота кадров : 25,000 кадров/сек
Цветовое пространство : YUV
Субдискретизация насыщенности : 4:2:0
Битовая глубина : 8 бит
Тип развёртки : Прогрессивная
Метод сжатия : С потерями
Бит/(Пиксели*Кадры) : 0.158
Размер потока : 305 Мбайт (88%)
Библиотека кодирования : DivX 5.2.1 (WaffleDay) (UTC 2004-09-08)
Аудио
Идентификатор : 1
Формат : MPEG Audio
Версия формата : Version 1
Профиль формата : Layer 3
Идентификатор кодека : 55
Идентификатор кодека/Подсказка : MP3
Продолжительность : 54 м.
Вид битрейта : Постоянный
Битрейт : 96,0 Кбит/сек
Каналы : 2 канала
Частота : 44,1 КГц
Метод сжатия : С потерями
Задержка видео : 26 мс.
Размер потока : 37,6 Мбайт (11%)
Выравнивание : Разделение по промежуткам
Продолжительность промежутка : 40 мс. (1,00 видеокадр)
Заголовок : Audio Stream
Общее
Полное имя : C:\Users\Dimon\Downloads\Russkiy.rukopashniy.boy[pirat.ca]\Russkiy.Rukopashniy.boy.3-10.(Russian).[pirat.ca].avi
Формат : AVI
Формат/Информация : Audio Video Interleave
Размер файла : 368 Мбайт
Продолжительность : 58 м.
Общий поток : 885 Кбит/сек
Видео
Идентификатор : 0
Формат : MPEG-4 Visual
Параметр BVOP формата : 1
Параметр QPel формата : Нет
Параметр GMC формата : Без точки перехода
Параметр матрицы формата : Default (H.263)
Режим смешивания : Сжатый битовый поток
Идентификатор кодека : DX50
Идентификатор кодека/Подсказка : DivX 5
Продолжительность : 58 м.
Битрейт : 779 Кбит/сек
Ширина : 512 пикселей
Высота : 384 пикселя
Соотношение сторон : 4:3
Частота кадров : 25,000 кадров/сек
Цветовое пространство : YUV
Субдискретизация насыщенности : 4:2:0
Битовая глубина : 8 бит
Тип развёртки : Прогрессивная
Метод сжатия : С потерями
Бит/(Пиксели*Кадры) : 0.159
Размер потока : 324 Мбайт (88%)
Библиотека кодирования : DivX 5.2.1 (WaffleDay) (UTC 2004-09-08)
Аудио
Идентификатор : 1
Формат : MPEG Audio
Версия формата : Version 1
Профиль формата : Layer 3
Идентификатор кодека : 55
Идентификатор кодека/Подсказка : MP3
Продолжительность : 58 м.
Вид битрейта : Постоянный
Битрейт : 96,0 Кбит/сек
Каналы : 2 канала
Частота : 44,1 КГц
Метод сжатия : С потерями
Задержка видео : 26 мс.
Размер потока : 39,9 Мбайт (11%)
Выравнивание : Разделение по промежуткам
Продолжительность промежутка : 40 мс. (1,00 видеокадр)
Заголовок : Audio Stream
Общее
Полное имя : C:\Users\Dimon\Downloads\Russkiy.rukopashniy.boy[pirat.ca]\Russkiy.Rukopashniy.boy.4-10.(Russian).[pirat.ca].avi
Формат : AVI
Формат/Информация : Audio Video Interleave
Размер файла : 362 Мбайт
Продолжительность : 57 м.
Общий поток : 885 Кбит/сек
Видео
Идентификатор : 0
Формат : MPEG-4 Visual
Параметр BVOP формата : 1
Параметр QPel формата : Нет
Параметр GMC формата : Без точки перехода
Параметр матрицы формата : Default (H.263)
Режим смешивания : Сжатый битовый поток
Идентификатор кодека : DX50
Идентификатор кодека/Подсказка : DivX 5
Продолжительность : 57 м.
Битрейт : 779 Кбит/сек
Ширина : 512 пикселей
Высота : 384 пикселя
Соотношение сторон : 4:3
Частота кадров : 25,000 кадров/сек
Цветовое пространство : YUV
Субдискретизация насыщенности : 4:2:0
Битовая глубина : 8 бит
Тип развёртки : Прогрессивная
Метод сжатия : С потерями
Бит/(Пиксели*Кадры) : 0.159
Размер потока : 319 Мбайт (88%)
Библиотека кодирования : DivX 5.2.1 (WaffleDay) (UTC 2004-09-08)
Аудио
Идентификатор : 1
Формат : MPEG Audio
Версия формата : Version 1
Профиль формата : Layer 3
Идентификатор кодека : 55
Идентификатор кодека/Подсказка : MP3
Продолжительность : 57 м.
Вид битрейта : Постоянный
Битрейт : 96,0 Кбит/сек
Каналы : 2 канала
Частота : 44,1 КГц
Метод сжатия : С потерями
Задержка видео : 26 мс.
Размер потока : 39,2 Мбайт (11%)
Выравнивание : Разделение по промежуткам
Продолжительность промежутка : 40 мс. (1,00 видеокадр)
Заголовок : Audio Stream
Общее
Полное имя : C:\Users\Dimon\Downloads\Russkiy.rukopashniy.boy[pirat.ca]\Russkiy.Rukopashniy.boy.5-10.(Russian).[pirat.ca].avi
Формат : AVI
Формат/Информация : Audio Video Interleave
Размер файла : 442 Мбайт
Продолжительность : 1 ч. 9 м.
Общий поток : 886 Кбит/сек
Видео
Идентификатор : 0
Формат : MPEG-4 Visual
Параметр BVOP формата : 1
Параметр QPel формата : Нет
Параметр GMC формата : Без точки перехода
Параметр матрицы формата : Default (H.263)
Режим смешивания : Сжатый битовый поток
Идентификатор кодека : DX50
Идентификатор кодека/Подсказка : DivX 5
Продолжительность : 1 ч. 9 м.
Битрейт : 780 Кбит/сек
Ширина : 512 пикселей
Высота : 384 пикселя
Соотношение сторон : 4:3
Частота кадров : 25,000 кадров/сек
Цветовое пространство : YUV
Субдискретизация насыщенности : 4:2:0
Битовая глубина : 8 бит
Тип развёртки : Прогрессивная
Метод сжатия : С потерями
Бит/(Пиксели*Кадры) : 0.159
Размер потока : 389 Мбайт (88%)
Библиотека кодирования : DivX 5.2.1 (WaffleDay) (UTC 2004-09-08)
Аудио
Идентификатор : 1
Формат : MPEG Audio
Версия формата : Version 1
Профиль формата : Layer 3
Идентификатор кодека : 55
Идентификатор кодека/Подсказка : MP3
Продолжительность : 1 ч. 9 м.
Вид битрейта : Постоянный
Битрейт : 96,0 Кбит/сек
Каналы : 2 канала
Частота : 44,1 КГц
Метод сжатия : С потерями
Задержка видео : 26 мс.
Размер потока : 47,9 Мбайт (11%)
Выравнивание : Разделение по промежуткам
Продолжительность промежутка : 40 мс. (1,00 видеокадр)
Заголовок : Audio Stream
Общее
Полное имя : C:\Users\Dimon\Downloads\Russkiy.rukopashniy.boy[pirat.ca]\Russkiy.Rukopashniy.boy.6-10.(Russian).[pirat.ca].avi
Формат : AVI
Формат/Информация : Audio Video Interleave
Настройки формата : rec
Размер файла : 488 Мбайт
Продолжительность : 1 ч. 17 м.
Общий поток : 880 Кбит/сек
Видео
Идентификатор : 0
Формат : MPEG-4 Visual
Параметр BVOP формата : 1
Параметр QPel формата : Нет
Параметр GMC формата : Без точки перехода
Параметр матрицы формата : Default (H.263)
Режим смешивания : Сжатый битовый поток
Идентификатор кодека : DX50
Идентификатор кодека/Подсказка : DivX 5
Продолжительность : 1 ч. 17 м.
Битрейт : 779 Кбит/сек
Ширина : 512 пикселей
Высота : 384 пикселя
Соотношение сторон : 4:3
Частота кадров : 25,000 кадров/сек
Цветовое пространство : YUV
Субдискретизация насыщенности : 4:2:0
Битовая глубина : 8 бит
Тип развёртки : Прогрессивная
Метод сжатия : С потерями
Бит/(Пиксели*Кадры) : 0.158
Размер потока : 432 Мбайт (89%)
Библиотека кодирования : DivX 5.2.1 (WaffleDay) (UTC 2004-09-08)
Аудио
Идентификатор : 1
Формат : MPEG Audio
Версия формата : Version 1
Профиль формата : Layer 3
Идентификатор кодека : 55
Идентификатор кодека/Подсказка : MP3
Продолжительность : 1 ч. 17 м.
Вид битрейта : Постоянный
Битрейт : 96,0 Кбит/сек
Каналы : 2 канала
Частота : 44,1 КГц
Метод сжатия : С потерями
Задержка видео : 26 мс.
Размер потока : 53,2 Мбайт (11%)
Выравнивание : Разделение по промежуткам
Продолжительность промежутка : 3001 мс. (75,03 видеокадров)
Общее
Полное имя : C:\Users\Dimon\Downloads\Russkiy.rukopashniy.boy[pirat.ca]\Russkiy.Rukopashniy.boy.7-10.[pirat.ca].avi
Формат : AVI
Формат/Информация : Audio Video Interleave
Размер файла : 700 Мбайт
Продолжительность : 58 м.
Режим общего битрейта : Переменный
Общий поток : 1675 Кбит/сек
Программа кодирования : VirtualDubMod 1.5.4.1 (build 2178/release)
Библиотека кодирования : VirtualDubMod build 2178/release
Видео
Идентификатор : 0
Формат : MPEG-4 Visual
Параметр BVOP формата : 1
Параметр QPel формата : Нет
Параметр GMC формата : Без точки перехода
Параметр матрицы формата : Default (H.263)
Режим смешивания : Сжатый битовый поток
Идентификатор кодека : DX50
Идентификатор кодека/Подсказка : DivX 5
Продолжительность : 58 м.
Битрейт : 1552 Кбит/сек
Ширина : 496 пикселей
Высота : 384 пикселя
Соотношение сторон : 1,292
Частота кадров : 25,000 кадров/сек
Цветовое пространство : YUV
Субдискретизация насыщенности : 4:2:0
Битовая глубина : 8 бит
Тип развёртки : Прогрессивная
Метод сжатия : С потерями
Бит/(Пиксели*Кадры) : 0.326
Размер потока : 649 Мбайт (93%)
Библиотека кодирования : DivX 5.2.1 (WaffleDay) (UTC 2004-09-08)
Аудио
Идентификатор : 1
Формат : MPEG Audio
Версия формата : Version 1
Профиль формата : Layer 3
Режим : Joint stereo
Расширение режима : MS Stereo
Идентификатор кодека : 55
Идентификатор кодека/Подсказка : MP3
Продолжительность : 58 м.
Вид битрейта : Переменный
Битрейт : 110 Кбит/сек
Номинальный битрейт : 128 Кбит/сек
Каналы : 2 канала
Частота : 48,0 КГц
Метод сжатия : С потерями
Размер потока : 45,8 Мбайт (7%)
Выравнивание : Соединение по промежуткам
Продолжительность промежутка : 24 мс. (0,60 видеокадр)
Время предзагрузки промежутка : 168 мс.
Библиотека кодирования : LAME3.96r
Настройки программы : -m j -V 4 -q 2 -lowpass 17.5 --abr 128
Общее
Полное имя : C:\Users\Dimon\Downloads\Russkiy.rukopashniy.boy[pirat.ca]\Russkiy_Rukopashniy_boy_Kadochnikov_08.[pirat.ca].avi
Формат : AVI
Формат/Информация : Audio Video Interleave
Размер файла : 700 Мбайт
Продолжительность : 1 ч. 10 м.
Общий поток : 1381 Кбит/сек
Программа кодирования : VirtualDubMod 1.5.4.1 (build 2178/release)
Библиотека кодирования : VirtualDubMod build 2178/release
Видео
Идентификатор : 0
Формат : MPEG-4 Visual
Параметр BVOP формата : 1
Параметр QPel формата : Нет
Параметр GMC формата : Без точки перехода
Параметр матрицы формата : Default (H.263)
Режим смешивания : Сжатый битовый поток
Идентификатор кодека : DX50
Идентификатор кодека/Подсказка : DivX 5
Продолжительность : 1 ч. 10 м.
Битрейт : 1277 Кбит/сек
Ширина : 336 пикселей
Высота : 256 пикселей
Соотношение сторон : 4:3
Частота кадров : 25,000 кадров/сек
Цветовое пространство : YUV
Субдискретизация насыщенности : 4:2:0
Битовая глубина : 8 бит
Тип развёртки : Прогрессивная
Метод сжатия : С потерями
Бит/(Пиксели*Кадры) : 0.594
Размер потока : 648 Мбайт (93%)
Библиотека кодирования : DivX 6.0.0 (UTC 2005-06-15)
Аудио
Идентификатор : 1
Формат : MPEG Audio
Версия формата : Version 1
Профиль формата : Layer 3
Режим : Joint stereo
Расширение режима : MS Stereo
Идентификатор кодека : 55
Идентификатор кодека/Подсказка : MP3
Продолжительность : 1 ч. 10 м.
Вид битрейта : Постоянный
Битрейт : 96,0 Кбит/сек
Каналы : 2 канала
Частота : 44,1 КГц
Метод сжатия : С потерями
Размер потока : 48,7 Мбайт (7%)
Выравнивание : Разделение по промежуткам
Продолжительность промежутка : 80 мс. (2,00 видеокадра)
Время предзагрузки промежутка : 500 мс.
Библиотека кодирования : LAME3.96r
Настройки программы : -m j -V 4 -q 2 -lowpass 15.3 -b 96
Общее
Полное имя : C:\Users\Dimon\Downloads\Russkiy.rukopashniy.boy[pirat.ca]\Russian.Martial.Arts.-.Systema.-.09.Kadochnikov.[pirat.ca].avi
Формат : AVI
Формат/Информация : Audio Video Interleave
Размер файла : 700 Мбайт
Продолжительность : 57 м.
Режим общего битрейта : Переменный
Общий поток : 1710 Кбит/сек
Программа кодирования : VirtualDubMod 1.5.4.1 (build 2178/release)
Библиотека кодирования : VirtualDubMod build 2178/release
Видео
Идентификатор : 0
Формат : MPEG-4 Visual
Параметр BVOP формата : 1
Параметр QPel формата : Нет
Параметр GMC формата : Без точки перехода
Параметр матрицы формата : Default (H.263)
Режим смешивания : Сжатый битовый поток
Идентификатор кодека : DX50
Идентификатор кодека/Подсказка : DivX 5
Продолжительность : 57 м.
Битрейт : 1505 Кбит/сек
Ширина : 400 пикселей
Высота : 288 пикселей
Соотношение сторон : 1,389
Частота кадров : 25,000 кадров/сек
Цветовое пространство : YUV
Субдискретизация насыщенности : 4:2:0
Битовая глубина : 8 бит
Тип развёртки : Прогрессивная
Метод сжатия : С потерями
Бит/(Пиксели*Кадры) : 0.523
Размер потока : 616 Мбайт (88%)
Библиотека кодирования : DivX 5.2.1 (WaffleDay) (UTC 2004-09-08)
Аудио
Идентификатор : 1
Формат : MPEG Audio
Версия формата : Version 1
Профиль формата : Layer 3
Режим : Joint stereo
Расширение режима : MS Stereo
Идентификатор кодека : 55
Идентификатор кодека/Подсказка : MP3
Продолжительность : 57 м.
Вид битрейта : Переменный
Битрейт : 128 Кбит/сек
Каналы : 2 канала
Частота : 48,0 КГц
Метод сжатия : С потерями
Размер потока : 52,4 Мбайт (7%)
Выравнивание : Соединение по промежуткам
Библиотека кодирования : LAME3.96r
Настройки программы : -m j -V 4 -q 2 -lowpass 17.5 --abr 128



Download / Скачать

Хотите скачать бесплатно? Зарегистрируйтесь на сайте (ссылка на регистрацию). Pirat.ca - самый быстрый торрент трекер в рунете!

Как скачивать  ·   Что такое торрент  ·   Рейтинг и ограничения



Последний раз редактировалось: Thyrane (2011-11-07 22:36), всего редактировалось 4 раз(а)

Пост 07-Ноя-2011 22:41 (спустя 1 день 1 час)

Топик был перенесен из форума Обучающие видео / Интерактивное Обучающее видео в форум Рукопашный бой

CaptRom
 

ivanov-2008

Штурман

Пост 11-Ноя-2011 09:00 (спустя 4 дня)

[Q] 

Давно искал. Спасибо
[Профиль]  [ЛС] 

Боцман

1738

Пост 19-Ноя-2011 10:37 (спустя 8 дней)

[Q] 

Если хэш сойдётся - поддержу раздачу

_________________
не верь не бойся не проси не плачь...
[Профиль]  [ЛС] 

XAPOH

Гроза морей

Пост 24-Ноя-2011 13:12 (спустя 5 дней)

[Q] 

Спасибо!

_________________

<<<Dolus an virtus quis in hoste requirat?>>>
Intel Core i7 2600, 16Gb Ram, GTX 670, SSD.
PS4.
[Профиль]  [ЛС] 

Боцман

1738

Пост 24-Ноя-2011 15:12 (спустя 1 час 59 минут)

[Q] 

Увы.. не сошёлся... но встал качать

_________________
не верь не бойся не проси не плачь...
[Профиль]  [ЛС] 

U-858

Флибустьер

Пост 28-Янв-2012 23:39 (спустя 2 месяца 4 дня)

[Q] 

ОГРОМНОЕ СПАСИБО.
[Профиль]  [ЛС] 

FlameSerafim

Лоцман

Пост 04-Мар-2012 00:21 (спустя 1 месяц 6 дней)

[Q] 

[Профиль]  [ЛС] 

Александр44

Корсар

Пост 06-Июн-2012 01:04 (спустя 3 месяца 2 дня)

[Q] 

[Профиль]  [ЛС] 

vpadina

Легенда

91

Пост 06-Июл-2014 22:19 (спустя 2 года 1 месяц)

[Q] 

СПАСИБО ЗА ТРУДЫ!!!
[Профиль]  [ЛС] 

vinibek2

Морской Волк

Пост 12-Июл-2014 10:43 (спустя 5 дней)

[Q] 

Все фильмы или нет?
[Профиль]  [ЛС] 

vladimir_ai

Морской Волк

Пост 18-Дек-2016 00:47 (спустя 2 года 5 месяцев)

[Q] 

Нет кнопки"Спасибо"... Вероятно, потому, что по русски правильнее в этой раздаче сделать кнопку "Благодарю".
Благодарю!
[Профиль]  [ЛС] 
Показать сообщения:    
Ответить на тему

Текущее время: Сегодня 17:51

Часовой пояс: GMT + 4



Вы не можете начинать темы
Вы не можете отвечать на сообщения
Вы не можете редактировать свои сообщения
Вы не можете удалять свои сообщения
Вы не можете голосовать в опросах
Вы не можете прикреплять файлы к сообщениям
Вы не можете скачивать файлы

▼ Вниз