(Pop-Rock) VA - Top Of The Pops (2001-2006) (3CD) - 2016 [FLAC, tracks +.cue, lossless]

Ответить на тему
 
Автор
Сообщение

Пост 22-Дек-2016 16:01

[Q] 

sergej644

-VA - Top Of The Pops (2001-2006) (3CD)--
Год издания: 2016
Страна:
Жанр: Pop-Rock
Продолжительность: 03:44:58-Лейбл издания: Spectrum Music
Страна-выпуска диска: EU
Номер по каталогу: 5370460-Формат: FLAC
Битрейт аудио: Lossless
Тип рипа: tracks +.cue
Наличие сканов в содержимом раздачи: да
-

01.Gnarls Barkley - Crazy(2:59)
02.The Pussycat Dolls Feat. Busta Rhymes - Don't Cha(3:38)
03.S Club 7 - Don't Stop Movin'(3:54)
04.Sugababes - Push The Button(3:41)
05.Girls Aloud - Love Machine(3:26)
06.Liberty X - Just A Little(3:52)
07.Nelly Furtado - Maneater(4:19)
08.HearSay - Pure & Simple(3:45)
09.Scissor Sisters - I Don't Feel Like Dancin'(4:09)
10.Sophie Ellis-Bextor - Murder On The Dancefloor(3:50)
11.Eric Prydz - Call On Me(2:51)
12.Underworld - Two Months Off(9:09)
13.Fatman Scoop Feat. The Crooklyn Clan - Be Faithful(2:45)
14.Room 5 Feat. Oliver Cheatham - Make Luv(3:30)
15.Samantha Mumba - Always Come Back To Your Love(3:54)
16.Emma Bunton - What Took You So Long!(3:43)
17.Orson - No Tomorrow(2:49)
18.Texas - Inner Smile(3:50)
19.Appleton - Fantasy(3:48)
20.t.A.T.u. - All The Things She Said(3:33)

01.Alien Ant Farm - Smooth Criminal(3:30)
02.The Darkness - I Believe In A Thing Called Love(3:36)
03.Fall Out Boy - Dance Dance(3:00)
04.Sum 41 - Fat Lip(3:01)
05.Papa Roach - Last Resort(3:20)
06.Maroon 5 - This Love(3:26)
07.The Kooks - Naive(3:23)
08.Busted - Year 3000(3:16)
09.The Calling - Wherever You Will Go(3:28)
10.Nickelback - How You Remind Me(3:44)
11.Meat Loaf - It's All Coming Back To Me Now(4:11)
12.Razorlight - America(4:10)
13.Daniel Powter - Bad Day(3:54)
14.Avril Lavigne - Complicated(4:05)
15.Stereophonics - Maybe Tomorrow(3:56)
16.Anastacia - Left Outside Alone(3:57)
17.The Feeling - Sewn(3:48)
18.Take That - Patience(3:23)
19.James Morrison - You Give Me Something(3:33)
20.Atomic Kitten - Whole Again(3:06)
21.Appleton - Don't Worry(4:19)

01.OutKast - Hey Ya!(3:56)
02.50 Cent - In Da Club(3:46)
03.Nelly Feat. City Spud - Ride Wit Me(4:50)
04.Ne-Yo - So Sick(3:27)
05.Ms. Dynamite - Dy-Na-Mi-Tee(3:39)
06.The Black Eyed Peas - Shut Up(4:56)
07.Mya - Case Of The Ex(3:56)
08.Christina Milian - Dip It Low(3:21)
09.Lumidee - Never Leave You(3:05)
10.Shaggy Feat. Ricardo 'RikRok' Ducent - It Wasn't Me(3:49)
11.Sergio Mendes Feat. The Black Eyed Peas - Mas Que Nada(3:33)
12.Sugababes - Round Round(3:56)
13.Girls Aloud - Sound Of The Underground(3:40)
14.Liberty X - Being Nobody(3:36)
15.Busted - Sleeping With The Light On(3:38)
16.Mark Owen - Four Minute Warning(4:05)
17.Blue - One Love(3:25)
18.Gabrielle - Out Of Reach(3:15)
19.Ronan Keating - If Tomorrow Never Comes(3:35)
-
Код:
Exact Audio Copy V1.3 from 2. September 2016
EAC extraction logfile from 5. November 2016, 0:55
Various / Top Of The Pops - 2001-2006 - Disc - 01
Used drive  : HL-DT-STDVDRAM GSA-E40N   Adapter: 1  ID: 1
Read mode               : Secure
Utilize accurate stream : Yes
Defeat audio cache      : No
Make use of C2 pointers : Yes
Combined read/write offset correction       : 0
Overread into Lead-In and Lead-Out          : No
Fill up missing offset samples with silence : Yes
Delete leading and trailing silent blocks   : No
Null samples used in CRC calculations       : Yes
Used interface                              : Native Win32 interface for Win NT & 2000
Gap handling                                : Not detected, thus appended to previous track
Used output format              : User Defined Encoder
Selected bitrate                : 896 kBit/s
Quality                         : High
Add ID3 tag                     : No
Command line compressor         : C:\Program Files (x86)\Exact Audio Copy\FLAC\FLAC.EXE
Additional command line options : -6 -V -T "ARTIST=%artist%" -T "TITLE=%title%" -T "ALBUM=%albumtitle%" -T "DATE=%year%" -T "TRACKNUMBER=%tracknr%" -T "GENRE=%genre%" -T "COMMENT=%comment%" -T "BAND=%albuminterpret%" -T "ALBUMARTIST=%albuminterpret%" -T "COMPOSER=%composer%" %haslyrics%--tag-from-file=LYRICS="%lyricsfile%"%haslyrics% -T "DISCNUMBER=%cdnumber%" -T "TOTALDISCS=%totalcds%" -T "TOTALTRACKS=%numtracks%" %hascover%--picture="%coverfile%"%hascover% %source% -o %dest%
TOC of the extracted CD
     Track |   Start  |  Length  | Start sector | End sector
    ---------------------------------------------------------
        1  |  0:00.00 |  2:59.18 |         0    |    13442
        2  |  2:59.18 |  3:38.06 |     13443    |    29798
        3  |  6:37.24 |  3:53.57 |     29799    |    47330
        4  | 10:31.06 |  3:40.42 |     47331    |    63872
        5  | 14:11.48 |  3:26.15 |     63873    |    79337
        6  | 17:37.63 |  3:51.59 |     79338    |    96721
        7  | 21:29.47 |  4:18.69 |     96722    |   116140
        8  | 25:48.41 |  3:45.28 |    116141    |   133043
        9  | 29:33.69 |  4:08.48 |    133044    |   151691
       10  | 33:42.42 |  3:49.43 |    151692    |   168909
       11  | 37:32.10 |  2:51.27 |    168910    |   181761
       12  | 40:23.37 |  9:08.42 |    181762    |   222903
       13  | 49:32.04 |  2:45.36 |    222904    |   235314
       14  | 52:17.40 |  3:29.58 |    235315    |   251047
       15  | 55:47.23 |  3:53.65 |    251048    |   268587
       16  | 59:41.13 |  3:42.50 |    268588    |   285287
       17  | 63:23.63 |  2:48.56 |    285288    |   297943
       18  | 66:12.44 |  3:49.59 |    297944    |   315177
       19  | 70:02.28 |  3:47.42 |    315178    |   332244
       20  | 73:49.70 |  3:32.46 |    332245    |   348190
Track  1
     Filename F:\FLAC MUSIC\00'S\Top Of The Pops\Top Of The Pops - 2001-2006\TOTP - 2001-2006 - Disc - 01\01.Gnarls Barkley - Crazy.wav
     Peak level 100.0 %
     Extraction speed 4.9 X
     Track quality 98.9 %
     Copy CRC E3DCDB3C
     Copy OK
Track  2
     Filename F:\FLAC MUSIC\00'S\Top Of The Pops\Top Of The Pops - 2001-2006\TOTP - 2001-2006 - Disc - 01\02.The Pussycat Dolls Feat. Busta Rhymes - Don't Cha.wav
     Peak level 100.0 %
     Extraction speed 14.2 X
     Track quality 99.8 %
     Copy CRC 3C026859
     Copy OK
Track  3
     Filename F:\FLAC MUSIC\00'S\Top Of The Pops\Top Of The Pops - 2001-2006\TOTP - 2001-2006 - Disc - 01\03.S Club 7 - Don't Stop Movin'.wav
     Peak level 100.0 %
     Extraction speed 14.3 X
     Track quality 99.8 %
     Copy CRC 2C959539
     Copy OK
Track  4
     Filename F:\FLAC MUSIC\00'S\Top Of The Pops\Top Of The Pops - 2001-2006\TOTP - 2001-2006 - Disc - 01\04.Sugababes - Push The Button.wav
     Peak level 100.0 %
     Extraction speed 22.4 X
     Track quality 100.0 %
     Copy CRC E5E8E94A
     Copy OK
Track  5
     Filename F:\FLAC MUSIC\00'S\Top Of The Pops\Top Of The Pops - 2001-2006\TOTP - 2001-2006 - Disc - 01\05.Girls Aloud - Love Machine.wav
     Peak level 100.0 %
     Extraction speed 20.2 X
     Track quality 99.8 %
     Copy CRC 2FFED004
     Copy OK
Track  6
     Filename F:\FLAC MUSIC\00'S\Top Of The Pops\Top Of The Pops - 2001-2006\TOTP - 2001-2006 - Disc - 01\06.Liberty X - Just A Little.wav
     Peak level 100.0 %
     Extraction speed 25.0 X
     Track quality 100.0 %
     Copy CRC 117E57F3
     Copy OK
Track  7
     Filename F:\FLAC MUSIC\00'S\Top Of The Pops\Top Of The Pops - 2001-2006\TOTP - 2001-2006 - Disc - 01\07.Nelly Furtado - Maneater.wav
     Peak level 100.0 %
     Extraction speed 24.2 X
     Track quality 100.0 %
     Copy CRC 8380CBFE
     Copy OK
Track  8
     Filename F:\FLAC MUSIC\00'S\Top Of The Pops\Top Of The Pops - 2001-2006\TOTP - 2001-2006 - Disc - 01\08.HearSay - Pure & Simple.wav
     Peak level 83.4 %
     Extraction speed 27.9 X
     Track quality 100.0 %
     Copy CRC 06B00BA8
     Copy OK
Track  9
     Filename F:\FLAC MUSIC\00'S\Top Of The Pops\Top Of The Pops - 2001-2006\TOTP - 2001-2006 - Disc - 01\09.Scissor Sisters - I Don't Feel Like Dancin'.wav
     Peak level 100.0 %
     Extraction speed 29.0 X
     Track quality 100.0 %
     Copy CRC 22FB0157
     Copy OK
Track 10
     Filename F:\FLAC MUSIC\00'S\Top Of The Pops\Top Of The Pops - 2001-2006\TOTP - 2001-2006 - Disc - 01\10.Sophie Ellis-Bextor - Murder On The Dancefloor.wav
     Peak level 100.0 %
     Extraction speed 29.9 X
     Track quality 100.0 %
     Copy CRC 59E06B38
     Copy OK
Track 11
     Filename F:\FLAC MUSIC\00'S\Top Of The Pops\Top Of The Pops - 2001-2006\TOTP - 2001-2006 - Disc - 01\11.Eric Prydz - Call On Me.wav
     Peak level 100.0 %
     Extraction speed 26.0 X
     Track quality 100.0 %
     Copy CRC F656DE36
     Copy OK
Track 12
     Filename F:\FLAC MUSIC\00'S\Top Of The Pops\Top Of The Pops - 2001-2006\TOTP - 2001-2006 - Disc - 01\12.Underworld - Two Months Off.wav
     Peak level 100.0 %
     Extraction speed 31.4 X
     Track quality 100.0 %
     Copy CRC 4E58692E
     Copy OK
Track 13
     Filename F:\FLAC MUSIC\00'S\Top Of The Pops\Top Of The Pops - 2001-2006\TOTP - 2001-2006 - Disc - 01\13.Fatman Scoop Feat. The Crooklyn Clan - Be Faithful.wav
     Peak level 100.0 %
     Extraction speed 33.5 X
     Track quality 100.0 %
     Copy CRC 838AF0DD
     Copy OK
Track 14
     Filename F:\FLAC MUSIC\00'S\Top Of The Pops\Top Of The Pops - 2001-2006\TOTP - 2001-2006 - Disc - 01\14.Room 5 Feat. Oliver Cheatham - Make Luv.wav
     Peak level 100.0 %
     Extraction speed 34.0 X
     Track quality 100.0 %
     Copy CRC 71C3E34A
     Copy OK
Track 15
     Filename F:\FLAC MUSIC\00'S\Top Of The Pops\Top Of The Pops - 2001-2006\TOTP - 2001-2006 - Disc - 01\15.Samantha Mumba - Always Come Back To Your Love.wav
     Peak level 100.0 %
     Extraction speed 30.4 X
     Track quality 100.0 %
     Copy CRC 2E14968B
     Copy OK
Track 16
     Filename F:\FLAC MUSIC\00'S\Top Of The Pops\Top Of The Pops - 2001-2006\TOTP - 2001-2006 - Disc - 01\16.Emma Bunton - What Took You So Long!.wav
     Peak level 100.0 %
     Extraction speed 30.4 X
     Track quality 100.0 %
     Copy CRC 390F52AE
     Copy OK
Track 17
     Filename F:\FLAC MUSIC\00'S\Top Of The Pops\Top Of The Pops - 2001-2006\TOTP - 2001-2006 - Disc - 01\17.Orson - No Tomorrow.wav
     Peak level 100.0 %
     Extraction speed 30.6 X
     Track quality 100.0 %
     Copy CRC E14CF446
     Copy OK
Track 18
     Filename F:\FLAC MUSIC\00'S\Top Of The Pops\Top Of The Pops - 2001-2006\TOTP - 2001-2006 - Disc - 01\18.Texas - Inner Smile.wav
     Peak level 96.4 %
     Extraction speed 30.4 X
     Track quality 99.9 %
     Copy CRC 31E4FC67
     Copy OK
Track 19
     Filename F:\FLAC MUSIC\00'S\Top Of The Pops\Top Of The Pops - 2001-2006\TOTP - 2001-2006 - Disc - 01\19.Appleton - Fantasy.wav
     Peak level 100.0 %
     Extraction speed 30.1 X
     Track quality 99.9 %
     Copy CRC ED2691AB
     Copy OK
Track 20
     Filename F:\FLAC MUSIC\00'S\Top Of The Pops\Top Of The Pops - 2001-2006\TOTP - 2001-2006 - Disc - 01\20.t.A.T.u. - All The Things She Said.wav
     Peak level 100.0 %
     Extraction speed 37.3 X
     Track quality 100.0 %
     Copy CRC BD9BD0E0
     Copy OK
No errors occurred
End of status report
Код:
Exact Audio Copy V1.3 from 2. September 2016
EAC extraction logfile from 5. November 2016, 2:10
Various / Top Of The Pops - 2001-2006 - Disc - 02
Used drive  : HL-DT-STDVDRAM GSA-E40N   Adapter: 1  ID: 1
Read mode               : Secure
Utilize accurate stream : Yes
Defeat audio cache      : No
Make use of C2 pointers : Yes
Combined read/write offset correction       : 0
Overread into Lead-In and Lead-Out          : No
Fill up missing offset samples with silence : Yes
Delete leading and trailing silent blocks   : No
Null samples used in CRC calculations       : Yes
Used interface                              : Native Win32 interface for Win NT & 2000
Gap handling                                : Not detected, thus appended to previous track
Used output format              : User Defined Encoder
Selected bitrate                : 896 kBit/s
Quality                         : High
Add ID3 tag                     : No
Command line compressor         : C:\Program Files (x86)\Exact Audio Copy\FLAC\FLAC.EXE
Additional command line options : -6 -V -T "ARTIST=%artist%" -T "TITLE=%title%" -T "ALBUM=%albumtitle%" -T "DATE=%year%" -T "TRACKNUMBER=%tracknr%" -T "GENRE=%genre%" -T "COMMENT=%comment%" -T "BAND=%albuminterpret%" -T "ALBUMARTIST=%albuminterpret%" -T "COMPOSER=%composer%" %haslyrics%--tag-from-file=LYRICS="%lyricsfile%"%haslyrics% -T "DISCNUMBER=%cdnumber%" -T "TOTALDISCS=%totalcds%" -T "TOTALTRACKS=%numtracks%" %hascover%--picture="%coverfile%"%hascover% %source% -o %dest%
TOC of the extracted CD
     Track |   Start  |  Length  | Start sector | End sector
    ---------------------------------------------------------
        1  |  0:00.00 |  3:30.10 |         0    |    15759
        2  |  3:30.10 |  3:36.08 |     15760    |    31967
        3  |  7:06.18 |  3:00.20 |     31968    |    45487
        4  | 10:06.38 |  3:00.68 |     45488    |    59055
        5  | 13:07.31 |  3:19.57 |     59056    |    74037
        6  | 16:27.13 |  3:25.59 |     74038    |    89471
        7  | 19:52.72 |  3:22.62 |     89472    |   104683
        8  | 23:15.59 |  3:16.02 |    104684    |   119385
        9  | 26:31.61 |  3:28.30 |    119386    |   135015
       10  | 30:00.16 |  3:43.61 |    135016    |   151801
       11  | 33:44.02 |  4:11.37 |    151802    |   170663
       12  | 37:55.39 |  4:09.57 |    170664    |   189395
       13  | 42:05.21 |  3:53.63 |    189396    |   206933
       14  | 45:59.09 |  4:04.38 |    206934    |   225271
       15  | 50:03.47 |  3:56.21 |    225272    |   242992
       16  | 53:59.68 |  3:56.72 |    242993    |   260764
       17  | 57:56.65 |  3:47.56 |    260765    |   277845
       18  | 61:44.46 |  3:23.13 |    277846    |   293083
       19  | 65:07.59 |  3:32.73 |    293084    |   309056
       20  | 68:40.57 |  3:05.62 |    309057    |   322993
       21  | 71:46.44 |  4:18.66 |    322994    |   342409
Track  1
     Filename F:\FLAC MUSIC\00'S\Top Of The Pops\Top Of The Pops - 2001-2006\TOTP - 2001-2006 - Disc - 02\01.Alien Ant Farm - Smooth Criminal.wav
     Peak level 100.0 %
     Extraction speed 11.0 X
     Track quality 100.0 %
     Copy CRC 9CAF6344
     Copy OK
Track  2
     Filename F:\FLAC MUSIC\00'S\Top Of The Pops\Top Of The Pops - 2001-2006\TOTP - 2001-2006 - Disc - 02\02.The Darkness - I Believe In A Thing Called Love.wav
     Peak level 100.0 %
     Extraction speed 12.1 X
     Track quality 100.0 %
     Copy CRC CBEA203B
     Copy OK
Track  3
     Filename F:\FLAC MUSIC\00'S\Top Of The Pops\Top Of The Pops - 2001-2006\TOTP - 2001-2006 - Disc - 02\03.Fall Out Boy - Dance Dance.wav
     Peak level 100.0 %
     Extraction speed 11.5 X
     Track quality 100.0 %
     Copy CRC 9058989F
     Copy OK
Track  4
     Filename F:\FLAC MUSIC\00'S\Top Of The Pops\Top Of The Pops - 2001-2006\TOTP - 2001-2006 - Disc - 02\04.Sum 41 - Fat Lip.wav
     Peak level 100.0 %
     Extraction speed 12.0 X
     Track quality 100.0 %
     Copy CRC 28462DCA
     Copy OK
Track  5
     Filename F:\FLAC MUSIC\00'S\Top Of The Pops\Top Of The Pops - 2001-2006\TOTP - 2001-2006 - Disc - 02\05.Papa Roach - Last Resort.wav
     Peak level 100.0 %
     Extraction speed 12.8 X
     Track quality 100.0 %
     Copy CRC 492B77E9
     Copy OK
Track  6
     Filename F:\FLAC MUSIC\00'S\Top Of The Pops\Top Of The Pops - 2001-2006\TOTP - 2001-2006 - Disc - 02\06.Maroon 5 - This Love.wav
     Peak level 100.0 %
     Extraction speed 13.6 X
     Track quality 100.0 %
     Copy CRC C7E96A4D
     Copy OK
Track  7
     Filename F:\FLAC MUSIC\00'S\Top Of The Pops\Top Of The Pops - 2001-2006\TOTP - 2001-2006 - Disc - 02\07.The Kooks - Naive.wav
     Peak level 99.6 %
     Extraction speed 15.8 X
     Track quality 100.0 %
     Copy CRC EC98FEC3
     Copy OK
Track  8
     Filename F:\FLAC MUSIC\00'S\Top Of The Pops\Top Of The Pops - 2001-2006\TOTP - 2001-2006 - Disc - 02\08.Busted - Year 3000.wav
     Peak level 100.0 %
     Extraction speed 16.5 X
     Track quality 100.0 %
     Copy CRC F5AF8A86
     Copy OK
Track  9
     Filename F:\FLAC MUSIC\00'S\Top Of The Pops\Top Of The Pops - 2001-2006\TOTP - 2001-2006 - Disc - 02\09.The Calling - Wherever You Will Go.wav
     Peak level 100.0 %
     Extraction speed 15.4 X
     Track quality 99.8 %
     Copy CRC 89FA514A
     Copy OK
Track 10
     Filename F:\FLAC MUSIC\00'S\Top Of The Pops\Top Of The Pops - 2001-2006\TOTP - 2001-2006 - Disc - 02\10.Nickelback - How You Remind Me.wav
     Peak level 100.0 %
     Extraction speed 17.7 X
     Track quality 100.0 %
     Copy CRC 75CE0BA2
     Copy OK
Track 11
     Filename F:\FLAC MUSIC\00'S\Top Of The Pops\Top Of The Pops - 2001-2006\TOTP - 2001-2006 - Disc - 02\11.Meat Loaf - It's All Coming Back To Me Now.wav
     Peak level 99.7 %
     Extraction speed 18.7 X
     Track quality 100.0 %
     Copy CRC BFEB48B3
     Copy OK
Track 12
     Filename F:\FLAC MUSIC\00'S\Top Of The Pops\Top Of The Pops - 2001-2006\TOTP - 2001-2006 - Disc - 02\12.Razorlight - America.wav
     Peak level 100.0 %
     Extraction speed 17.4 X
     Track quality 100.0 %
     Copy CRC 9ACB4497
     Copy OK
Track 13
     Filename F:\FLAC MUSIC\00'S\Top Of The Pops\Top Of The Pops - 2001-2006\TOTP - 2001-2006 - Disc - 02\13.Daniel Powter - Bad Day.wav
     Peak level 100.0 %
     Extraction speed 17.7 X
     Track quality 100.0 %
     Copy CRC 57AA2E97
     Copy OK
Track 14
     Filename F:\FLAC MUSIC\00'S\Top Of The Pops\Top Of The Pops - 2001-2006\TOTP - 2001-2006 - Disc - 02\14.Avril Lavigne - Complicated.wav
     Peak level 100.0 %
     Extraction speed 20.5 X
     Track quality 100.0 %
     Copy CRC B5CF9450
     Copy OK
Track 15
     Filename F:\FLAC MUSIC\00'S\Top Of The Pops\Top Of The Pops - 2001-2006\TOTP - 2001-2006 - Disc - 02\15.Stereophonics - Maybe Tomorrow.wav
     Peak level 98.7 %
     Extraction speed 19.1 X
     Track quality 100.0 %
     Copy CRC 9C7F7A3B
     Copy OK
Track 16
     Filename F:\FLAC MUSIC\00'S\Top Of The Pops\Top Of The Pops - 2001-2006\TOTP - 2001-2006 - Disc - 02\16.Anastacia - Left Outside Alone.wav
     Peak level 97.2 %
     Extraction speed 19.6 X
     Track quality 100.0 %
     Copy CRC 6AE32B12
     Copy OK
Track 17
     Filename F:\FLAC MUSIC\00'S\Top Of The Pops\Top Of The Pops - 2001-2006\TOTP - 2001-2006 - Disc - 02\17.The Feeling - Sewn.wav
     Peak level 100.0 %
     Extraction speed 19.9 X
     Track quality 100.0 %
     Copy CRC 1D7A2615
     Copy OK
Track 18
     Filename F:\FLAC MUSIC\00'S\Top Of The Pops\Top Of The Pops - 2001-2006\TOTP - 2001-2006 - Disc - 02\18.Take That - Patience.wav
     Peak level 100.0 %
     Extraction speed 19.9 X
     Track quality 100.0 %
     Copy CRC 64073949
     Copy OK
Track 19
     Filename F:\FLAC MUSIC\00'S\Top Of The Pops\Top Of The Pops - 2001-2006\TOTP - 2001-2006 - Disc - 02\19.James Morrison - You Give Me Something.wav
     Peak level 100.0 %
     Extraction speed 23.4 X
     Track quality 100.0 %
     Copy CRC 3064FCF3
     Copy OK
Track 20
     Filename F:\FLAC MUSIC\00'S\Top Of The Pops\Top Of The Pops - 2001-2006\TOTP - 2001-2006 - Disc - 02\20.Atomic Kitten - Whole Again.wav
     Peak level 100.0 %
     Extraction speed 23.8 X
     Track quality 100.0 %
     Copy CRC 53DBB15E
     Copy OK
Track 21
     Filename F:\FLAC MUSIC\00'S\Top Of The Pops\Top Of The Pops - 2001-2006\TOTP - 2001-2006 - Disc - 02\21.Appleton - Don't Worry.wav
     Peak level 100.0 %
     Extraction speed 24.3 X
     Track quality 100.0 %
     Copy CRC 4716D081
     Copy OK
No errors occurred
End of status report
Код:
Exact Audio Copy V1.3 from 2. September 2016
EAC extraction logfile from 5. November 2016, 7:27
Various / Top Of The Pops - 2001-2006 - Disc - 03
Used drive  : HL-DT-STDVDRAM GSA-E40N   Adapter: 1  ID: 1
Read mode               : Secure
Utilize accurate stream : Yes
Defeat audio cache      : No
Make use of C2 pointers : Yes
Combined read/write offset correction       : 0
Overread into Lead-In and Lead-Out          : No
Fill up missing offset samples with silence : Yes
Delete leading and trailing silent blocks   : No
Null samples used in CRC calculations       : Yes
Used interface                              : Native Win32 interface for Win NT & 2000
Gap handling                                : Not detected, thus appended to previous track
Used output format              : User Defined Encoder
Selected bitrate                : 896 kBit/s
Quality                         : High
Add ID3 tag                     : No
Command line compressor         : C:\Program Files (x86)\Exact Audio Copy\FLAC\FLAC.EXE
Additional command line options : -6 -V -T "ARTIST=%artist%" -T "TITLE=%title%" -T "ALBUM=%albumtitle%" -T "DATE=%year%" -T "TRACKNUMBER=%tracknr%" -T "GENRE=%genre%" -T "COMMENT=%comment%" -T "BAND=%albuminterpret%" -T "ALBUMARTIST=%albuminterpret%" -T "COMPOSER=%composer%" %haslyrics%--tag-from-file=LYRICS="%lyricsfile%"%haslyrics% -T "DISCNUMBER=%cdnumber%" -T "TOTALDISCS=%totalcds%" -T "TOTALTRACKS=%numtracks%" %hascover%--picture="%coverfile%"%hascover% %source% -o %dest%
TOC of the extracted CD
     Track |   Start  |  Length  | Start sector | End sector
    ---------------------------------------------------------
        1  |  0:00.00 |  3:56.06 |         0    |    17705
        2  |  3:56.06 |  3:46.06 |     17706    |    34661
        3  |  7:42.12 |  4:50.03 |     34662    |    56414
        4  | 12:32.15 |  3:27.23 |     56415    |    71962
        5  | 15:59.38 |  3:39.19 |     71963    |    88406
        6  | 19:38.57 |  4:56.14 |     88407    |   110620
        7  | 24:34.71 |  3:55.67 |    110621    |   128312
        8  | 28:30.63 |  3:21.00 |    128313    |   143387
        9  | 31:51.63 |  3:04.53 |    143388    |   157240
       10  | 34:56.41 |  3:49.12 |    157241    |   174427
       11  | 38:45.53 |  3:33.22 |    174428    |   190424
       12  | 42:19.00 |  3:56.32 |    190425    |   208156
       13  | 46:15.32 |  3:39.44 |    208157    |   224625
       14  | 49:55.01 |  3:36.22 |    224626    |   240847
       15  | 53:31.23 |  3:38.02 |    240848    |   257199
       16  | 57:09.25 |  4:05.03 |    257200    |   275577
       17  | 61:14.28 |  3:24.58 |    275578    |   290935
       18  | 64:39.11 |  3:15.33 |    290936    |   305593
       19  | 67:54.44 |  3:35.34 |    305594    |   321752
Track  1
     Filename F:\FLAC MUSIC\00'S\Top Of The Pops\Top Of The Pops - 2001-2006\TOTP - 2001-2006 - Disc - 03\01.OutKast - Hey Ya!.wav
     Peak level 100.0 %
     Extraction speed 16.6 X
     Track quality 100.0 %
     Copy CRC 32F1FAF5
     Copy OK
Track  2
     Filename F:\FLAC MUSIC\00'S\Top Of The Pops\Top Of The Pops - 2001-2006\TOTP - 2001-2006 - Disc - 03\02.50 Cent - In Da Club.wav
     Peak level 100.0 %
     Extraction speed 20.3 X
     Track quality 100.0 %
     Copy CRC 8A807043
     Copy OK
Track  3
     Filename F:\FLAC MUSIC\00'S\Top Of The Pops\Top Of The Pops - 2001-2006\TOTP - 2001-2006 - Disc - 03\03.Nelly Feat. City Spud - Ride Wit Me.wav
     Peak level 100.0 %
     Extraction speed 22.4 X
     Track quality 100.0 %
     Copy CRC 2830CB91
     Copy OK
Track  4
     Filename F:\FLAC MUSIC\00'S\Top Of The Pops\Top Of The Pops - 2001-2006\TOTP - 2001-2006 - Disc - 03\04.Ne-Yo - So Sick.wav
     Peak level 100.0 %
     Extraction speed 21.3 X
     Track quality 100.0 %
     Copy CRC 9EA79DA1
     Copy OK
Track  5
     Filename F:\FLAC MUSIC\00'S\Top Of The Pops\Top Of The Pops - 2001-2006\TOTP - 2001-2006 - Disc - 03\05.Ms. Dynamite - Dy-Na-Mi-Tee.wav
     Peak level 94.8 %
     Extraction speed 21.4 X
     Track quality 99.9 %
     Copy CRC A2EBE5F8
     Copy OK
Track  6
     Filename F:\FLAC MUSIC\00'S\Top Of The Pops\Top Of The Pops - 2001-2006\TOTP - 2001-2006 - Disc - 03\06.The Black Eyed Peas - Shut Up.wav
     Peak level 100.0 %
     Extraction speed 26.5 X
     Track quality 100.0 %
     Copy CRC E321B6FA
     Copy OK
Track  7
     Filename F:\FLAC MUSIC\00'S\Top Of The Pops\Top Of The Pops - 2001-2006\TOTP - 2001-2006 - Disc - 03\07.Mya - Case Of The Ex.wav
     Peak level 100.0 %
     Extraction speed 28.4 X
     Track quality 100.0 %
     Copy CRC B8000CAF
     Copy OK
Track  8
     Filename F:\FLAC MUSIC\00'S\Top Of The Pops\Top Of The Pops - 2001-2006\TOTP - 2001-2006 - Disc - 03\08.Christina Milian - Dip It Low.wav
     Peak level 100.0 %
     Extraction speed 25.5 X
     Track quality 100.0 %
     Copy CRC 7981557C
     Copy OK
Track  9
     Filename F:\FLAC MUSIC\00'S\Top Of The Pops\Top Of The Pops - 2001-2006\TOTP - 2001-2006 - Disc - 03\09.Lumidee - Never Leave You.wav
     Peak level 100.0 %
     Extraction speed 26.0 X
     Track quality 100.0 %
     Copy CRC C0ED92F0
     Copy OK
Track 10
     Filename F:\FLAC MUSIC\00'S\Top Of The Pops\Top Of The Pops - 2001-2006\TOTP - 2001-2006 - Disc - 03\10.Shaggy Feat. Ricardo 'RikRok' Ducent - It Wasn't Me.wav
     Peak level 100.0 %
     Extraction speed 26.1 X
     Track quality 99.9 %
     Copy CRC C3D64459
     Copy OK
Track 11
     Filename F:\FLAC MUSIC\00'S\Top Of The Pops\Top Of The Pops - 2001-2006\TOTP - 2001-2006 - Disc - 03\11.Sergio Mendes Feat. The Black Eyed Peas - Mas Que Nada.wav
     Peak level 100.0 %
     Extraction speed 31.7 X
     Track quality 100.0 %
     Copy CRC 6B4AA813
     Copy OK
Track 12
     Filename F:\FLAC MUSIC\00'S\Top Of The Pops\Top Of The Pops - 2001-2006\TOTP - 2001-2006 - Disc - 03\12.Sugababes - Round Round.wav
     Peak level 100.0 %
     Extraction speed 28.5 X
     Track quality 99.9 %
     Copy CRC CF1C4A1A
     Copy OK
Track 13
     Filename F:\FLAC MUSIC\00'S\Top Of The Pops\Top Of The Pops - 2001-2006\TOTP - 2001-2006 - Disc - 03\13.Girls Aloud - Sound Of The Underground.wav
     Peak level 100.0 %
     Extraction speed 27.7 X
     Track quality 99.9 %
     Copy CRC 5E8C6037
     Copy OK
Track 14
     Filename F:\FLAC MUSIC\00'S\Top Of The Pops\Top Of The Pops - 2001-2006\TOTP - 2001-2006 - Disc - 03\14.Liberty X - Being Nobody.wav
     Peak level 86.1 %
     Extraction speed 28.6 X
     Track quality 100.0 %
     Copy CRC 32E12520
     Copy OK
Track 15
     Filename F:\FLAC MUSIC\00'S\Top Of The Pops\Top Of The Pops - 2001-2006\TOTP - 2001-2006 - Disc - 03\15.Busted - Sleeping With The Light On.wav
     Peak level 100.0 %
     Extraction speed 35.5 X
     Track quality 100.0 %
     Copy CRC 633350D0
     Copy OK
Track 16
     Filename F:\FLAC MUSIC\00'S\Top Of The Pops\Top Of The Pops - 2001-2006\TOTP - 2001-2006 - Disc - 03\16.Mark Owen - Four Minute Warning.wav
     Peak level 100.0 %
     Extraction speed 31.1 X
     Track quality 99.9 %
     Copy CRC CEEC1F91
     Copy OK
Track 17
     Filename F:\FLAC MUSIC\00'S\Top Of The Pops\Top Of The Pops - 2001-2006\TOTP - 2001-2006 - Disc - 03\17.Blue - One Love.wav
     Peak level 100.0 %
     Extraction speed 31.8 X
     Track quality 100.0 %
     Copy CRC 5F1D6039
     Copy OK
Track 18
     Filename F:\FLAC MUSIC\00'S\Top Of The Pops\Top Of The Pops - 2001-2006\TOTP - 2001-2006 - Disc - 03\18.Gabrielle - Out Of Reach.wav
     Peak level 100.0 %
     Extraction speed 36.8 X
     Track quality 100.0 %
     Copy CRC 737B4D22
     Copy OK
Track 19
     Filename F:\FLAC MUSIC\00'S\Top Of The Pops\Top Of The Pops - 2001-2006\TOTP - 2001-2006 - Disc - 03\19.Ronan Keating - If Tomorrow Never Comes.wav
     Peak level 100.0 %
     Extraction speed 39.4 X
     Track quality 99.9 %
     Copy CRC EC6DCEE9
     Copy OK
No errors occurred
End of status report
Код:
REM GENRE Pop
REM DATE 2016
REM DISCID 24122214
REM COMMENT "ExactAudioCopy v1.3"
PERFORMER "Various"
TITLE "Top Of The Pops - 2001-2006 - Disc - 01"
FILE "0001.Gnarls Barkley - Crazy.flac" WAVE
  TRACK 01 AUDIO
    TITLE "Crazy"
    PERFORMER "Gnarls Barkley"
    INDEX 01 00:00:00
FILE "0002.The Pussycat Dolls Feat. Busta Rhymes - Don't Cha.flac" WAVE
  TRACK 02 AUDIO
    TITLE "Don't Cha"
    PERFORMER "The Pussycat Dolls Feat. Busta Rhymes"
    INDEX 01 00:00:00
FILE "0003.S Club 7 - Don't Stop Movin'.flac" WAVE
  TRACK 03 AUDIO
    TITLE "Don't Stop Movin'"
    PERFORMER "S Club 7"
    INDEX 01 00:00:00
FILE "0004.Sugababes - Push The Button.flac" WAVE
  TRACK 04 AUDIO
    TITLE "Push The Button"
    PERFORMER "Sugababes"
    INDEX 01 00:00:00
FILE "0005.Girls Aloud - Love Machine.flac" WAVE
  TRACK 05 AUDIO
    TITLE "Love Machine"
    PERFORMER "Girls Aloud"
    INDEX 01 00:00:00
FILE "0006.Liberty X - Just A Little.flac" WAVE
  TRACK 06 AUDIO
    TITLE "Just A Little"
    PERFORMER "Liberty X"
    INDEX 01 00:00:00
FILE "0007.Nelly Furtado - Maneater.flac" WAVE
  TRACK 07 AUDIO
    TITLE "Maneater"
    PERFORMER "Nelly Furtado"
    INDEX 01 00:00:00
FILE "0008.HearSay - Pure & Simple.flac" WAVE
  TRACK 08 AUDIO
    TITLE "Pure & Simple"
    PERFORMER "HearSay"
    INDEX 01 00:00:00
FILE "0009.Scissor Sisters - I Don't Feel Like Dancin'.flac" WAVE
  TRACK 09 AUDIO
    TITLE "I Don't Feel Like Dancin'"
    PERFORMER "Scissor Sisters"
    INDEX 01 00:00:00
FILE "0010.Sophie Ellis-Bextor - Murder On The Dancefloor.flac" WAVE
  TRACK 10 AUDIO
    TITLE "Murder On The Dancefloor"
    PERFORMER "Sophie Ellis-Bextor"
    INDEX 01 00:00:00
FILE "0011.Eric Prydz - Call On Me.flac" WAVE
  TRACK 11 AUDIO
    TITLE "Call On Me"
    PERFORMER "Eric Prydz"
    INDEX 01 00:00:00
FILE "0012.Underworld - Two Months Off.flac" WAVE
  TRACK 12 AUDIO
    TITLE "Two Months Off"
    PERFORMER "Underworld"
    INDEX 01 00:00:00
FILE "0013.Fatman Scoop Feat. The Crooklyn Clan - Be Faithful.flac" WAVE
  TRACK 13 AUDIO
    TITLE "Be Faithful"
    PERFORMER "Fatman Scoop Feat. The Crooklyn Clan"
    INDEX 01 00:00:00
FILE "0014.Room 5 Feat. Oliver Cheatham - Make Luv.flac" WAVE
  TRACK 14 AUDIO
    TITLE "Make Luv"
    PERFORMER "Room 5 Feat. Oliver Cheatham"
    INDEX 01 00:00:00
FILE "0015.Samantha Mumba - Always Come Back To Your Love.flac" WAVE
  TRACK 15 AUDIO
    TITLE "Always Come Back To Your Love"
    PERFORMER "Samantha Mumba"
    INDEX 01 00:00:00
FILE "0016.Emma Bunton - What Took You So Long!.flac" WAVE
  TRACK 16 AUDIO
    TITLE "What Took You So Long!"
    PERFORMER "Emma Bunton"
    INDEX 01 00:00:00
FILE "0017.Orson - No Tomorrow.flac" WAVE
  TRACK 17 AUDIO
    TITLE "No Tomorrow"
    PERFORMER "Orson"
    INDEX 01 00:00:00
FILE "0018.Texas - Inner Smile.flac" WAVE
  TRACK 18 AUDIO
    TITLE "Inner Smile"
    PERFORMER "Texas"
    INDEX 01 00:00:00
FILE "0019.Appleton - Fantasy.flac" WAVE
  TRACK 19 AUDIO
    TITLE "Fantasy"
    PERFORMER "Appleton"
    INDEX 01 00:00:00
FILE "0020.t.A.T.u. - All The Things She Said.flac" WAVE
  TRACK 20 AUDIO
    TITLE "All The Things She Said"
    PERFORMER "t.A.T.u."
    INDEX 01 00:00:00
Код:
REM GENRE Pop
REM DATE 2016
REM DISCID 3711D515
REM COMMENT "ExactAudioCopy v1.3"
PERFORMER "Various"
TITLE "Top Of The Pops - 2001-2006 - Disc - 02"
FILE "0001.Alien Ant Farm - Smooth Criminal.flac" WAVE
  TRACK 01 AUDIO
    TITLE "Smooth Criminal"
    PERFORMER "Alien Ant Farm"
    INDEX 01 00:00:00
FILE "0002.The Darkness - I Believe In A Thing Called Love.flac" WAVE
  TRACK 02 AUDIO
    TITLE "I Believe In A Thing Called Love"
    PERFORMER "The Darkness"
    INDEX 01 00:00:00
FILE "0003.Fall Out Boy - Dance Dance.flac" WAVE
  TRACK 03 AUDIO
    TITLE "Dance Dance"
    PERFORMER "Fall Out Boy"
    INDEX 01 00:00:00
FILE "0004.Sum 41 - Fat Lip.flac" WAVE
  TRACK 04 AUDIO
    TITLE "Fat Lip"
    PERFORMER "Sum 41"
    INDEX 01 00:00:00
FILE "0005.Papa Roach - Last Resort.flac" WAVE
  TRACK 05 AUDIO
    TITLE "Last Resort"
    PERFORMER "Papa Roach"
    INDEX 01 00:00:00
FILE "0006.Maroon 5 - This Love.flac" WAVE
  TRACK 06 AUDIO
    TITLE "This Love"
    PERFORMER "Maroon 5"
    INDEX 01 00:00:00
FILE "0007.The Kooks - Naive.flac" WAVE
  TRACK 07 AUDIO
    TITLE "Naive"
    PERFORMER "The Kooks"
    INDEX 01 00:00:00
FILE "0008.Busted - Year 3000.flac" WAVE
  TRACK 08 AUDIO
    TITLE "Year 3000"
    PERFORMER "Busted"
    INDEX 01 00:00:00
FILE "0009.The Calling - Wherever You Will Go.flac" WAVE
  TRACK 09 AUDIO
    TITLE "Wherever You Will Go"
    PERFORMER "The Calling"
    INDEX 01 00:00:00
FILE "0010.Nickelback - How You Remind Me.flac" WAVE
  TRACK 10 AUDIO
    TITLE "How You Remind Me"
    PERFORMER "Nickelback"
    REM COMPOSER ""
    INDEX 01 00:00:00
FILE "0011.Meat Loaf - It's All Coming Back To Me Now.flac" WAVE
  TRACK 11 AUDIO
    TITLE "It's All Coming Back To Me Now"
    PERFORMER "Meat Loaf"
    INDEX 01 00:00:00
FILE "0012.Razorlight - America.flac" WAVE
  TRACK 12 AUDIO
    TITLE "America"
    PERFORMER "Razorlight"
    INDEX 01 00:00:00
FILE "0013.Daniel Powter - Bad Day.flac" WAVE
  TRACK 13 AUDIO
    TITLE "Bad Day"
    PERFORMER "Daniel Powter"
    INDEX 01 00:00:00
FILE "0014.Avril Lavigne - Complicated.flac" WAVE
  TRACK 14 AUDIO
    TITLE "Complicated"
    PERFORMER "Avril Lavigne"
    INDEX 01 00:00:00
FILE "0015.Stereophonics - Maybe Tomorrow.flac" WAVE
  TRACK 15 AUDIO
    TITLE "Maybe Tomorrow"
    PERFORMER "Stereophonics"
    INDEX 01 00:00:00
FILE "0016.Anastacia - Left Outside Alone.flac" WAVE
  TRACK 16 AUDIO
    TITLE "Left Outside Alone"
    PERFORMER "Anastacia"
    INDEX 01 00:00:00
FILE "0017.The Feeling - Sewn.flac" WAVE
  TRACK 17 AUDIO
    TITLE "Sewn"
    PERFORMER "The Feeling"
    INDEX 01 00:00:00
FILE "0018.Take That - Patience.flac" WAVE
  TRACK 18 AUDIO
    TITLE "Patience"
    PERFORMER "Take That"
    INDEX 01 00:00:00
FILE "0019.James Morrison - You Give Me Something.flac" WAVE
  TRACK 19 AUDIO
    TITLE "You Give Me Something"
    PERFORMER "James Morrison"
    INDEX 01 00:00:00
FILE "0020.Atomic Kitten - Whole Again.flac" WAVE
  TRACK 20 AUDIO
    TITLE "Whole Again"
    PERFORMER "Atomic Kitten"
    INDEX 01 00:00:00
FILE "0021.Appleton - Don't Worry.flac" WAVE
  TRACK 21 AUDIO
    TITLE "Don't Worry"
    PERFORMER "Appleton"
    INDEX 01 00:00:00
Код:
REM GENRE Pop
REM DATE 2016
REM DISCID 2110C213
REM COMMENT "ExactAudioCopy v1.3"
PERFORMER "Various"
TITLE "Top Of The Pops - 2001-2006 - Disc - 03"
FILE "0001.OutKast - Hey Ya!.flac" WAVE
  TRACK 01 AUDIO
    TITLE "Hey Ya!"
    PERFORMER "OutKast"
    INDEX 01 00:00:00
FILE "0002.50 Cent - In Da Club.flac" WAVE
  TRACK 02 AUDIO
    TITLE "In Da Club"
    PERFORMER "50 Cent"
    INDEX 01 00:00:00
FILE "0003.Nelly Feat. City Spud - Ride Wit Me.flac" WAVE
  TRACK 03 AUDIO
    TITLE "Ride Wit Me"
    PERFORMER "Nelly Feat. City Spud"
    INDEX 01 00:00:00
FILE "0004.Ne-Yo - So Sick.flac" WAVE
  TRACK 04 AUDIO
    TITLE "So Sick"
    PERFORMER "Ne-Yo"
    INDEX 01 00:00:00
FILE "0005.Ms. Dynamite - Dy-Na-Mi-Tee.flac" WAVE
  TRACK 05 AUDIO
    TITLE "Dy-Na-Mi-Tee"
    PERFORMER "Ms. Dynamite"
    INDEX 01 00:00:00
FILE "0006.The Black Eyed Peas - Shut Up.flac" WAVE
  TRACK 06 AUDIO
    TITLE "Shut Up"
    PERFORMER "The Black Eyed Peas"
    INDEX 01 00:00:00
FILE "0007.Mya - Case Of The Ex.flac" WAVE
  TRACK 07 AUDIO
    TITLE "Case Of The Ex"
    PERFORMER "Mya"
    INDEX 01 00:00:00
FILE "0008.Christina Milian - Dip It Low.flac" WAVE
  TRACK 08 AUDIO
    TITLE "Dip It Low"
    PERFORMER "Christina Milian"
    INDEX 01 00:00:00
FILE "0009.Lumidee - Never Leave You.flac" WAVE
  TRACK 09 AUDIO
    TITLE "Never Leave You"
    PERFORMER "Lumidee"
    INDEX 01 00:00:00
FILE "0010.Shaggy Feat. Ricardo 'RikRok' Ducent - It Wasn't Me.flac" WAVE
  TRACK 10 AUDIO
    TITLE "It Wasn't Me"
    PERFORMER "Shaggy Feat. Ricardo 'RikRok' Ducent"
    INDEX 01 00:00:00
FILE "0011.Sergio Mendes Feat. The Black Eyed Peas - Mas Que Nada.flac" WAVE
  TRACK 11 AUDIO
    TITLE "Mas Que Nada"
    PERFORMER "Sergio Mendes Feat. The Black Eyed Peas"
    INDEX 01 00:00:00
FILE "0012.Sugababes - Round Round.flac" WAVE
  TRACK 12 AUDIO
    TITLE "Round Round"
    PERFORMER "Sugababes"
    INDEX 01 00:00:00
FILE "0013.Girls Aloud - Sound Of The Underground.flac" WAVE
  TRACK 13 AUDIO
    TITLE "Sound Of The Underground"
    PERFORMER "Girls Aloud"
    INDEX 01 00:00:00
FILE "0014.Liberty X - Being Nobody.flac" WAVE
  TRACK 14 AUDIO
    TITLE "Being Nobody"
    PERFORMER "Liberty X"
    INDEX 01 00:00:00
FILE "0015.Busted - Sleeping With The Light On.flac" WAVE
  TRACK 15 AUDIO
    TITLE "Sleeping With The Light On"
    PERFORMER "Busted"
    INDEX 01 00:00:00
FILE "0016.Mark Owen - Four Minute Warning.flac" WAVE
  TRACK 16 AUDIO
    TITLE "Four Minute Warning"
    PERFORMER "Mark Owen"
    INDEX 01 00:00:00
FILE "0017.Blue - One Love.flac" WAVE
  TRACK 17 AUDIO
    TITLE "One Love"
    PERFORMER "Blue"
    INDEX 01 00:00:00
FILE "0018.Gabrielle - Out Of Reach.flac" WAVE
  TRACK 18 AUDIO
    TITLE "Out Of Reach"
    PERFORMER "Gabrielle"
    INDEX 01 00:00:00
FILE "0019.Ronan Keating - If Tomorrow Never Comes.flac" WAVE
  TRACK 19 AUDIO
    TITLE "If Tomorrow Never Comes"
    PERFORMER "Ronan Keating"
    INDEX 01 00:00:00
--
Download / Скачать

Хотите скачать бесплатно? Зарегистрируйтесь на сайте (ссылка на регистрацию). Pirat.ca - самый быстрый торрент трекер в рунете!

Как скачивать  ·   Что такое торрент  ·   Рейтинг и ограничения

Показать сообщения:    
Ответить на тему

Текущее время: Сегодня 07:44

Часовой пояс: GMT + 4



Вы не можете начинать темы
Вы не можете отвечать на сообщения
Вы не можете редактировать свои сообщения
Вы не можете удалять свои сообщения
Вы не можете голосовать в опросах
Вы не можете прикреплять файлы к сообщениям
Вы не можете скачивать файлы

Майнать ▼