Уважаемый Гость!
Вы можете поддержать проект и зарегистрироваться у наших партнеров - онлайн-стратегия MyLands. При регистрации в игре Вы получите код, который сможете активировать после регистрации на pirat.ca и получить 1000 дублонов.

Ваш код:
d3bbd906dcd3cb9e17457607e92a6e485b6941fd
 
     

Хищники / Predators (Нимрод Антал / Nimród Antal) [2010 г., фантастика, боевик, триллер, приключения, BDRip, 720p] Dub + AVO (Гаврилов, Строев) + Original (Eng) + Sub (Rus, Eng, comment)

Ответить на тему
 
Автор
Сообщение

Пост 07-Ноя-2014 15:08

[Q] 

gross1978

-Хищники / Predators-- Производство: США
Год выпуска: 2010 г.
Жанр: фантастика, боевик, триллер, приключения
Продолжительность: 01:46:53
Перевод 1: Профессиональный (полное дублирование) Лицензия
Перевод 2: Авторский (одноголосый, закадровый) Гаврилов
Перевод 3: Авторский (одноголосый, закадровый) Строев
Оригинальный аудиопоток: английский
Cубтитры: Russian, English, Russian (комментарии)
Навигация по главам: сохранена
Режиссер: Нимрод Антал / Nimród Antal-В ролях: Эдриан Броуди, Тофер Грейс, Алиси Брага, Уолтон Гоггинс, Олег Тактаров, Лоренс Фишбёрн, Дэнни Трехо, Луис Одзава Чангчьен, Махершалалхашбаз Али, Кэри Джонс
Роли дублировали: Юрий Деркач, Евгений Вальц, Татьяна Шитова, Александр Коврижных, Олег Тактаров...-Описание: Наемник Ройс невольно вынужден возглавить группу профессионалов, выполняющих загадочную миссию на неизвестной планете. За исключением опального доктора все они - хладнокровные убийцы: наемники, гангстеры, осужденные и участники отрядов смерти людские «хищники». Но когда их начинает систематически преследовать и истреблять невообразимое чудовище, становится очевидно, что теперь они в роли своих жертв.

Качество видео: BDRip 720p
Контейнер: MKV
Видео кодек: H.264
Аудио кодек: AC3
Видео: 1280x544, 23.976fps, 4 404 Kbps, 0.264 bit/pixel
Аудио #1: AC3, 48.0 KHz, 6 ch, 448 Kbps, CBR – Дубляж
Аудио #2: AC3, 48.0 KHz, 6 ch, 448 Kbps, CBR – Гаврилов
Аудио #3: AC3, 48.0 KHz, 6 ch, 448 Kbps, CBR – Строев
Аудио #4: AC3, 48.0 KHz, 6 ch, 448 Kbps, CBR – оригинал
Формат субтитров: Softsub (SRT)
General
Unique ID : 219620696514156379016471179386714401131 (0xA5396857519E76A1BCB06530DBB9296B)
Complete name : F:\Фильмы архив\_фантастика\Хищники (Predators, 2010, BDRip, 720p) dub-Gavrilov-Stroev-eng.mkv
Format : Matroska
Format version : Version 2
File size : 4.72 GiB
Duration : 1h 46mn
Overall bit rate : 6 322 Kbps
Encoded date : UTC 2014-11-07 07:44:27
Writing application : mkvmerge v4.7.0 ('Just Like You Imagined') сборка от Apr 21 2011 01:13:14
Writing library : libebml v1.2.0 + libmatroska v1.1.0
Video
ID : 1
Format : AVC
Format/Info : Advanced Video Codec
Format profile : [email protected]
Format settings, CABAC : Yes
Format settings, ReFrames : 9 frames
Codec ID : V_MPEG4/ISO/AVC
Duration : 1h 46mn
Bit rate : 4 404 Kbps
Width : 1 280 pixels
Height : 544 pixels
Display aspect ratio : 2.35:1
Frame rate mode : Constant
Frame rate : 23.976 fps
Color space : YUV
Chroma subsampling : 4:2:0
Bit depth : 8 bits
Scan type : Progressive
Bits/(Pixel*Frame) : 0.264
Stream size : 3.29 GiB (70%)
Writing library : x264 core 125 r2208 d9d2288
Encoding settings : cabac=1 / ref=9 / deblock=1:-3:-3 / analyse=0x3:0x133 / me=umh / subme=11 / psy=1 / psy_rd=1.00:0.00 / mixed_ref=1 / me_range=32 / chroma_me=1 / trellis=2 / 8x8dct=1 / cqm=0 / deadzone=21,11 / fast_pskip=0 / chroma_qp_offset=-2 / threads=12 / lookahead_threads=2 / sliced_threads=0 / nr=0 / decimate=1 / interlaced=0 / bluray_compat=0 / constrained_intra=0 / bframes=8 / b_pyramid=2 / b_adapt=2 / b_bias=0 / direct=1 / weightb=1 / open_gop=0 / weightp=2 / keyint=250 / keyint_min=23 / scenecut=40 / intra_refresh=0 / rc=crf / mbtree=0 / crf=19.0 / qcomp=0.60 / qpmin=0 / qpmax=69 / qpstep=4 / ip_ratio=1.10 / pb_ratio=1.10 / aq=1:1.00
Language : English
Default : Yes
Forced : No
Audio #1
ID : 2
Format : AC-3
Format/Info : Audio Coding 3
Mode extension : CM (complete main)
Format settings, Endianness : Big
Codec ID : A_AC3
Duration : 1h 46mn
Bit rate mode : Constant
Bit rate : 448 Kbps
Channel count : 6 channels
Channel positions : Front: L C R, Side: L R, LFE
Sampling rate : 48.0 KHz
Bit depth : 16 bits
Compression mode : Lossy
Stream size : 342 MiB (7%)
Title : dub (BluRay CEE)
Language : Russian
Default : Yes
Forced : Yes
Audio #2
ID : 3
Format : AC-3
Format/Info : Audio Coding 3
Mode extension : CM (complete main)
Format settings, Endianness : Big
Codec ID : A_AC3
Duration : 1h 46mn
Bit rate mode : Constant
Bit rate : 448 Kbps
Channel count : 6 channels
Channel positions : Front: L C R, Side: L R, LFE
Sampling rate : 48.0 KHz
Bit depth : 16 bits
Compression mode : Lossy
Stream size : 342 MiB (7%)
Title : A1 (Gavrilov)
Language : Russian
Default : No
Forced : No
Audio #3
ID : 4
Format : AC-3
Format/Info : Audio Coding 3
Mode extension : CM (complete main)
Format settings, Endianness : Big
Codec ID : A_AC3
Duration : 1h 46mn
Bit rate mode : Constant
Bit rate : 448 Kbps
Channel count : 6 channels
Channel positions : Front: L C R, Side: L R, LFE
Sampling rate : 48.0 KHz
Bit depth : 16 bits
Compression mode : Lossy
Stream size : 342 MiB (7%)
Title : A1 (Stroev)
Language : Russian
Default : No
Forced : No
Audio #4
ID : 5
Format : AC-3
Format/Info : Audio Coding 3
Mode extension : CM (complete main)
Format settings, Endianness : Big
Codec ID : A_AC3
Duration : 1h 46mn
Bit rate mode : Constant
Bit rate : 448 Kbps
Channel count : 6 channels
Channel positions : Front: L C R, Side: L R, LFE
Sampling rate : 48.0 KHz
Bit depth : 16 bits
Compression mode : Lossy
Stream size : 342 MiB (7%)
Title : original
Language : English
Default : No
Forced : No
Text #1
ID : 6
Format : UTF-8
Codec ID : S_TEXT/UTF8
Codec ID/Info : UTF-8 Plain Text
Title : R5
Language : Russian
Default : No
Forced : No
Text #2
ID : 7
Format : UTF-8
Codec ID : S_TEXT/UTF8
Codec ID/Info : UTF-8 Plain Text
Title : BD SDH
Language : English
Default : No
Forced : No
Text #3
ID : 8
Format : UTF-8
Codec ID : S_TEXT/UTF8
Codec ID/Info : UTF-8 Plain Text
Title : Комментарий Роберта Родригеса и Нимрода Антала
Language : Russian
Default : No
Forced : No
Menu
00:00:00.000 : en:00:00:00.000
00:05:27.035 : en:00:05:27.035
00:07:57.394 : en:00:07:57.394
00:13:33.521 : en:00:13:33.521
00:17:26.587 : en:00:17:26.587
00:20:02.410 : en:00:20:02.410
00:23:46.300 : en:00:23:46.300
00:26:19.119 : en:00:26:19.119
00:31:34.518 : en:00:31:34.518
00:34:56.511 : en:00:34:56.511
00:38:24.719 : en:00:38:24.719
00:41:57.056 : en:00:41:57.056
00:46:12.979 : en:00:46:12.979
00:49:57.786 : en:00:49:57.786
00:53:27.955 : en:00:53:27.955
00:57:43.126 : en:00:57:43.126
01:02:11.853 : en:01:02:11.853
01:05:48.903 : en:01:05:48.903
01:09:38.758 : en:01:09:38.758
01:14:16.994 : en:01:14:16.994
01:16:25.539 : en:01:16:25.539
01:19:26.929 : en:01:19:26.929
01:21:34.473 : en:01:21:34.473
01:23:51.902 : en:01:23:51.902
01:27:33.707 : en:01:27:33.707
01:30:48.234 : en:01:30:48.234
01:34:12.564 : en:01:34:12.564
01:41:17.697 : en:01:41:17.697
- -
Download / Скачать

Хотите скачать бесплатно? Зарегистрируйтесь на сайте (ссылка на регистрацию). Pirat.ca - самый быстрый торрент трекер в рунете!

Как скачивать  ·   Что такое торрент  ·   Рейтинг и ограничения

Qdevil

Корсар

Пост 07-Ноя-2014 16:14 (спустя 1 час 6 минут)

[Q] 

хороший фильм, пересмотрю с удовольствием Лови бочку
[Профиль]  [ЛС] 

Shubnikoff

Морской Волк

Пост 07-Ноя-2014 20:14 (спустя 3 часа)

[Q] 

Спасибо) Всем качать!!!
[Профиль]  [ЛС] 

SGSoft

Флибустьер

Пост 07-Ноя-2014 21:28 (спустя 1 час 13 минут)

[Q] 

Бодрого вечера. Соглашусь, фильм можно пересматривать, есть желание. Благодарю за труд.
[Профиль]  [ЛС] 

italiano711

Гроза морей

42

Пост 20-Сен-2015 23:27 (спустя 10 месяцев 13 дней)

[Q] 

Автору спасибо, с большим удовольствием пересмотрю.
[Профиль]  [ЛС] 

gross1978 ®

7580

Пост 20-Сен-2015 23:45 (спустя 18 минут)

[Q] 

хех, стал на раздачу!

_________________
Употребляйте правильно слова, и вы избавите мир от половины недоразумений (Р.Декарт).
Если у Вас есть переводы в авторском, которых нет в моих раздачах и желание ими поделиться, пишите, добавим:)
[Профиль]  [ЛС] 

realleo

Корсар

Пост 08-Окт-2015 23:22 (спустя 17 дней)

[Q] 

спасибо! пересмотрел еще разок в хорошем качестве - супер! не то, что щас стали снимать - ни графики ни сюжета ни экстрима ни интриг :(
[Профиль]  [ЛС] 

ToRiR

Корсар

Пост 27-Дек-2016 02:49 (спустя 1 год 2 месяца)

[Q] 

А я не в восторге..Нет той атмосферы,напряжения,кое было у первого Хищника..Любопытный фильм,но не более того.Сейчас хотят снимать нового Хища,сценарий будет писать Шейн Блэк,сценарист того самого,первого Хищника,а также Смертельного оружия,Последнего бойскаута и др...Вот его буду ждать с нетерпением
[Профиль]  [ЛС] 
Показать сообщения:    
Ответить на тему

Текущее время: Сегодня 09:49

Часовой пояс: GMT + 4



Вы не можете начинать темы
Вы не можете отвечать на сообщения
Вы не можете редактировать свои сообщения
Вы не можете удалять свои сообщения
Вы не можете голосовать в опросах
Вы не можете прикреплять файлы к сообщениям
Вы не можете скачивать файлы

▼ Вниз