XXII Зимние Олимпийские Игры Сочи 2014 / Церемония закрытия (Россия HD - Дмитрий Губерниев, Сергей Брилев) [23.02.2014 г., HDTVRip, AVI, RU] [R.G. DOCpiratTV]

Ответить на тему
 
Автор
Сообщение

Пост 24-Фев-2014 18:03

[Q] 

UcrusPazzo

XXII Зимние Олимпийские Игры Сочи 2014 / Церемония закрытияЖаркие. Зимние. Твои.Официальный сайт "Сочи 2014" -Год выпуска: 23.02.2014 г.
Вид спорта: Олимпиада
Участники: Люди
Продолжительность: 02:33:53
Комментарий: Профессиональный (двухголосый, закадровый)
Комментатор: Дмитрий Губерниев, Сергей Брилев
Язык комментариев: русский-ТВ Канал: -Описание: Церемония закрытия завершает Игры, позволяя еще раз вспомнить самые яркие моменты и переосмыслить прошедшие соревнования.
Закрытие – последнее крупное праздничное мероприятие на Играх, на котором происходит официальное завершение Игр. Спортсмены участвуют в параде, а зрители еще раз переживают волнующую атмосферу Игр.
Помимо речи президента МОК/МПК, в Церемонии закрытия также присутствует целый ряд официальных элементов: исполнение национального гимна и гимна Греции (как столицы первых Олимпийских игр), внос флагов и парад спортсменов, спуск Олимпийского флага.
Но, конечно, Церемония закрытия – это еще и красочный праздник, на котором, также как и на Церемонии открытия, выступают блестящие артисты. Присутствие на Церемонии закрытия подарит вам незабываемые впечатления на всю жизнь.
Частью праздничной программы Церемонии закрытия является художественная часть следующего города-организатора Игр. В Сочи на церемонии закрытия, после церемонии передачи флага, выступят артисты из Кореи – государства, в котором расположена следующая столица зимнего олимпийского торжества – город Пхёнчхан.-Качество видео: HDTVRip
Контейнер: AVI
Видео кодек: XviD
Аудио кодек: Microsoft MPEG
Видео: 720x400 (1.80:1), 25 fps, XviD build 50 ~2004 kbps avg, 0.28 bit/pixel
Аудио: 48 kHz, Microsoft MPEG, 2 ch, ~192.00 kbps avg
Автор рипа:
Общее
Формат : AVI
Формат/Информация : Audio Video Interleave
Профиль формата : OpenDML
Размер файла : 2,37 Гбайт
Продолжительность : 2 ч. 33 м.
Общий поток : 2204 Кбит/сек
Название фильма : XXII ЗОИ Сочи 2014 Церемония закрытия (23.02.14) [R.G. DOCpiratTV]
Программа кодирования : VirtualDubMod 1.5.10.3 | www.virtualdub-fr.org || (build 2550/release)
Правообладатель : R.G. DOCpiratTV (UcrusPazzo)
Видео
Идентификатор : 0
Формат : MPEG-4 Visual
Профиль формата : Advanced [email protected]
Параметр BVOP формата : 3
Параметр QPel формата : Нет
Параметр GMC формата : Без точки перехода
Параметр матрицы формата : Default (MPEG)
Идентификатор кодека : XVID
Идентификатор кодека/Подсказка : XviD
Продолжительность : 2 ч. 33 м.
Битрейт : 2000 Кбит/сек
Ширина : 720 пикселей
Высота : 400 пикселей
Соотношение сторон : 16:9
Частота кадров : 25,000 кадров/сек
Цветовое пространство : YUV
Субдискретизация насыщенности : 4:2:0
Битовая глубина : 8 бит
Тип развёртки : Прогрессивная
Метод сжатия : С потерями
Бит/(Пиксели*Кадры) : 0.278
Размер потока : 2,15 Гбайт (91%)
Библиотека кодирования : XviD 1.2.1 (UTC 2008-12-04)
Аудио
Идентификатор : 1
Формат : MPEG Audio
Версия формата : Version 1
Профиль формата : Layer 2
Идентификатор кодека : 50
Продолжительность : 2 ч. 33 м.
Вид битрейта : Постоянный
Битрейт : 192 Кбит/сек
Каналы : 2 канала
Частота : 48,0 КГц
Метод сжатия : С потерями
Размер потока : 211 Мбайт (9%)
Выравнивание : Соединение по промежуткам
Продолжительность промежутка : 40 мс. (1,00 видеокадр)
Время предзагрузки промежутка : 504 мс.
Download / Скачать

Хотите скачать бесплатно? Зарегистрируйтесь на сайте (ссылка на регистрацию). Pirat.ca - самый быстрый торрент трекер в рунете!

Как скачивать  ·   Что такое торрент  ·   Рейтинг и ограничения

Сантила

Морской Волк

Пост 25-Фев-2014 15:08 (спустя 21 час)

[Q] 

Постановка конечно крутая что Открытие, что Закрытие игр, зараждается новый вид художественного искуства а это круто

_________________
Я не Волшебник- Я только учусь...
[Профиль]  [ЛС] 

maikl611

Флибустьер

Пост 02-Мар-2014 00:38 (спустя 4 дня)

[Q] 

РОССИЯ РУЛИТ ! ! ! Всем качать!!!
[Профиль]  [ЛС] 

manapovav

Корсар

Пост 02-Янв-2017 01:49 (спустя 2 года 9 месяцев)

[Q] 

Интересно для истории
[Профиль]  [ЛС] 
Показать сообщения:    
Ответить на тему

Текущее время: Сегодня 22:00

Часовой пояс: GMT + 4



Вы не можете начинать темы
Вы не можете отвечать на сообщения
Вы не можете редактировать свои сообщения
Вы не можете удалять свои сообщения
Вы не можете голосовать в опросах
Вы не можете прикреплять файлы к сообщениям
Вы не можете скачивать файлы

Майнать ▼