Шрек / Shrek (Эндрю Адамсон, Викки Дженсон / Andrew Adamson, Vicky Jenson) [2001 г., фэнтези, комедия, мелодрама, приключения, BDRip-AVC] AVO (Гаврилов, Визгунов) + Subs (Rus)

Ответить на тему
 
Автор
Сообщение

Пост 14-Ноя-2016 12:06

[Q] 

anton966

Шрек / Shrek
«Its Big!»
- Год выпуска: 2001
Российская премьера: 31 октября 2001 (Россия)
Производство: США
Жанр: фэнтези, комедия, мелодрама, приключения
Продолжительность: 01:30:03
Перевод: Авторский (одноголосый) Андрей Гаврилов + Сергей Визгунов
Субтитры: русские (*.srt)
Режиссер: Эндрю Адамсон, Викки Дженсон / Andrew Adamson, Vicky Jenson
Персонажи: Майк Майерс (Mike Myers) .... Shrek/Blind Mouse (voice),
Эдди Мэрфи (Eddie Murphy) .... Donkey (voice),
Кэмерон Диаз (Cameron Diaz) .... Princess Fiona (voice),
Джон Литгоу (John Lithgow) .... Lord Farquaad (voice),
Vincent Cassel .... Monsieur Hood (voice),
Peter Dennis .... Ogre Hunter (voice),
Clive Pearse .... Ogre Hunter (voice),
Jim Cummings .... Captain of Guards (voice),
Bobbie Block .... Baby Bear (voice) (as Bobby Block),
Chris Miller (VII) .... Geppetto/Magic Mirror (voice),
Cody Cameron .... Pinnochio/Three Pigs (voice),
Kathleen Freeman (I) .... Old Woman (voice),
Michael Galasso (I) .... Peter Pan (voice),
Christopher Knights .... Blind Mouse/Thelonious (voice),
Simon J. Smith .... Blind Mouse (voice),
Описание: Огромный зеленый Шрек живет вдали от суеты в своем домике в лесу, наслаждаясь жизнью. Но, как это всегда бывает в сказках, все хорошее быстро кончается. Вот и теперь противный коротышка лорд Фаркуад, правитель этих земель, решил выселить куда подальше всех сказочных существ. И, разумеется, в качестве этого "куда подальше" был выбран именно родной лес Шрека, превратившийся в одночасье в лагерь беженцев.
Шрек отправляется на разборку к Фаркуаду, и тот соглашается забрать всю эту шатию обратно, но с одним условием. Шрек должен сперва найти прекрасную юную принцессу Фиону, которая, как предполагает лорд, станет затем его, Фаркуада, женой. К сожалению, Фаркуад забывает предупредить Шрека о том, что сон принцессы охраняет гигантский огнедышащий дракон...


Качество видео: BDRip-AVC
Контейнер: MKV
Видео кодек: MPEG4-AVC / H.264
Видео: 1152x648 / 2352 kbps / 23,976 fps / 16:9 / High Profile 4.1
Аудио#1: 48 kHz, AC3 Dolby Digital, 3/2 (L,C,R,l,r) + LFE ch, ~448.00 kbps avg - Гаврилов
Аудио#2: 48 kHz, AC3 Dolby Digital, 3/2 (L,C,R,l,r) + LFE ch, ~448.00 kbps avg - Визгунов
Аудио#3: 48 kHz, AC3 Dolby Digital, 2/0 (L,R) ch, ~192.00 kbps avg - Комментарии создателей - режиссера Эндрю Адамсона и Вики Дженсон, а также продюсера Арона Уорнера, перевод Superbit
Приз Национального совета обозревателей за лучший анимационный полнометражный фильм.
Оскар, 2002 год
Победитель (1):
Лучший анимационный фильм
Номинации (1):
Лучший адаптированный сценарий
Золотой глобус, 2002 год
Номинации (1):
Лучший фильм (комедия или мюзикл)
Премия канала «MTV», 2002 год
Номинации (4):
Лучший фильм
Лучшая комедийная роль (Эдди Мёрфи)
Лучшая комедийная роль (Майк Майерс)
Лучшая экранная команда (Кэмерон Диаз, Майк Майерс, Эдди Мёрфи)
Британская академия, 2002 год
Победитель (1):
Лучший адаптированный сценарий
Номинации (5):
Лучший фильм
Лучшая мужская роль второго плана (Эдди Мёрфи)
Лучший звук
Лучшие визуальные эффекты
Премия имени Энтони Эскуита за достижения в создании музыки к фильму
Сатурн, 2002 год
Победитель (1):
Лучшее специальное DVD-издание
Номинации (4):
Лучший фэнтези-фильм
Лучший актер второго плана (Эдди Мёрфи)
Лучший сценарий
Лучшая музыка
Каннский кинофестиваль, 2001 год
Номинации (1):
Золотая пальмовая ветвь
Карловы Вары, 2001 год
Победитель (1):
Приз зрительских симпатий
avs [info]: 1152x648p 1:1 @ 24000/1001 fps (cfr)
x264 [info]: using SAR=1/1
x264 [info]: using cpu capabilities: MMX2 SSE2Fast SSSE3 SSE4.2 AVX XOP FMA4 FMA3 LZCNT BMI1
x264 [info]: profile High, level 4.1
x264 [info]: cabac=1 ref=11 deblock=1:-3:-3 analyse=0x3:0x113 me=umh subme=11 psy=1 fade_compensate=0.00 psy_rd=1.00:0.20 mixed_ref=1 me_range=32 chroma_me=1 trellis=2 8x8dct=1 cqm=0 deadzone=21,11 fast_pskip=1 chroma_qp_offset=-3 threads=8 lookahead_threads=2 sliced_threads=0 nr=0 decimate=1 interlaced=0 bluray_compat=0 constrained_intra=0 fgo=0 bframes=10 b_pyramid=2 b_adapt=2 b_bias=0 direct=1 weightb=1 open_gop=0 weightp=2 keyint=250 keyint_min=23 scenecut=40 intra_refresh=0 rc_lookahead=40 rc=crf mbtree=0 crf=19.3000 qcomp=0.60 qpmin=0 qpmax=69 qpstep=4 vbv_maxrate=50000 vbv_bufsize=62500 crf_max=0.0 nal_hrd=none filler=0 ip_ratio=1.40 pb_ratio=1.30 aq=3:0.90
x264 [info]: frame I:1202 Avg QP:16.64 size:109914
x264 [info]: frame P:32512 Avg QP:18.94 size: 24497
x264 [info]: frame B:95959 Avg QP:21.51 size: 6899
x264 [info]: consecutive B-frames: 2.0% 4.7% 19.7% 27.6% 19.1% 23.7% 1.4% 0.6% 0.3% 0.3% 0.5%
x264 [info]: mb I I16..4: 8.0% 72.5% 19.5%
x264 [info]: mb P I16..4: 0.5% 9.7% 1.3% P16..4: 23.9% 24.8% 10.5% 0.0% 0.0% skip:29.3%
x264 [info]: mb B I16..4: 0.1% 1.2% 0.1% B16..8: 23.8% 12.8% 2.2% direct: 3.1% skip:56.7% L0:38.8% L1:45.1% BI:16.1%
x264 [info]: 8x8 transform intra:82.2% inter:56.9%
x264 [info]: coded y,uvDC,uvAC intra: 91.2% 88.3% 67.1% inter: 13.3% 10.8% 2.8%
x264 [info]: i16 v,h,dc,p: 18% 6% 9% 67%
x264 [info]: i8 v,h,dc,ddl,ddr,vr,hd,vl,hu: 12% 8% 5% 9% 13% 13% 13% 13% 14%
x264 [info]: i4 v,h,dc,ddl,ddr,vr,hd,vl,hu: 13% 7% 4% 9% 16% 14% 14% 11% 12%
x264 [info]: i8c dc,h,v,p: 37% 22% 19% 22%
x264 [info]: Weighted P-Frames: Y:4.0% UV:2.9%
x264 [info]: ref P L0: 54.6% 11.1% 14.5% 5.0% 4.1% 3.1% 2.6% 1.3% 1.3% 1.1% 1.3% 0.1% 0.0%
x264 [info]: ref B L0: 82.9% 7.2% 4.4% 1.6% 1.4% 0.9% 0.7% 0.5% 0.3% 0.2%
x264 [info]: ref B L1: 96.7% 3.3%
x264 [info]: kb/s:2352.79
Формат : Matroska
Версия формата : Version 4 / Version 2
Размер файла : 2,17 Гбайт
Продолжительность : 1 ч. 30 м.
Общий поток : 3443 Кбит/сек
Название фильма : Shrek.2001.BDRip-AVC.Gavrilov.Vizgunov.Subs -=anton966=-
Дата кодирования : UTC 2016-11-14 06:43:32
Программа кодирования : mkvmerge v8.3.0 ('Over the Horizon') 64bit
Библиотека кодирования : libebml v1.3.1 + libmatroska v1.4.2
Видео
Идентификатор : 1
Формат : AVC
Формат/Информация : Advanced Video Codec
Профиль формата : [email protected]
Параметр CABAC формата : Да
Параметр ReFrames формата : 11 кадров
Идентификатор кодека : V_MPEG4/ISO/AVC
Продолжительность : 1 ч. 30 м.
Битрейт : 2353 Кбит/сек
Ширина : 1152 пикселя
Высота : 648 пикселей
Соотношение сторон : 16:9
Режим частоты кадров : Постоянный
Частота кадров : 23,976 (24000/1001) кадра/сек
Цветовое пространство : YUV
Субдискретизация насыщенности : 4:2:0
Битовая глубина : 8 бит
Тип развёртки : Прогрессивная
Бит/(Пиксели*Кадры) : 0.131
Размер потока : 1,48 Гбайт (68%)
Заголовок : Shrek.2001.BDRip-AVC
Библиотека кодирования : x264 core 148 r2705kMod 3f5ed56
Настройки программы : cabac=1 / ref=11 / deblock=1:-3:-3 / analyse=0x3:0x113 / me=umh / subme=11 / psy=1 / fade_compensate=0.00 / psy_rd=1.00:0.20 / mixed_ref=1 / me_range=32 / chroma_me=1 / trellis=2 / 8x8dct=1 / cqm=0 / deadzone=21,11 / fast_pskip=1 / chroma_qp_offset=-3 / threads=8 / lookahead_threads=2 / sliced_threads=0 / nr=0 / decimate=1 / interlaced=0 / bluray_compat=0 / constrained_intra=0 / fgo=0 / bframes=10 / b_pyramid=2 / b_adapt=2 / b_bias=0 / direct=1 / weightb=1 / open_gop=0 / weightp=2 / keyint=250 / keyint_min=23 / scenecut=40 / intra_refresh=0 / rc_lookahead=40 / rc=crf / mbtree=0 / crf=19.3000 / qcomp=0.60 / qpmin=0 / qpmax=69 / qpstep=4 / vbv_maxrate=50000 / vbv_bufsize=62500 / crf_max=0.0 / nal_hrd=none / filler=0 / ip_ratio=1.40 / pb_ratio=1.30 / aq=3:0.90
Язык : English
Default : Да
Forced : Нет
Цветовой диапазон : Limited
Основные цвета : BT.709
Характеристики трансфера : BT.709
Коэффициенты матрицы : BT.709
Аудио #1
Идентификатор : 2
Формат : AC-3
Формат/Информация : Audio Coding 3
Расширение режима : CM (complete main)
Параметр Endianness формата : Big
Идентификатор кодека : A_AC3
Продолжительность : 1 ч. 30 м.
Вид битрейта : Постоянный
Битрейт : 448 Кбит/сек
Каналы : 6 каналов
Расположение каналов : Front: L C R, Side: L R, LFE
Частота : 48,0 КГц
Частота кадров : 31,250 кадров/сек (1536 spf)
Битовая глубина : 16 бит
Метод сжатия : С потерями
Размер потока : 289 Мбайт (13%)
Заголовок : Gavrilov
Язык : Russian
Default : Да
Forced : Нет
Аудио #2
Идентификатор : 3
Формат : AC-3
Формат/Информация : Audio Coding 3
Расширение режима : CM (complete main)
Параметр Endianness формата : Big
Идентификатор кодека : A_AC3
Продолжительность : 1 ч. 30 м.
Вид битрейта : Постоянный
Битрейт : 448 Кбит/сек
Каналы : 6 каналов
Расположение каналов : Front: L C R, Side: L R, LFE
Частота : 48,0 КГц
Частота кадров : 31,250 кадров/сек (1536 spf)
Битовая глубина : 16 бит
Метод сжатия : С потерями
Размер потока : 289 Мбайт (13%)
Заголовок : Vizgunov
Язык : Russian
Default : Нет
Forced : Нет
Аудио #3
Идентификатор : 4
Формат : AC-3
Формат/Информация : Audio Coding 3
Расширение режима : CM (complete main)
Параметр Endianness формата : Big
Идентификатор кодека : A_AC3
Продолжительность : 1 ч. 30 м.
Вид битрейта : Постоянный
Битрейт : 192 Кбит/сек
Каналы : 2 канала
Расположение каналов : Front: L R
Частота : 48,0 КГц
Частота кадров : 31,250 кадров/сек (1536 spf)
Битовая глубина : 16 бит
Метод сжатия : С потерями
Размер потока : 124 Мбайт (6%)
Заголовок : Commentary (tr. Superbit)
Язык : Russian
Default : Нет
Forced : Нет
Текст
Идентификатор : 5
Формат : UTF-8
Идентификатор кодека : S_TEXT/UTF8
Идентификатор кодека/Информация : UTF-8 Plain Text
Продолжительность : 1 ч. 20 м.
Битрейт : 95 бит/сек
Count of elements : 1041
Размер потока : 56,1 Кбайт (0%)
Язык : Russian
Default : Нет
Forced : Нет
Меню
00:00:00.000 : en:Once Upon a Time (Main Title)
00:04:58.798 : en:A Flying, Talking Donkey
00:11:45.121 : en:What Are You Doing In My Swamp?
00:16:00.793 : en:Lord Farquaad
00:20:13.378 : en:The Kingdom of Duloc
00:26:21.454 : en:Ogres Are Like Onions
00:31:42.859 : en:The Dragon's Keep
00:35:15.279 : en:Rescuing the Princess
00:40:26.006 : en:Remove Your Helmet
00:45:03.158 : en:Campfire
00:49:18.246 : en:Merry Men
00:55:29.701 : en:Weedrat Dinner
01:00:56.277 : en:You Ate the Princess!
01:05:35.348 : en:The Proposal
01:09:16.986 : en:Wedding Preparation
01:11:34.707 : en:That's What Friends Are For
01:14:53.447 : en:The Wedding
01:17:35.817 : en:Love's True Form
01:20:55.141 : en:I'm a Believer
01:23:04.354 : en:End Credits
Download / Скачать

Хотите скачать бесплатно? Зарегистрируйтесь на сайте (ссылка на регистрацию). Pirat.ca - самый быстрый торрент трекер в рунете!

Как скачивать  ·   Что такое торрент  ·   Рейтинг и ограничения



Последний раз редактировалось: anton966 (2016-11-16 12:52), всего редактировалось 2 раз(а)

nitro1985

Корсар

Пост 14-Ноя-2016 16:12 (спустя 4 часа)

[Q] 

прекрасный мульт
!COOL! Всем качать!!!
[Профиль]  [ЛС] 

anton966 ®

10876

Пост 16-Ноя-2016 13:17 (спустя 1 день 21 час)

[Q] 

Шрек 2 / Shrek 2 (Эндрю Адамсон / Andrew Adamson, Келли Эсбери / Kelly Asbury) [2004 г., фэнтези, комедия, мелодрама, приключения, семейный, BDRip-AVC] AVO (Гаврилов) + Subs (Rus)

_________________
" ...потому что во многой мудрости много печали; и кто умножает познания, умножает скорбь" ( Еккл 1:17,18)
[Профиль]  [ЛС] 

GrappLeR

Морской Волк

Пост 02-Янв-2017 18:36 (спустя 1 месяц 16 дней)

[Q] 

качнём) !COOL!
[Профиль]  [ЛС] 
Показать сообщения:    
Ответить на тему

Текущее время: Сегодня 02:24

Часовой пояс: GMT + 4



Вы не можете начинать темы
Вы не можете отвечать на сообщения
Вы не можете редактировать свои сообщения
Вы не можете удалять свои сообщения
Вы не можете голосовать в опросах
Вы не можете прикреплять файлы к сообщениям
Вы не можете скачивать файлы

Майнать ▼